#TITLE:R5;
#SUBTITLE:(Another);
#ARTIST:tiger YAMATO with ultrabeatbox;
#TITLETRANSLIT:;
#SUBTITLETRANSLIT:;
#ARTISTTRANSLIT:;
#CREDIT:;
#BANNER:R5.png;
#BACKGROUND:R5-bg.png;
#LYRICSPATH:;
#CDTITLE:Jimbo.png;
#MUSIC:R5 (another).mp3;
#OFFSET:-0.160;
#SAMPLESTART:34.460;
#SAMPLELENGTH:12.000;
#SELECTABLE:YES;
#BPMS:0.000=180.000;
#STOPS:;
#BGCHANGES:;
// cache tags:
#FIRSTBEAT:4.000;
#LASTBEAT:280.000;
#SONGFILENAME:Songs/Fabulously Fresh Flock of Fantastic Files F5/(Jimbo) R5 [A]/R5.sm;
#HASMUSIC:1;
#HASBANNER:1;
#MUSICLENGTH:94.569;
// end cache tags

//---------------dance-single - ----------------
#NOTES:
     dance-single:
     :
     Hard:
     10:
     1.000,1.000,1.000,0.095,0.550,585.000,168.000,9.000,0.000,0.000:

0000
0000
0000
0000
,
0100
0000
0000
0000
1001
0000
0001
0000
1000
0010
0100
0000
0101
0000
0010
1000
,
0001
0000
0100
0010
0100
0000
1000
0000
0101
0000
0100
0000
1010
0000
0001
0100
,
0001
0000
1000
0000
0101
0000
1010
0000
0100
0001
0100
0010
1000
0000
0110
0000
,
1010
1001
0101
0010
1010
0001
1100
0010
,
0001
0100
0001
0100
0010
0000
1000
0000
0101
0000
0100
0000
0101
0000
0010
0000
,
1100
0000
0001
0100
0010
0000
1001
0000
0100
0010
1000
0100
0010
0000
0101
0000
,
1001
0110
2001
0000
0100
0000
3001
0100
,
0110
0000
0000
0000
1010
0000
0000
0000
0100
0000
1001
0000
0100
0010
1000
0100
,
0010
0001
0100
0001
1000
0010
1100
0000
0000
0000
0000
0000
1001
0000
0000
0000
,
1000
0101
0001
0000
1010
0000
0010
0101
,
1000
0000
1010
0000
0100
0010
1001
0000
,
1010
1001
1010
1100
,
0000
0000
0000
0000
0001
1000
0100
0010
0001
0100
0010
0100
2002
0000
0000
0000
,
0000
0000
0000
0000
,
0000
0000
0000
3003
1000
0001
1000
0001
1000
0001
1000
0001
1000
0001
1000
0001
,
1000
0001
1000
0001
1000
0001
1000
0001
1000
0001
1000
0001
1000
0001
1000
0001
,
1000
0001
1000
0001
1000
0001
1000
0001
1000
0001
1000
0001
1000
0001
1000
0001
,
1000
0001
1000
0001
1000
0001
1000
0001
1000
0001
1000
0001
1000
0001
1000
0001
,
1000
0001
1000
0001
1000
0001
1000
0001
1000
0001
1000
0001
1000
0001
1000
0001
,
1000
0001
1000
0001
1000
0001
1000
0001
1000
0001
1000
0001
1000
0001
1000
0001
,
1000
0001
1000
0001
1000
0001
1000
0001
1000
0001
1000
0001
1000
0001
1000
0001
,
1000
0001
1000
0001
1000
0001
1000
0001
1000
0001
1000
0001
1000
0001
1000
0001
,
1000
0001
1000
0001
1000
0001
1000
0001
1000
0001
1000
0001
1000
0001
1000
0001
,
1000
0001
0000
0000
1000
0000
0000
0000
0001
0000
0000
0000
0100
0000
0010
0000
,
1000
0000
0100
0000
1001
0000
0000
0000
0100
0000
0000
0000
1000
0010
1000
0000
,
0101
0010
1000
0101
0010
0110
0001
0001
,
1001
0001
0011
0101
0001
0001
1001
0001
,
0001
0011
0001
0001
0101
0001
1001
0100
,
1010
0001
0100
1010
0010
1010
0001
0100
,
1001
0010
1000
0110
0001
1000
1001
0100
,
0010
0000
0000
0000
1010
0000
0000
0000
0001
0000
0000
0000
0001
0000
0000
1000
0200
0000
0000
0000
0000
0000
0300
0000
1001
0000
0000
0000
0100
0000
0000
0000
,
1010
0001
0100
0110
0001
1001
0010
0010
,
1010
0010
0110
1010
0010
0010
0011
0010
,
0010
0110
0010
0010
1010
0010
0101
1000
,
1100
0010
0100
1001
0001
0101
1000
0010
,
0110
1000
0001
0110
1000
0001
1010
0100
,
0001
1010
0001
0100
0020
0000
1030
0000
,
0001
0001
0100
0100
0010
0000
1000
1000
,
0101
0010
1010
0000
0001
0100
0000
0100
,
0001
0000
0010
0010
1001
0010
0110
0000
,
1000
1000
0000
0001
0001
0000
0100
0100
,
1010
0010
0101
0000
1000
1000
0000
0001
,
0001
0001
1010
1010
0101
0101
1001
0100
,
1001
0010
1001
0100
0011
0001
0101
0110
,
1010
0101
1001
1010
1100
1001
1010
1001
,
1100
1010
1001
1010
1001
1001
0110
0010
,
0110
0100
0110
0001
1001
0100
0011
0001
,
0110
0010
1001
0101
1001
0101
0110
1010
,
0101
0110
1001
1010
0101
0110
0000
0001
,
0000
0000
0000
0000
0001
0000
0000
0000
0000
0000
0000
0000
0001
0000
0000
0000
1000
0000
0000
0000
0100
0000
0000
0000
0000
0000
0000
0000
0000
0000
0000
1000
,
0001
0000
0000
0100
0000
0100
0000
0100
,
0010
0000
0000
0000
1000
0000
0000
0000
0000
0000
0000
0000
0000
0000
0000
0010
0001
0000
0000
0000
0000
0000
0000
0000
1000
0000
0000
0000
0100
0000
0000
0000
,
0010
0000
0000
0000
0100
0000
0000
0000
0000
0000
0000
0000
1000
0000
0000
0000
0101
0000
0000
0000
1100
0000
0000
0000
0000
0000
0000
0000
0000
0000
0000
0001
,
0100
0000
1000
0001
0100
0010
0000
0010
,
1001
0000
0000
0000
0110
0000
0000
0000
2000
0000
0000
0000
0000
0000
0000
3001
0100
0000
0000
0000
0000
0000
0000
0000
1000
0000
0001
0000
1000
0000
0001
0000
,
0100
1010
0010
0101
1000
0010
0100
0001
,
1010
0100
0001
1100
0010
0100
0001
0010
,
1010
0101
0001
1100
0001
0100
1000
0010
,
1001
0000
0100
0000
0010
0000
1001
0000
0001
0000
1000
0000
0001
0100
0010
0100
,
1001
1001
0010
0101
0101
1000
0110
0110
,
1001
0101
0010
1000
0101
0110
1000
1010
,
0101
0100
1001
1001
0110
0110
1000
0100
,
0101
0010
1000
0110
1000
0001
0010
1001
,
0001
1010
0010
0101
0001
0110
0100
1001
,
0010
1100
0001
0110
1000
0101
0010
1001
,
0100
1001
0010
0101
0100
0110
1001
0101
,
2010
0100
0001
0010
0100
3010
0102
1000
,
0100
0000
1000
0000
0010
0000
0100
0000
1000
0000
0013
0000
0101
0000
1001
0100
,
0010
0001
0010
0100
2000
0000
0000
0000
0000
0000
0000
0000
0000
0000
0000
0000
,
3000
0000
0000
0000
;
