#TITLE:Starwolf;
#SUBTITLE:Starfox 64;
#ARTIST:KgZ;
#TITLETRANSLIT:;
#SUBTITLETRANSLIT:;
#ARTISTTRANSLIT:;
#CREDIT:Ultimatum;
#BANNER:Starwolf-banner.png;
#BACKGROUND:Starwolf-bg.png;
#LYRICSPATH:;
#CDTITLE:!cdtitle2.png;
#MUSIC:Starwolf.mp3;
#OFFSET:1.046;
#SAMPLESTART:28.700;
#SAMPLELENGTH:13.000;
#SELECTABLE:YES;
#BPMS:0.000=170.000;
#STOPS:;
#BGCHANGES:;
// cache tags:
#FIRSTBEAT:3.000;
#LASTBEAT:428.000;
#SONGFILENAME:Songs/KBU/Starwolf (SulferDragon + Kommisar)/starwolf.sm;
#HASMUSIC:1;
#HASBANNER:1;
#MUSICLENGTH:108.773;
// end cache tags

//---------------dance-single - ----------------
#NOTES:
     dance-single:
     :
     Hard:
     13:
     1.000,1.000,1.000,0.883,1.000,767.000,262.000,96.000,0.000,82.000:
0000
0000
0000
0000
0000
0000
0000
0000
0000
0000
0000
0000
0110
0100
0000
0100
,
2011
3000
0000
0000
0000
0000
0000
0000
0000
0000
0000
0000
0000
0000
0000
0000
1000
0000
0000
0000
0100
0000
0000
0000
0010
0000
0000
0000
0100
0000
0000
0000
0001
0000
0000
0000
0010
0000
0000
0000
0100
0000
0000
0000
0001
0000
0000
0000
1000
0000
0000
0000
0100
0000
0000
0000
0010
0000
0000
0000
0001
0000
0000
0000
,
1000
0000
0000
0000
0100
0000
0000
0000
0001
0000
0000
0000
1000
0000
0000
0000
0010
0000
0000
0000
0001
0000
0000
0000
0100
0000
0000
0000
0010
0000
0000
0000
2101
3000
0000
0000
0100
0000
0000
0000
0100
0000
0000
0000
0100
0000
0000
0000
2101
3000
0000
0000
0010
0000
0000
0000
0100
0000
0000
0000
1001
0000
0000
0000
,
0000
0000
1001
0010
0100
1001
0000
0000
1001
0010
0100
1001
0010
0001
1000
0100
,
0001
0000
0000
0000
0000
0000
0000
0000
0010
0000
0000
0000
0000
0000
0000
0000
2101
3000
0000
0000
0000
0000
0000
0000
0110
0000
0000
0000
0000
0000
0000
0000
2011
3000
0000
0000
0000
0000
0000
0000
1010
0000
0000
0000
0000
0000
0000
0000
2101
3000
0000
0000
0010
0000
0000
0000
0100
0000
0000
0000
1001
0000
0000
0000
,
0000
0000
1001
0010
0100
1001
0000
0000
1001
0010
0100
1001
0010
0001
1000
0100
,
0001
0000
0000
0000
0000
0000
0000
0000
0010
0000
0000
0000
0000
0000
0000
0000
2101
3000
0000
0000
0000
0000
0000
0000
0110
0000
0000
0000
0000
0000
0000
0000
2011
3000
0000
0000
0000
0000
0000
0000
0101
0000
0000
0000
0000
0000
0000
0000
2101
3000
0000
0000
0010
0000
0000
0000
0100
0000
0000
0000
1001
0000
0000
0000
,
0000
0000
1001
0010
0100
1001
0000
0000
1001
0010
0100
1001
0010
0001
1000
0100
,
0001
0000
0010
0000
1101
0000
0110
0000
1011
0000
1010
0000
1101
0010
0100
1001
,
0000
0000
1001
0010
0100
1001
0000
0000
1001
0010
0100
1001
0010
0001
1000
0100
,
0001
0000
0000
0000
0000
0000
0000
0000
0010
0000
0000
0000
0000
0000
0000
0000
1101
0000
0000
0000
0000
0000
0000
0000
0110
0000
0000
0000
0000
0000
0000
0000
1011
0000
0000
0000
0000
0000
0000
0000
0101
0000
0000
0000
0000
0000
0000
0000
2101
3000
0000
0000
0000
0000
0000
0000
0000
0000
0000
0000
0100
0000
0000
0000
,
0101
0000
0000
0000
0000
0000
0000
0000
0110
0000
0000
0000
0000
0000
0000
0000
1010
0000
0000
0000
0000
0000
0000
0000
0000
0000
0000
0000
0100
0000
0000
0000
0101
0000
0000
0000
0000
0000
0000
0000
0110
0000
0000
0000
0000
0000
0000
0000
2011
3000
0000
0000
0000
0000
0000
0000
0000
0000
0000
0000
0100
0000
0000
0000
,
0101
0000
0000
0000
0000
0000
0000
0000
0110
0000
0000
0000
0000
0000
0000
0000
1010
0000
0000
0000
0000
0000
0000
0000
0000
0000
0000
0000
0100
0000
0000
0000
0101
0000
0000
0000
0000
0000
0000
0000
0110
0000
0000
0000
0000
0000
0000
0000
2011
3000
0000
0000
0100
0000
0000
0000
0010
0000
0000
0000
0001
0000
0000
0000
,
1000
0100
0010
0001
1010
0100
0010
0100
0010
0100
0010
0100
0011
1100
0000
1100
,
0000
1100
0000
0000
1012
0000
0000
0100
0000
0000
0013
0000
1101
0000
0000
0000
,
0010
0101
0010
0000
0101
0000
0110
0000
,
0100
1010
0100
0000
1010
0000
0101
0000
,
0010
0000
0101
0000
0010
0000
0000
0000
0101
0000
0000
0000
0110
0000
0000
0110
,
0001
1100
0011
0000
1001
0100
0101
0000
,
1101
0101
0010
0000
1101
0000
0110
0000
,
1101
1010
0100
0000
1101
0000
0101
0000
,
1101
0000
0101
0000
0010
0000
0000
0000
1101
0000
0000
0000
0110
0000
0000
0110
,
1101
0000
1100
0000
0011
0000
0100
0000
1101
0100
0100
0100
1121
0000
0000
0000
,
0001
0000
2030
0000
3200
0000
0000
0320
1000
0000
0032
0000
0023
0000
0000
0000
,
0001
0000
0000
0000
0000
0030
0020
0000
0030
0200
0000
0300
2000
0000
0000
0000
0000
0000
0000
0000
0000
3200
0000
0000
0001
0000
0000
0000
0000
0000
0320
0000
0000
0000
0000
0000
0032
0000
0000
0000
0000
0000
0000
0000
0000
0000
0000
0000
,
1000
0203
0000
0000
1000
0000
0000
0000
,
1000
0000
0000
0000
0000
0000
0000
0001
1010
0000
1000
0300
0020
0000
0000
0000
,
0001
0000
2030
0000
3200
0000
0000
0320
1000
0000
0032
0000
0023
0000
0000
0000
,
0001
0000
0000
0000
0000
0030
0020
0000
0030
0200
0000
0300
2000
0000
0000
0000
0000
0000
0000
0000
0000
3200
0000
0000
0001
0000
0000
0000
0000
0000
0320
0000
0000
0000
0000
0000
0032
0000
0000
0000
0000
0000
0000
0000
0000
0000
0000
0000
,
0013
0000
0000
0000
0000
0000
0000
0000
2100
0000
0000
0000
0000
0000
0000
3000
0210
0000
0000
0000
0000
0000
0000
0000
0000
0000
0000
0300
2100
0000
0000
0000
0010
0000
0000
0000
0000
0000
0000
3000
0021
0000
0000
0000
0000
0000
0000
0030
1102
0000
0000
0000
0000
0000
0000
0000
0000
0000
0000
0000
0000
0000
0000
0000
,
1000
0000
0000
0000
0000
0000
0000
0000
0000
0000
0000
0000
0100
0000
0000
0000
0000
0000
1000
0000
0000
0000
0000
0000
0110
0000
0000
0100
0000
0000
0100
0000
0000
0100
0000
0003
1011
0000
0000
0100
0000
0000
0010
0000
0000
0001
0000
0000
,
1010
0100
0010
0001
1000
0100
0010
0001
1010
0100
0010
0001
1000
0010
0100
0001
,
1100
0010
0100
0001
1000
0010
0100
0001
1100
0010
0100
0001
1000
0100
0001
0010
,
1001
0100
0001
0010
1000
0100
0001
0010
1001
0100
0001
0010
0100
1000
0010
0001
,
0110
0000
1000
0000
0010
0000
0001
0000
0100
0000
1000
0000
0010
0000
0001
0000
0110
0000
1000
0000
0010
0000
0001
0000
0200
0300
0000
0000
0000
0000
0200
0300
,
0010
0000
0000
0000
2000
3000
0000
0000
0002
0003
0000
0000
0010
0000
0000
0000
1100
0000
0000
0000
0010
0000
0010
0000
1100
0000
0000
0000
0010
0000
0010
0000
,
1100
0000
0000
0000
0010
0000
0010
0000
1100
0000
0000
0000
0010
0000
0010
0000
1100
0000
1000
0000
0010
0000
0010
0000
1021
0030
0000
0000
0000
0000
0020
0030
,
0000
0000
0000
0000
2000
3000
0000
0000
0002
0003
0000
0000
0100
0000
0010
0000
1100
0000
0000
0000
0010
0000
0010
0000
1100
0000
0000
0000
0010
0000
0010
0000
,
1100
0000
0000
0000
1000
0000
0000
0000
0001
0000
0000
0000
0000
0000
0000
0000
1100
0000
0000
0000
0000
0000
0000
0000
0010
0000
0000
0000
0010
0000
0000
0000
1100
0000
0000
0000
0001
0000
0000
0000
0010
0000
0000
0000
0010
0000
0000
0000
2101
3000
0000
0000
0000
0000
0000
0000
0000
0000
0000
0000
0000
0000
0000
0000
,
0100
0000
0000
0000
0000
0000
0000
0000
0000
0000
0000
0000
0000
0000
0000
0000
2101
3000
0010
0000
0100
0000
1000
0000
0001
0000
0000
0000
0000
0000
0000
0000
0010
0000
0000
0000
0000
0000
0000
0000
0100
0000
0000
0000
0000
0000
0000
0000
2021
3000
0000
0000
0000
0000
0000
0000
0000
0000
0000
0000
0000
0000
0000
0000
,
0100
0000
0000
0000
0000
0000
0000
0000
0000
0000
0000
0000
0000
0000
0000
0000
0000
0000
0000
0000
0000
0000
0000
0000
0000
0000
0000
0000
0000
0000
0000
0000
0000
0000
0000
0000
0000
0000
0000
0000
0000
0000
0000
0000
0030
0000
0000
0000
2201
0000
0000
3000
0000
0000
0000
0000
0000
0000
0000
0000
0000
0000
0000
0000
0000
0000
0000
0000
0000
0000
0000
0000
0000
0000
0000
0000
0000
0000
0000
0000
0000
0000
0000
0000
0000
0000
0000
0000
0000
0000
0000
0000
0000
0000
0000
0000
0010
0000
0000
0000
0000
0000
0000
0000
0000
0000
0000
0000
0000
0000
0000
0000
0000
0000
0000
0000
0000
0000
0000
0000
0010
0000
0000
0000
0000
0000
0000
0000
0000
0000
0000
0000
0000
0000
0000
0000
0000
0000
0000
0000
0000
0000
0000
0000
1311
0000
0000
0000
0000
0000
0000
0000
0000
0000
0000
0000
0100
0000
0000
0000
0000
0000
0000
0000
0000
0000
0000
0000
0010
0000
0000
0000
0000
0000
0000
0000
0000
0000
0000
0000
0001
0000
0000
0000
0000
0000
0000
0000
0000
0000
0000
0000
,
1010
0100
0010
0001
1100
0010
0100
0010
0101
0010
0100
0010
1100
0011
0000
0011
,
0000
0011
0000
0000
1012
0000
0000
0100
0010
0000
0013
0000
1011
0100
0001
0010
,
0100
0001
1010
0100
1001
0010
1000
0101
0010
1000
0110
1000
0011
0100
0010
0001
,
1000
0010
0101
0110
1010
0100
0010
1001
0100
0001
1010
0100
0011
0000
1000
0000
,
0110
0001
0010
1000
0110
0001
1101
0010
,
1100
0000
0001
0000
0010
0000
1000
0010
1100
0000
0001
0000
1101
0010
1000
0100
,
0010
0001
1010
0100
1001
0010
1000
0101
0010
1000
0110
1000
0011
0100
0010
0001
,
0100
0000
0000
0000
0010
0000
0000
0000
0101
0000
0000
0000
0011
0000
0000
0000
1010
0000
0000
0000
0100
0000
0000
0000
0010
0000
0000
0000
1000
0000
0000
0000
0110
0000
0000
0000
0001
0000
0000
0000
1000
0000
0000
0000
0010
0000
0000
0000
2101
3000
0000
0000
0000
0000
0000
0000
1000
0000
0000
0000
0000
0000
0000
0000
,
0110
0000
0000
0000
0000
0000
0000
0000
0001
0000
0000
0000
0000
0000
0000
0000
2011
3000
0000
0000
0000
0000
0000
0000
1000
0000
0000
0000
0000
0000
0000
0000
0110
0000
0000
0000
0000
0000
0000
0000
0001
0000
0000
0000
0000
0000
0000
0000
2101
3000
0000
0000
0000
0000
0000
0000
0010
0000
0000
0000
0000
0000
0000
0000
,
1000
0000
0000
0000
0100
0000
1000
0000
0100
0100
0100
0100
1201
0000
0000
0000
,
0001
0000
0000
0000
0000
0000
0000
0000
0000
0000
0000
0000
0000
0000
0000
0000
0000
0000
0000
0000
0000
0000
0000
0000
2310
0000
0000
0000
0000
0000
0000
0000
0000
0000
0000
0000
0000
0000
0000
0000
0000
0000
0000
0000
3000
0000
0000
0000
1200
0000
0000
0000
0000
0000
0000
0000
0000
0000
0000
0000
0000
0000
0000
0000
0000
0000
0000
0000
0300
0000
0000
0000
2000
0000
0000
3000
0000
0000
0200
0000
0000
0300
0000
0000
0020
0000
0000
0030
0000
0000
0002
0000
0000
0000
0000
0000
0100
0000
0000
0000
0000
0000
0000
0000
0000
0000
0000
0000
0000
0000
0000
0000
0000
0000
0000
0000
0003
0000
0000
0000
0021
0000
0000
0000
0000
0000
0000
0000
0000
0000
0000
0000
0000
0000
0000
0000
0000
0000
0000
0000
0030
0000
0000
0000
2010
0000
0000
0000
0000
0000
0000
0000
0000
0000
0000
0000
0000
0000
0000
0000
0000
0000
0000
0000
0000
0000
0000
0000
0000
0000
0000
0000
0000
0000
0000
0000
0000
0000
0000
0000
0000
0000
0000
0000
0000
0000
0000
0000
0000
0000
0000
0000
,
0001
0000
0000
0000
0000
0000
3210
0000
0000
0000
0000
0000
2310
0000
0000
0000
0000
0000
0000
0000
0000
3201
0000
0000
1000
0000
0000
0000
0000
0300
0120
0000
0000
0000
0000
0000
0132
0000
0000
0000
0000
0000
0000
0000
0000
0000
0000
0000
,
0100
0000
0000
0000
0123
0000
0000
1001
0100
0000
0101
0000
1230
0000
0000
0000
,
0321
0000
0000
0000
0000
0000
0000
0000
0000
0000
0000
0000
0231
0000
0000
0000
0000
0000
0010
0000
0000
0000
0000
0000
2310
0000
0000
0000
0000
0000
0010
0000
0000
0010
0000
3000
2010
0000
0000
0000
0000
0000
0000
0000
0000
0000
0000
0000
,
0001
0000
3210
0000
2310
0000
0000
3012
1000
0000
0123
0000
0231
0000
0000
0000
,
0001
0000
0000
0000
0000
0000
0000
0000
0000
0000
0000
0000
0000
0000
0000
0000
0001
0000
0000
0000
0000
0000
0000
0300
1011
0000
0100
0000
0010
0000
0001
0000
,
1000
0100
0010
0001
1010
0100
0010
0001
1000
0100
0010
0001
1010
0100
0010
0001
,
0100
0000
0010
0000
0101
0000
0010
0000
0100
0000
0010
0000
0100
0000
0010
0000
1100
0001
0010
0100
1000
0001
0010
0100
1011
0000
0000
0000
1001
0000
0000
0000
,
0010
0201
0000
0000
0010
0000
1300
0000
,
0010
1000
0200
0000
0000
0000
0000
0000
1000
0000
0000
0000
0310
0000
0000
0000
,
0100
0001
0020
0000
0000
0000
0000
0000
0100
0000
0000
0000
1000
0000
0000
0000
,
0130
0000
0000
0010
0000
0000
0002
0000
0000
0000
0000
0000
0000
0000
0000
0000
0000
0000
0000
0000
0000
0000
0000
0000
0010
0000
0000
0000
0000
0000
0000
0000
0000
0000
0000
0003
1011
0000
0000
0100
0000
0000
0010
0000
0000
0101
0000
0000
,
1000
0100
1010
0001
1010
0100
0010
0101
1000
0100
1010
0100
0011
0100
0010
0101
,
1000
0001
1100
0001
0100
0010
0100
0010
0100
0010
0100
0010
1101
0010
0100
1001
,
0000
0000
1001
0010
0100
1001
0000
0000
1001
0010
0100
1001
0010
0001
1000
0100
,
0001
0000
0010
0000
1101
0000
0110
0000
1011
0000
1010
0000
1101
0010
0100
1001
,
0000
0000
1001
0010
0100
1001
0000
0000
1001
0010
0100
1001
0010
0001
1000
0100
,
0001
0000
0010
0000
1101
0000
0110
0100
1011
0000
0101
0100
1101
0010
0100
1001
,
0100
0010
1001
0010
0100
1001
0100
0010
1001
0010
0100
1001
0010
0001
1000
0100
,
0001
1000
0100
0010
1101
0000
0110
0000
1011
0000
1010
0000
1101
0010
0100
1001
,
0100
0010
1001
0010
0100
1001
0100
0010
1001
0010
0100
1001
0010
0001
1000
0100
,
0001
0000
0000
0000
1000
0000
0000
0000
0100
0000
0000
0000
0010
0000
0000
0000
1101
0000
0000
0000
0000
0000
0000
0000
0110
0000
0000
0000
0000
0000
0000
0000
1011
0000
0000
0000
0000
0000
0000
0000
0101
0000
0000
0000
0000
0000
0000
0000
2101
3000
0000
0000
0000
0000
0000
0000
0000
0000
0000
0000
0100
0000
0000
0000
,
0101
0000
0000
0000
0000
0000
0000
0000
0110
0000
0000
0000
0000
0000
0000
0000
1010
0000
0000
0000
0000
0000
0000
0000
0000
0000
0000
0000
0100
0000
0000
0000
0101
0000
0000
0000
0000
0000
0000
0000
0110
0000
0000
0000
0000
0000
0000
0000
2011
3000
0000
0000
0000
0000
0000
0000
0000
0000
0000
0000
0100
0000
0000
0000
,
0101
0000
0000
0000
0000
0000
0000
0000
0110
0000
0000
0000
0000
0000
0000
0000
1010
0000
0000
0000
0000
0000
0000
0000
0000
0000
0000
0000
0100
0000
0000
0000
0101
0000
0000
0000
0000
0000
0000
0000
0110
0000
0000
0000
0000
0000
0000
0000
2011
3000
0000
0000
0100
0000
0000
0000
0010
0000
0000
0000
0001
0000
0000
0000
,
1000
0000
0000
0100
0000
0000
0010
0000
0000
0001
0000
0000
1010
0000
0100
0000
0010
0000
0100
0000
0010
0000
0100
0000
0010
0000
0100
0000
0010
0000
0100
0000
0010
0000
0100
0000
2022
0000
0000
0000
0000
0000
0000
0000
0000
0000
0000
0000
,
3033
0000
0000
0000
,
0000
0000
0000
0000
,
0000
0000
0000
0000
,
0000
0000
0000
0000
,
0000
0000
0000
0000
,
0000
0000
0000
0000
,
0000
0000
0000
0000
,
0000
0000
0000
0000
,
0000
0000
0000
0000
,
0000
0000
0000
0000
,
0000
0000
0000
0000
,
0000
0000
0000
0000
,
0000
0000
0000
0000
,
0000
0000
0000
0000
,
0000
0000
0000
0000
,
0000
0000
0000
0000
,
0000
0000
0000
0000
,
0000
0000
0000
0000
,
0000
0000
0000
0000
,
0000
0000
0000
0000
,
0000
0000
0000
0000
,
0000
0000
0000
0000
,
0000
0000
0000
0000
,
0000
0000
0000
0000
,
0000
0000
0000
0000
,
0000
0000
0000
0000
,
0000
0000
0000
0000
,
0000
0000
0000
0000
,
0000
0000
0000
0000
,
0000
0000
0000
0000
,
0000
0000
0000
0000
,
1000
0000
0000
0000
;

//---------------dance-single - ----------------
#NOTES:
     dance-single:
     :
     Challenge:
     14:
     1.000,1.000,1.000,1.000,1.000,910.000,311.000,202.000,0.000,151.000:
0000
0000
0000
0000
0000
0000
0000
0000
0000
0000
0000
0000
0010
0010
0000
0010
,
1101
0000
0000
0000
1001
0100
0010
0001
1100
0010
0100
1000
0101
0010
0100
1000
,
0011
0100
1000
0100
1001
0010
0001
0010
1101
0010
0000
0010
1101
0010
1000
0100
,
1001
0000
0001
0010
1001
0100
0000
0000
0101
0010
1000
0100
0011
0100
0010
1000
,
0101
0000
0010
0000
1101
0000
0010
0000
0111
0000
1000
0000
1101
0010
1000
0100
,
1001
0000
0001
0010
1001
0100
0000
0000
0101
0010
1000
0100
1010
0001
0010
0100
,
0011
0000
0000
0000
0100
0000
0000
0000
1101
0000
0000
0000
0010
0000
1100
0000
0022
0033
0000
0000
1000
0000
0000
0000
1101
0000
0010
0000
1000
0000
0100
0000
,
1011
0000
0001
0010
1001
0100
0000
0000
1101
0010
1000
0100
0011
1000
0010
0100
,
1011
0000
0100
0000
1010
0000
0001
0000
1110
0000
0110
0000
1001
0010
1000
0100
,
1011
0000
0001
0010
1001
0100
0000
0000
1101
0010
1000
0100
0011
0100
0010
0100
,
1011
0000
0000
0000
0100
0000
0000
0000
1010
0000
0000
0000
0100
0000
0000
0000
1011
0000
0000
0000
0110
0000
0000
0000
2102
3003
0000
0000
0000
0000
1000
0000
,
0111
0000
0000
0000
1000
0000
0000
0000
0110
0000
0000
0000
0000
0000
1000
0000
0111
0000
0000
0000
1000
0000
0000
0000
0212
0303
0000
0000
0000
0000
1000
0000
,
0111
0000
0000
0000
1000
0000
0000
0000
0110
0000
0000
0000
0000
0000
1000
0000
0111
0000
0000
0000
1000
0000
0000
0000
2120
3030
0001
0000
1000
0000
0001
0000
,
1110
0000
0001
0000
1000
0000
0001
0000
2200
3301
0010
0100
1000
0001
0010
0100
1000
0001
0010
0100
1000
0001
0010
0100
1011
0000
0001
0000
0000
0000
0001
0000
,
0110
0001
0000
0000
0212
0303
0000
0110
0000
0000
0011
0000
1101
0010
0100
0000
,
0110
1000
0002
0003
1100
0010
0100
0000
0012
1003
0001
0000
0120
1030
0100
0000
,
1001
0100
0020
0030
0101
0010
0100
0000
1020
0031
1000
0000
0012
1003
0100
0000
,
1010
0100
0002
0003
0110
0001
0010
0000
1002
0013
0100
0000
2010
3001
0100
2000
,
3011
0100
2000
3000
0210
0301
0010
0000
1200
0301
0110
0000
0102
1003
0010
0000
,
1110
0001
0200
0300
1010
0001
0100
0000
1012
0103
1000
0000
0120
0031
0010
0000
,
1101
0010
0002
0003
1100
0010
1000
0000
0121
1030
0100
0000
0012
0103
0010
0000
,
1101
0010
0002
0003
0110
0001
1000
0000
0112
1003
0100
0000
2001
3010
0100
2000
,
3111
0000
2000
3000
0210
0300
0110
0000
0210
0301
1000
0001
1120
0030
0000
0000
,
0111
0000
2000
3000
0210
0300
0000
0020
1131
0000
0002
0003
0120
0030
0000
0000
,
1101
0000
0010
0100
2001
3000
0000
0200
1311
0000
0020
0030
0102
0003
0000
0000
,
0111
2010
0100
0000
0011
0000
0100
0000
,
0011
0000
0000
0000
0100
0000
0000
0100
0011
0000
0100
3000
0021
0030
0000
0000
,
0111
0000
2000
3000
0210
0300
0000
0020
1131
0000
0200
0300
0012
0003
0000
0000
,
1110
0000
0010
0100
1001
0000
0000
0200
1311
0000
0020
0030
0102
0003
0000
0000
,
1110
0000
0020
0030
0201
0300
0000
0020
1131
0000
0002
0003
2120
3030
0000
0000
,
0111
0000
0000
0000
0000
0000
0000
0000
0110
0000
0000
0000
0110
0000
0000
0000
1101
0000
0010
0000
0100
0000
0010
0000
2101
3000
0010
0000
0100
0000
0010
0000
,
1101
0000
0010
0000
0200
0300
1000
0000
0120
0030
0001
0000
1000
0000
0002
0003
1110
0000
0001
0000
0020
0030
0100
0000
2001
3000
0100
0000
0010
0000
0001
0000
,
1110
0000
0001
0000
1000
0000
0001
0000
0120
0030
1000
0000
0100
0000
0010
0000
1102
0003
0010
0000
0100
0000
1000
0000
0210
0300
0001
0000
0010
0000
0100
0000
,
1011
0000
0100
0000
0002
0003
0100
0000
0021
0030
1000
0000
0100
0000
0020
0030
1101
0000
0010
0000
0200
0300
0010
0000
2001
3000
0100
0000
0010
0000
0001
0000
,
1110
0000
0001
0000
0010
0000
0100
0000
2010
3000
0001
0000
0010
0000
0100
0000
1012
0003
0100
0000
0010
0000
0100
0000
2002
0000
3003
0000
0000
0000
0002
0000
,
1113
0000
0020
0030
0102
0003
0110
0000
0110
0000
1000
0100
0011
0000
0100
0010
,
1001
0000
0010
0100
1010
0000
0001
0010
1100
0001
0010
0100
1021
0030
0000
0020
,
1030
0000
0200
0300
0021
0030
1100
0011
1100
0000
0001
0010
1100
0000
0010
0001
,
1100
0010
0001
0000
0110
0000
0001
0010
1100
0010
0001
0010
1102
0000
0000
0000
,
0010
0000
0000
0000
0000
0000
0000
0000
0000
0003
0000
0000
1011
0000
0100
0000
0010
0000
0001
0000
0000
0000
0000
0000
0010
0000
0000
0000
0000
0000
0100
0000
0000
0000
0000
0000
1012
0000
0000
0000
0000
0000
0000
0000
0000
0000
0000
0000
,
0110
0000
0000
0003
2011
0000
0000
0000
0100
0000
3100
0000
1001
0100
0011
0100
,
1001
0000
0100
0000
0011
0000
0100
0000
1001
0100
0010
0001
1000
0100
0010
0001
1000
0100
0010
0001
1000
0100
0010
0001
2200
3300
0010
0000
0000
0000
0010
0000
,
1001
0000
0010
0000
0000
0000
0000
0000
0121
0000
0030
0000
0000
0000
1100
0000
0011
0000
0000
0000
0011
0000
0000
0000
2101
3000
0010
0000
0100
0000
1000
0000
,
0111
0000
1000
0000
0200
0300
0010
0000
1002
0003
0100
0000
0010
0000
0002
0003
1110
0000
0001
0000
2000
3000
0001
0000
0120
0030
1000
0000
0100
0000
0010
0000
,
1101
0000
0010
0000
0200
0300
2000
3000
0012
0003
1000
0000
0001
0000
2000
3000
0111
0000
1000
0000
0200
0300
0010
0000
1002
0003
0100
0000
0020
0030
0000
0000
,
0211
0300
1000
0000
0020
0030
0000
0000
1002
0003
0100
0000
0020
0030
0000
0000
1210
0300
0001
0000
2000
3000
0000
0000
0201
0300
1000
0000
0020
0030
0000
0000
,
1201
0300
0010
0000
0002
0003
0000
0000
0120
0030
1000
0000
0200
0300
1010
0000
0202
0303
0010
0000
1200
0300
0000
0000
1012
0003
0100
0000
1000
0000
0100
0000
,
1011
0000
0100
0000
0020
0030
0001
0000
0210
0300
1000
0000
0100
0000
0020
0030
1101
0000
0010
0000
0200
0300
1000
0000
0120
0030
0001
0000
0010
0000
0100
0000
,
1011
0000
0100
0000
0002
0003
0200
0300
2010
3000
0001
0000
1000
0000
0001
0000
1210
0300
0001
0000
0010
0000
0100
0000
2012
3003
0000
0000
0020
0030
0000
0000
,
1201
0300
0000
0000
0020
0030
0000
0000
2102
3003
0000
0000
0020
0030
0000
0000
0211
0300
0000
0000
2000
3000
0000
0000
2012
3003
0000
0000
0000
0000
0000
0000
,
0200
0300
0000
0000
0000
0000
0000
0000
1020
0030
0000
0000
0110
0000
0000
0000
0012
0003
1100
0000
0011
0000
1100
0000
0022
0033
0100
0000
0010
0000
0000
0000
,
1101
0000
0010
0000
0200
0300
0000
0000
0021
0030
1000
0000
0200
0300
0020
0030
1102
0003
0010
0000
2000
3000
0000
0000
0210
0300
0001
0000
0010
0000
0000
0000
,
1011
0000
0100
0000
2000
3000
0000
0000
0201
0300
1000
0000
0100
0000
0020
0030
1101
0000
0010
0000
0200
0300
0000
0000
0012
0003
0100
0000
1000
0000
0000
0000
,
0111
0000
1000
0000
0100
0000
0000
0000
0021
0030
0100
0000
0010
0000
0000
0000
1101
0000
0010
0000
0100
0000
0000
0000
2001
3000
0100
0000
0010
0000
0000
0000
,
1102
0003
0010
0000
1100
0000
0000
0000
1020
0030
0100
0000
0011
0000
0000
0000
1201
0300
0010
0000
1100
0000
0011
0000
2100
3000
0010
0000
0001
0000
0000
0000
,
1110
0001
0010
0000
1001
0100
0010
0000
1101
0010
0100
0000
1010
0001
1000
0000
,
0111
0000
1000
0000
0100
0000
0000
0000
0011
0000
0100
0000
1000
0000
0000
0000
1101
0000
0010
0000
0100
0000
0000
0000
2012
3003
0000
0000
0110
0000
0000
0000
,
1011
0000
0000
0000
0100
0000
0000
0000
2012
3003
0000
0000
0001
0000
0000
0000
1110
0000
0000
0000
0010
0000
0000
0000
1101
0000
0010
0000
0100
0000
0010
0000
,
0100
0000
0010
0000
1101
0000
0010
0000
0100
0000
0010
0000
0100
0000
0010
0000
0001
0010
0100
1000
0001
0010
0100
1000
0112
0003
1000
0000
0100
0000
0000
0000
,
2011
3000
0200
0300
0020
0030
0000
0000
1001
0000
0100
0000
0010
0000
0000
0000
1101
0000
0010
0000
0100
0000
0000
0000
2010
3000
0100
0000
0010
0000
0000
0000
,
0121
0030
2000
3000
0200
0300
0000
0000
1001
0000
0010
0000
0100
0000
0000
0000
1011
0000
0100
0000
0001
0000
0000
0000
0210
0300
1000
0000
0001
0000
0000
0000
,
1120
0030
0002
0003
0020
0030
0000
0000
1100
0000
0010
0000
0001
0000
0000
0000
1110
0000
0001
0000
0010
0000
0000
0000
0101
0000
1000
0000
0100
0000
0000
0000
,
2011
3000
0200
0300
0020
0030
0000
0000
1001
0000
0010
0000
0100
0000
0000
0000
1011
0000
0100
0000
0010
0000
0000
0000
1101
0000
0000
0000
0000
0000
0010
0000
,
1101
0000
0000
0000
1000
0000
0000
0000
0212
0303
0000
0000
0000
0000
0110
0000
2002
3003
0000
0000
0010
0000
0000
0000
2001
3100
0010
0001
1000
0100
0010
0001
,
1000
0100
0010
0001
1000
0100
0010
0001
1000
0100
0010
0001
1000
0100
0010
0001
1000
0100
0010
0001
1000
0100
0010
0001
2200
3300
0010
0000
1000
0000
0100
0000
,
1011
0000
0001
0010
1001
0100
0000
0000
1101
0010
1000
0100
0011
0100
0010
1000
,
0111
0000
0010
0000
1101
0000
0010
0000
0111
0000
1000
0000
1101
0010
1000
0100
,
1011
0000
0001
0010
1001
0100
0000
0000
1101
0010
1000
0100
1010
0001
0010
0100
,
1011
0000
0100
0000
1101
0000
0010
0000
0111
0000
1000
0000
0111
1000
0100
0010
,
1101
0010
0100
1000
0011
1000
0100
0010
1101
0010
0100
1000
0011
1000
0100
0010
,
1101
0010
0100
1000
0111
0000
1000
0000
0111
0000
0100
0000
1011
0100
1000
0100
,
1011
0100
1000
0100
1001
0010
0100
1000
0111
1000
0001
1000
0110
0001
0010
0100
,
1011
0100
0001
0100
1011
0000
0100
0000
1011
0000
0011
0000
1101
0000
0000
1000
,
0111
0000
0000
0000
1000
0000
0000
0000
0110
0000
0000
0000
0000
0000
1000
0000
0111
0000
0000
0000
1000
0000
0000
0000
0212
0303
0000
0000
0000
0000
1000
0000
,
0111
0000
0000
0000
1000
0000
0000
0000
0110
0000
0000
0000
0000
0000
1000
0000
0111
0000
0000
0000
1000
0000
0000
0000
2012
3003
0000
0000
0100
0000
0010
0000
,
0100
0000
0000
0010
0000
0000
0100
0000
0000
0010
0000
0000
1101
0000
0010
0000
0100
0000
0010
0000
0100
0000
0010
0000
0100
0000
0010
0000
0100
0000
0010
0000
0100
0000
0010
0000
2202
0000
0000
0000
0000
0000
0000
0000
0000
0000
0000
0000
,
3303
0000
0000
0000
;
