#TITLE:Axel F;
#SUBTITLE:;
#ARTIST:Crazy Frog;
#TITLETRANSLIT:;
#SUBTITLETRANSLIT:;
#ARTISTTRANSLIT:;
#CREDIT:;
#BANNER:AF-bn.jpg;
#BACKGROUND:AF-bg.jpg;
#LYRICSPATH:;
#CDTITLE:dx.png;
#MUSIC:Axel F - Crazy Frog 2005.ogg;
#OFFSET:0.320;
#SAMPLESTART:20.500;
#SAMPLELENGTH:12.000;
#SELECTABLE:YES;
#DISPLAYBPM:138.000;
#BPMS:0.000=138.030,177.000=212.130,180.000=350.489,184.000=514.907,192.000=673.724,200.000=877.762,204.000=1000.000,261.250=999.000,345.000=1043.242,353.250=1032.643,372.000=138.030;
#STOPS:;
#BGCHANGES:;
// cache tags:
#FIRSTBEAT:16.000;
#LASTBEAT:549.000;
#SONGFILENAME:Songs/in the groove2/Axel F - Crazy Frog 2005/Axel F - Crazy Frog 2005.sm;
#HASMUSIC:1;
#HASBANNER:0;
#MUSICLENGTH:105.000;
// end cache tags

//---------------dance-single - ----------------
#NOTES:
     dance-single:
     :
     Challenge:
     9:
     1.000,1.000,1.000,0.248,1.000,598.000,184.000,26.000,463.000,26.000:
0000
0000
0000
0000
,
0000
0000
0000
0000
,
0000
0000
0000
0000
,
0000
0000
0000
0000
,
1000
0000
0000
0000
0100
0000
0000
1000
0000
0010
0100
0000
0001
0000
1000
0000
,
1100
0000
0000
0000
0010
0000
0000
0001
0000
0010
0100
0000
1000
0000
0010
0000
,
0101
0000
0001
0000
0010
0000
0100
1000
0000
1000
0010
0000
0100
0000
0001
0000
,
2002
0000
0000
0000
0000
0000
0000
0000
0010
0000
0000
0000
0010
3003
0000
0000
,
1100
0000
0000
0000
1001
0000
0000
0101
0000
0010
1000
0000
0010
0000
0100
0000
,
0101
0000
0000
0000
0011
0000
0000
1100
0000
0010
0001
0000
1000
0000
0010
0000
,
0101
0000
0001
0000
0010
0000
0100
1000
0000
0010
1000
0000
1100
0000
0011
0000
,
1001
0101
1010
0101
1001
0000
MMMM
1000
,
0011
0000
0000
0000
1100
0000
0000
0011
0000
1000
0010
0000
0100
0000
0001
0000
,
0011
0000
0000
0000
1100
0000
0000
1001
0000
0001
0100
0000
0010
0000
1000
0000
,
1010
0000
0010
0000
0100
0000
0001
0010
0000
0100
1000
0000
0010
0000
0100
0000
,
0220
0000
0000
0000
1000
0000
1000
0330
,
0110
0000
0000
0000
0101
0000
0000
0011
0000
0010
0100
0000
1000
0000
0010
0000
,
0101
0000
0000
0000
1010
0000
0000
1001
0000
1000
0100
0000
0010
0000
0001
0000
,
0011
0000
0010
0000
0100
0000
1000
0010
0000
0100
0001
0000
0010
0000
0001
0000
,
0202
0000
0000
0000
0000
0000
0000
0000
0000
0000
0000
0000
0000
0000
0000
0000
0000
0000
0000
0000
0000
0000
0000
0000
0000
0000
0000
0000
0000
0000
0000
0000
1000
0010
0000
0000
0000
0000
0000
0000
0000
0000
0000
0000
0000
0000
0000
0000
1000
0010
0000
0000
0303
0000
0000
0000
0000
0000
0000
0000
0001
0000
0100
0000
,
0010
0000
0000
0000
0100
0000
0000
0000
0001
0000
0000
0000
1000
0000
0000
0000
0100
0000
0000
0000
0000
0000
0000
0000
1100
0000
0000
0000
0000
0000
0010
0001
,
1000
0000
0000
0000
0010
0000
0000
0000
0100
0000
0000
0000
0001
0000
0000
0000
1100
0000
0000
0000
1100
0000
0000
0000
1100
0000
0000
0000
0000
0000
0001
0010
,
0100
0000
0000
0000
1000
0000
0000
0000
0010
0000
0000
0000
0100
0000
0000
0000
0101
0000
0000
0000
0000
0000
0000
0000
0011
0000
0000
0000
0000
0000
0100
1000
,
0001
0000
0000
0000
0100
0000
0000
0000
0010
0000
0000
0000
1000
0000
0000
0000
2200
0000
0000
0000
0000
0000
0000
0000
3311
0000
0000
0000
0000
0000
1000
0001
,
0100
0000
0000
0000
0010
0000
0000
0000
1000
0000
0000
0000
0001
0000
0000
0000
0101
0000
0000
0000
0000
0000
0000
0000
1010
0000
0000
0000
0000
0000
0100
0001
,
1000
0000
0000
0000
0100
0000
0000
0000
0010
0000
0000
0000
0001
0000
0000
0000
0110
0000
0000
0000
0110
0000
0000
0000
0110
0000
0000
0000
0000
0000
0100
1000
,
0010
0100
0001
1000
1100
0000
0011
1001
,
0101
1010
0101
0011
1001
0000
MMMM
0000
,
1010
0000
0000
0000
0110
0000
0000
0101
0000
0001
0010
0000
0100
0000
1000
0000
,
1001
0000
0000
0000
0101
0000
0000
1010
0000
0100
0001
0000
0010
0000
0100
0000
,
1100
0000
1000
0000
0010
0000
0100
0001
0000
1000
0001
0000
0010
0000
0100
0000
,
2200
0000
0000
0000
0000
0000
0000
0000
0001
0000
0000
0000
0001
3300
0000
0000
,
1010
0000
0000
0000
0101
0000
0000
1010
0000
0100
0001
0000
0010
0000
0100
0000
,
1100
0000
0000
0000
1001
0000
0000
0101
0000
0100
1000
0000
0100
0000
0001
0000
,
0011
0000
0100
0000
1000
0000
0010
0100
0000
0001
0100
0000
0010
0000
1000
0000
,
1100
0000
1000
0100
0010
0000
0001
0000
0000
0000
1000
0000
0010
0000
0100
0000
,
0101
0000
0000
0000
1001
0000
0000
1100
0000
0010
0001
0000
0010
0000
0100
0000
,
1100
0000
0000
0000
0110
0000
0000
0101
0000
0100
1000
0000
0010
0000
0100
0000
,
0101
0000
0001
0000
0010
0000
0100
0010
0000
0001
0010
0000
0100
0000
1000
0000
,
2020
0000
0000
0000
0001
0000
0001
3030
,
1100
0000
0000
0000
1001
0000
0000
0101
0000
0010
0100
0000
0001
0000
0010
0000
,
1100
0000
0000
0000
0011
0000
0000
1001
0000
0100
0010
0000
1000
0000
0010
0000
,
0101
0000
1000
0000
0100
0000
0010
0001
0000
1000
0100
0000
0010
0000
1001
0000
,
1010
1001
1100
0011
1001
0000
MMMM
0000
,
2002
0000
0000
00M0
0000
0000
0M00
0000
0000
00M0
0000
0000
0M00
0000
0000
0000
00M0
0000
0000
0000
0M00
0000
0000
0000
00M0
0000
0000
0000
0M00
0000
0000
0000
00M0
0000
0000
0000
0M00
0000
0000
0000
00M0
0000
0000
0000
0M00
0000
0000
0000
,
00M0
0M00
00M0
0M00
00M0
0M00
00M0
0M00
,
00M0
0M00
00M0
0M00
00M0
0M00
00M0
0M00
,
00M0
0M00
00M0
0M00
00M0
0M00
00M0
0M00
,
00M0
0M00
00M0
0M00
,
00M0
0M00
00M0
0M00
,
00M0
0M00
00M0
0M00
,
00M0
0M00
00M0
0M00
00M0
0M00
00M0
0M00
,
00M0
0M00
00M0
0M00
00M0
0M00
00M0
0M00
,
00M0
0M00
00M0
0M00
0M00
00M0
0M00
00M0
,
00M0
0M00
00M0
0M00
00M0
0000
0M00
0000
,
00M0
0M00
00M0
0M00
,
00M0
0M00
00M0
0M00
,
00M0
0M00
00M0
0M00
,
00M0
0M00
00M0
0M00
,
00M0
0M00
00M0
0M00
,
00M0
0000
0000
0000
,
0000
0000
0000
0000
,
0000
0000
0000
0000
,
0000
0000
0000
0000
,
0MM0
0MM0
0MM0
0MM0
0MM0
0MM0
0MM0
0MM0
,
0MM0
0MM0
0MM0
0MM0
0MM0
0MM0
0MM0
0MM0
,
0MM0
0MM0
0MM0
0MM0
0MM0
0MM0
0MM0
0MM0
,
0MM0
0MM0
0MM0
0MM0
0MM0
0MM0
0MM0
0MM0
,
0MM0
0MM0
0MM0
0MM0
0MM0
0MM0
0MM0
0MM0
,
0MM0
0MM0
0MM0
0MM0
0MM0
0MM0
0MM0
0MM0
,
0MM0
0MM0
0MM0
0MM0
0MM0
0MM0
0MM0
0MM0
,
0MM0
0000
0000
0000
,
0000
0000
0000
0000
,
0000
0000
0000
0000
,
0000
0000
0000
0000
,
0000
0000
0000
0000
,
0000
0000
0000
0000
,
0000
0000
0000
0000
,
0000
0000
0000
0000
,
0MM0
0MM0
0MM0
0MM0
0MM0
0MM0
0MM0
0MM0
0MM0
0MM0
0MM0
0MM0
,
0MM0
00M0
0M00
00M0
0M00
00M0
0M00
0MM0
0MM0
0MM0
0MM0
0MM0
,
0MM0
0MM0
0MM0
0MM0
0MM0
0MM0
0MM0
0MM0
0MM0
0MM0
0MM0
0MM0
,
0MM0
0MM0
0MM0
0MM0
0MM0
0MM0
0MM0
0MM0
0MM0
0MM0
0MM0
0MM0
,
0MM0
0MM0
0MM0
0MM0
0MM0
0MM0
0MM0
0MM0
0MM0
0MM0
0MM0
0MM0
,
0MM0
0000
0000
0000
0000
0000
0000
0MM0
,
0000
0000
0000
0000
0000
0000
0000
00M0
0000
0000
0000
0000
0000
0000
0000
0000
0000
0000
0000
0000
0000
0000
0000
0000
,
0000
0000
0000
0000
0000
0M00
0000
00M0
0000
0000
0000
0000
,
0000
0M00
0000
0000
0000
0000
0000
0000
0000
0000
0000
0000
0000
0000
0000
0000
0000
0000
0000
0000
0000
0000
0000
0000
,
0000
00M0
0M00
0000
,
0M00
00M0
0M00
00M0
0M00
00M0
0M00
00M0
0M00
00M0
0M00
00M0
0M00
00M0
0M00
00M0
0M00
00M0
0M00
00M0
0M00
00M0
0M00
00M0
,
0M00
00M0
0M00
00M0
0M00
00M0
0M00
00M0
0M00
00M0
0M00
00M0
0M00
00M0
0M00
00M0
0M00
00M0
0M00
00M0
0M00
00M0
0M00
00M0
,
0M00
00M0
0M00
00M0
0M00
00M0
0M00
00M0
0M00
00M0
0M00
00M0
0M00
00M0
0M00
00M0
0M00
00M0
0M00
00M0
0M00
00M0
0M00
00M0
,
0M00
00M0
0M00
00M0
0M00
00M0
0M00
00M0
0M00
00M0
0M00
00M0
0M00
00M0
0M00
00M0
0M00
00M0
3M03
00M0
0M00
00M0
0000
0000
,
0100
1000
0001
0100
0010
0100
0001
1000
,
0100
0010
0100
1000
0001
0010
0100
0010
,
0001
1000
0010
0100
0001
1000
0100
0010
,
0100
1000
0001
1000
1100
0000
1001
0000
,
0000
0000
0100
0000
1000
0000
0010
0100
0000
0001
1000
0000
0100
0000
1100
0000
,
0000
0000
0010
0000
0001
0000
1000
0010
0000
0100
0001
0000
1001
0000
0000
MMMM
,
0000
0000
1100
0000
0100
0000
0010
0001
0000
1000
0001
0000
0011
0000
1100
0000
,
0011
1001
0110
1100
0101
0000
0000
0000
,
1001
0000
0000
0000
1100
0000
0000
0011
0000
0100
1000
0000
0010
0000
0100
0000
,
1001
0000
0000
0000
1010
0000
0000
0101
0000
0010
0100
0000
1000
0000
0010
0000
,
0101
0000
1000
0000
0100
0000
1000
0010
0000
0100
1000
0000
0100
0000
0001
0000
,
0022
0000
0000
0000
0000
0000
0000
0000
1000
0000
0000
0000
1000
0033
0000
0000
,
1010
0000
0000
0000
0101
0000
0000
0011
0000
0100
1000
0000
0010
0000
0100
0000
,
1010
0000
0000
0000
0101
0000
0000
0011
0000
0100
0010
0000
0001
0000
0100
0000
,
1010
0000
0100
0000
0001
0000
1000
0100
0000
0001
0100
0000
1000
0000
0010
0000
,
0220
0000
0000
0000
0000
0000
0000
0000
0000
0000
0000
0000
0000
0000
0000
0000
0001
0000
0000
0000
0000
0000
0000
0000
0001
0000
0330
0000
0000
0000
1000
0010
,
0100
0000
0000
0000
0001
0000
0000
0000
1000
0000
0000
0000
0100
0000
0000
0000
0011
0000
0000
0000
0000
0000
0000
0000
1001
0000
0000
0000
0000
0000
0001
0100
,
0010
0000
0000
0000
1000
0000
0000
0000
0010
0000
0000
0000
0100
0000
0000
0000
0011
0000
0000
0000
1100
0000
0000
0000
1001
0000
0000
0000
0000
0000
0001
0010
,
0100
0000
0000
0000
1000
0000
0000
0000
0010
0000
0000
0000
1000
0000
0000
0000
1001
0000
0000
0000
0000
0000
0000
0000
0110
0000
0000
0000
0000
0000
0010
0100
,
0001
0000
0000
0000
1000
0000
0000
0000
0100
0000
0000
0000
1000
0000
0000
0000
0220
0000
0000
0000
0000
0000
0000
0000
1331
0000
0000
0000
0000
0000
1000
0010
,
0100
0000
0000
0000
0001
0000
0000
0000
1000
0000
0000
0000
0100
0000
0000
0000
0011
0000
0000
0000
0000
0000
0000
0000
1001
0000
0000
0000
0000
0000
0010
0100
,
0001
0000
0000
0000
1000
0000
0000
0000
0100
0000
0000
0000
1000
0000
0000
0000
0101
0000
0000
0000
1010
0000
0000
0000
1100
0000
0000
0000
0000
0000
0001
0010
,
0100
1000
0010
0100
0101
0000
0011
1100
,
1001
0110
1100
0011
1001
0000
MMMM
0000
,
1010
0000
0000
0000
0101
0000
0000
0011
0000
0100
1000
0000
0010
0000
0100
0000
,
0101
0000
0000
0000
0011
0000
0000
1100
0000
1000
0010
0000
0100
0000
0001
0000
,
1100
0000
0010
0000
0001
0000
1000
0010
0000
0100
1000
0000
0100
0000
0001
0000
,
2002
0000
0000
0000
0000
0000
0000
0000
0010
0000
0000
0000
0010
3003
0000
0000
,
1100
0000
0000
0000
0011
0000
0000
1001
0000
0001
1000
0000
0010
0000
0100
0000
,
0101
0000
0000
0000
0011
0000
0000
1100
0000
0010
0100
0000
0001
0000
1000
0000
,
0011
0000
0100
0000
0010
0000
1000
0010
0000
0100
0001
0000
1000
0000
0100
0000
,
0011
0000
1000
0001
0100
0000
1010
0000
0000
0000
0101
0000
0011
0000
1100
0000
,
1001
0000
0000
0000
1010
0000
0000
0101
0000
0001
0010
0000
0100
0000
1000
0000
,
1001
0000
0000
0000
0101
0000
0000
1010
0000
0100
0001
0000
0010
0000
0100
0000
,
1010
0000
0001
0000
0100
0000
0010
1000
0000
0001
0100
0000
0010
0000
1000
0000
,
2002
0000
0000
0000
0000
0000
0000
0000
0010
0000
0000
0000
0010
3003
0000
0000
,
1001
0000
0000
0000
0110
0000
0000
1010
0000
0100
0001
0000
0010
0000
0001
0000
,
0101
0000
0000
0000
1010
0000
0000
1001
0000
1000
0100
0000
0010
0000
0001
0000
,
1010
0000
0100
0000
0001
0000
0010
0100
0000
1000
0001
0000
0100
0000
1010
0000
,
1100
0011
1100
0101
1001
0000
MMMM
0000
,
1000
0000
0000
0000
0001
0000
0000
0100
0000
0010
1000
0000
0010
0000
0100
0000
,
0001
0000
0000
0000
1000
0000
0000
0100
0000
1000
0010
0000
0100
0000
0001
0000
,
1000
0000
0100
0000
0010
0000
0001
0010
0000
0010
0100
0000
1000
0000
0010
0000
,
0202
0000
0000
0000
0000
0000
0000
0000
0000
0000
0000
0000
0000
0000
0000
0000
0000
0000
0000
0000
0000
0000
0000
0000
0000
0000
0000
0000
0000
0000
0000
0000
1000
0010
0000
0000
0000
0000
0000
0000
0000
0000
0000
0000
0000
0000
0000
0000
1000
0010
0000
0000
0000
0000
0000
0000
0000
0000
0000
0000
0000
0000
0000
0000
,
0303
MMMM
MMMM
0000
0000
0000
0000
0000
;
