#TITLE:The Darkest Nights;
#SUBTITLE:;
#ARTIST:As I Lay Dying;
#TITLETRANSLIT:;
#SUBTITLETRANSLIT:;
#ARTISTTRANSLIT:;
#CREDIT:;
#BANNER:The Darkest Nights-banner.jpg;
#BACKGROUND:The Darkest Nights-bg.jpg;
#LYRICSPATH:;
#CDTITLE:;
#MUSIC:The Darkest Nights.ogg;
#OFFSET:-0.312;
#SAMPLESTART:93.500;
#SAMPLELENGTH:12.000;
#SELECTABLE:YES;
#BPMS:0.000=175.020;
#STOPS:;
#BGCHANGES:;
// cache tags:
#FIRSTBEAT:32.000;
#LASTBEAT:379.000;
#SONGFILENAME:Songs/keyboard/The Darkest Nights/The Darkest Nights.sm;
#HASMUSIC:1;
#HASBANNER:1;
#MUSICLENGTH:131.996;
// end cache tags

//---------------dance-single - ----------------
#NOTES:
     dance-single:
     :
     Challenge:
     9:
     0.729,0.825,0.833,0.273,0.053,528.000,110.000,36.000,32.000,0.000:
0000
0000
0000
0000
,
0000
0000
0000
0000
,
0000
0000
0000
0000
,
0000
0000
0000
0000
,
0000
0000
0000
0000
,
0000
0000
0000
0000
,
0000
0000
0000
0000
,
0000
0000
0000
0000
,
1000
0100
1000
0110
0000
0101
0000
1001
,
0000
1000
0100
0010
0001
0100
0010
1000
,
0001
0001
0100
1010
0000
1001
0000
1100
,
0000
0010
0001
1000
0100
0010
0100
0001
,
0100
0100
1000
1100
0000
1001
0000
0101
,
0000
0100
0010
1000
0001
0001
0100
0010
,
1000
0001
0100
0110
0000
0011
0000
1100
,
0000
0000
1000
0000
0100
0000
1000
0001
1000
0000
0010
0000
0100
0000
0001
0000
,
2000
000M
0M00
00M0
,
000M
0000
0M00
0000
00M0
3002
0003
0110
,
0101
0000
0M0M
MM00
,
2200
0000
3300
0000
0202
0300
0013
0000
,
1000
1200
0000
0310
0011
0000
0110
0000
,
0010
2010
0000
3001
0101
0000
0110
0000
,
0010
1100
0000
0101
0010
0000
0110
0000
,
1001
0010
0000
0010
0100
0000
0110
0000
,
0001
0021
0000
0130
1100
0000
0110
0000
,
0100
0102
0000
1003
1010
0000
0110
0000
,
0100
0011
0000
1010
0100
0000
0110
0000
,
1001
0000
0100
0000
0000
0000
0100
0000
0020
0000
1000
0001
0130
0000
0010
0000
,
0100
1020
0000
0130
1100
0000
0110
0000
,
0100
0102
0000
1003
1010
0000
0110
0000
,
0100
0011
0000
1010
0100
0000
0110
0000
,
1001
0100
0000
0100
0010
0000
0110
0000
,
1000
1200
0000
0310
0011
0000
0110
0000
,
0010
2010
0000
3001
0101
0000
0110
0000
,
0010
1100
0000
0101
0010
0000
0110
0000
,
1001
0000
0010
0000
0000
0000
0010
0000
0200
0000
0001
1000
0310
0000
M1M1
0000
,
0000
1000
0001
0100
0010
1000
0001
M11M
,
0000
1000
0100
0001
0100
1000
0010
1MM1
,
0000
0001
1000
0010
0100
0001
1000
M11M
,
0000
0000
0010
0000
0100
0000
0001
1000
0001
0000
0100
0000
0010
0000
1MM1
0000
,
0000
0001
1000
0010
0100
0001
1000
M11M
,
0000
0001
0010
1000
0010
0001
0100
1MM1
,
0000
1000
0001
0100
0010
1000
0001
M11M
,
0000
0000
0100
0000
0010
0000
1000
0001
1000
0000
0010
0000
0100
0000
2MM2
0000
,
0000
3003
1000
0000
1100
0000
0001
0100
,
0000
0010
0100
0000
0101
0000
0010
1000
,
0000
1000
0100
0000
1100
0000
0010
0001
,
1000
0000
0100
0000
0010
0000
0001
0100
0010
0000
1000
0000
0010
0000
0100
0000
,
00M0
0M00
0001
0000
0011
0000
1000
0010
,
0000
0100
0010
0000
1010
0000
0100
0001
,
0000
0001
0010
0000
0011
0000
0100
1000
,
0001
0010
0100
1000
0100
0001
0100
0010
,
0000
0000
1000
0000
0100
0000
1000
0100
1000
0000
0100
0000
1000
0000
0100
0000
,
1010
0000
0001
0000
0100
0000
0001
0100
0001
0000
0100
0000
0001
0000
0100
0000
,
1001
0000
0100
0000
0010
0000
0100
0010
0100
0000
0010
0000
0100
0000
0010
0000
,
1100
0000
0001
0000
1000
0000
0001
1000
0001
0000
1000
0000
0001
0000
M22M
0000
,
0330
0000
0001
0000
0100
0000
0010
1000
0010
0000
0100
0000
1001
0000
0100
0000
,
1001
0000
0100
0000
0001
0000
1000
0100
1000
0000
0010
0000
0101
0000
0010
0000
,
0101
0000
0010
0000
1000
0000
0001
0100
0001
0000
0100
0000
1010
0000
0100
0000
,
1010
0000
0100
0000
0001
0000
1000
0100
1000
0000
0010
0000
0100
0000
1001
0000
,
0010
1000
0001
1000
0001
0100
0010
1000
,
0001
1000
0100
0001
0100
1000
0010
0001
,
0010
1000
0001
0100
0010
1000
0100
0001
,
0100
1000
0010
0100
0001
0100
0010
0000
,
0012
0000
1003
0010
0000
0101
0000
1001
,
0000
1000
0100
0010
0100
0000
1001
0000
,
0110
0000
1000
0100
1000
0000
0001
0100
,
0001
0010
0000
0200
0000
0301
0000
0001
,
1001
1000
0100
0010
0001
0100
0010
1000
,
0100
0001
0100
1000
0010
0001
1000
0100
,
0010
0100
0001
0100
0010
1000
0100
0010
,
0000
1000
0001
0100
0010
0000
1001
0000
,
1001
0100
0010
1100
0000
0101
0000
0110
,
0000
0010
0100
1000
0100
0010
0101
0000
,
0010
0000
1000
0100
1000
0000
0001
0100
,
0020
0200
0030
0000
0310
0010
0010
0010
,
1000
0001
0100
0010
0100
0010
1000
0001
,
0100
0010
1000
0100
0001
0100
1000
0010
,
0100
0001
0010
0100
0000
0011
0000
1100
,
0000
0001
0100
0100
0010
1000
1100
0000
,
0001
0100
1000
0200
0000
0002
0303
0020
,
0000
1030
0100
1000
0010
0000
0100
0000
,
1001
0000
1000
0100
1000
0000
0001
0100
,
0001
1000
0000
0101
0000
1100
0000
0101
,
0010
1000
0100
0010
0001
0100
0010
0100
,
0001
1000
0100
0001
0100
1000
0010
0001
,
0010
1000
0100
0010
0100
1000
0001
0100
,
0010
1000
0001
0100
0001
1000
0100
0000
,
0220
0330
0002
0200
0303
2020
3030
0200
,
0000
0310
0001
0010
0100
1000
0110
0000
,
1001
0000
0010
0100
0001
0000
0001
0100
,
0010
1000
0000
1001
0000
0110
0000
0010
,
2002
0000
0000
0000
,
0000
0000
0000
0000
,
0000
0000
0000
3003
;
