#TITLE:Non Combustible waste;
#SUBTITLE:;
#ARTIST:USAO;
#TITLETRANSLIT:;
#SUBTITLETRANSLIT:;
#ARTISTTRANSLIT:;
#CREDIT:Braeden47;
#BANNER:../Banner.png;
#BACKGROUND:../BG.PNG;
#LYRICSPATH:;
#CDTITLE:../CDTitleBRAEDEN.png;
#MUSIC:USAO - Non Combustible waste.ogg;
#OFFSET:-0.064;
#SAMPLESTART:202.557;
#SAMPLELENGTH:29.999;
#SELECTABLE:YES;
#DISPLAYBPM:210.000;
#BPMS:0.000=210.000,508.000=168.000,509.000=110.002,510.000=99.001,512.000=39.350,513.000=61.000,514.000=80.000,515.000=91.000,516.000=99.001,517.000=100.000,518.000=103.001,519.000=106.001,520.000=108.000,521.000=113.000,522.000=117.002,523.000=120.000,524.000=125.000,525.000=127.999,526.000=132.003,527.000=135.000,528.000=137.999,529.000=140.000,530.000=143.004,531.000=145.002,532.000=148.003,533.000=150.000,537.000=151.503,539.000=151.494,540.000=151.503,542.000=151.494,543.000=151.503,544.000=151.494,545.000=151.002,549.000=150.993,550.000=151.002,554.000=150.993,555.000=151.002,560.000=150.993,561.000=151.002,565.000=150.993,566.000=151.002,571.000=150.993,572.000=151.002,576.000=150.993,577.000=151.002,582.000=150.993,583.000=151.002,588.000=150.993,589.000=151.002,593.000=150.993,594.000=151.002,599.000=150.993,600.000=151.002,604.000=150.993,605.000=151.002,609.000=150.993,610.000=151.002,614.000=150.993,615.000=151.002,620.000=150.993,621.000=151.002,626.000=150.993,627.000=151.002,631.000=150.993,632.000=151.002,636.000=150.993,637.000=151.002,643.000=150.993,644.000=151.002,648.000=150.993,649.000=151.002,653.000=150.993,654.000=151.002,657.000=147.000,659.000=146.002,660.000=145.994,661.000=146.002,664.000=145.994,665.000=146.002,667.000=165.997,669.000=178.002,671.000=177.990,672.000=178.002,677.000=177.990,678.000=178.002,683.000=177.990,684.000=178.002,689.000=177.990,690.000=178.002,694.000=180.997,695.000=190.004,696.000=205.005,697.000=220.005,698.000=230.007,699.000=240.000,700.000=212.992,701.000=213.009,702.000=212.992,703.000=131.302,704.000=131.296,705.000=131.302,707.000=131.296,708.000=131.302,710.000=131.296,711.000=131.302,713.000=131.296,714.000=131.302,717.000=131.296,718.000=127.999,720.000=123.001,721.000=205.005,722.000=204.989,723.000=205.005,725.000=204.989,726.000=205.005,728.000=204.989,729.000=205.005,731.000=204.989,732.000=205.005,735.000=204.989,736.000=205.005,738.000=204.989,739.000=205.005,741.000=204.989,742.000=205.005,744.000=204.989,745.000=205.005,747.000=204.989,748.000=205.005,750.000=204.989,751.000=205.005,754.000=204.989,755.000=205.005,757.000=204.989,758.000=205.005,760.000=204.989,761.000=205.005,763.000=204.989,764.000=205.005,766.000=204.989,767.000=205.005,769.000=204.989,770.000=205.005,772.000=204.989,773.000=205.005,776.000=204.989,777.000=205.005,779.000=204.989,780.000=205.005,782.000=204.989,783.000=205.005,785.000=204.989,786.000=205.005,788.000=204.989,789.000=205.005,792.000=204.989,793.000=205.005,795.000=204.989,796.000=205.005,798.000=204.989,799.000=205.005,801.000=204.989,802.000=205.005,804.000=204.989,805.000=205.005,807.000=204.989,808.000=205.005,810.000=204.989,811.000=205.005,813.000=204.989,814.000=205.005,817.000=204.989,818.000=205.005,820.000=204.989,821.000=205.005,823.000=204.989,824.000=205.005,826.000=204.989,827.000=205.005,829.000=204.989,830.000=205.005,833.000=204.989,834.000=205.005,836.000=204.989,837.000=205.005,839.000=204.989,840.000=205.005,842.000=204.989,843.000=205.005,845.000=204.989,846.000=205.005,848.000=204.989,849.000=205.005,851.000=204.989,852.000=205.005,854.000=204.989,855.000=205.005,858.000=204.989,859.000=205.005,861.000=204.989,862.000=205.005,864.000=204.989,865.000=205.005,867.000=204.989,868.000=205.005,870.000=204.989,871.000=205.005,873.000=204.989,874.000=205.005,877.000=204.989,878.000=205.005,880.000=204.989,881.000=205.005,883.000=204.989,884.000=205.005,886.000=204.989,887.000=205.005,889.000=204.989,890.000=205.005,892.000=204.989,893.000=205.005,895.000=204.989,896.000=205.005,898.000=204.989,899.000=205.005,901.000=204.989,902.000=205.005,905.000=204.989,906.000=205.005,909.000=204.989,910.000=205.005,912.000=204.989,913.000=205.005,915.000=204.989,916.000=205.005,918.000=204.989,919.000=205.005,921.000=204.989,922.000=205.005,924.000=204.989,925.000=205.005,927.000=204.989,928.000=205.005,930.000=204.989,931.000=205.005,933.000=204.989,934.000=205.005,936.000=204.989,937.000=205.005,939.000=204.989,940.000=205.005,942.000=204.989,943.000=205.005,946.000=204.989,947.000=205.005,950.000=204.989,951.000=205.005,953.000=204.989,954.000=205.005,956.000=204.989,957.000=205.005,959.000=204.989,960.000=205.005,962.000=204.989,963.000=205.005,965.000=204.989,966.000=205.005,968.000=204.989,969.000=205.005,971.000=204.989,972.000=205.005,974.000=204.989,975.000=205.005,977.000=204.989,978.000=205.005,980.000=204.989,981.000=205.005,983.000=204.989,984.000=205.005,987.000=204.989,988.000=205.005,991.000=204.989,992.000=205.005,994.000=204.989,995.000=205.005,997.000=204.989,998.000=205.005,1000.000=204.989,1001.000=205.005,1003.000=204.989,1004.000=205.005,1006.000=204.989,1007.000=205.005,1009.000=204.989,1010.000=205.005,1012.000=204.989,1013.000=205.005,1015.000=204.989,1016.000=205.005,1018.000=204.989,1019.000=205.005;
#STOPS:;
#BGCHANGES:;
// cache tags:
#FIRSTBEAT:16.000;
#LASTBEAT:1208.500;
#SONGFILENAME:Songs/Index Fusion/Non Combustible waste - [Braeden]/USAO - Non Combustible waste.sm;
#HASMUSIC:1;
#HASBANNER:1;
#MUSICLENGTH:378.435;
// end cache tags

//---------------dance-single - ----------------
#NOTES:
     dance-single:
     :
     Challenge:
     19:
     1.000,1.000,0.114,0.071,1.000,3434.000,43.000,27.000,26.000,0.000:

0000
0000
0000
0000
,
0000
0000
0000
0000
,
0000
0000
0000
0000
,
0000
0000
0000
0000
,
1001
0001
0100
0001
1000
1000
0000
1000
,
0000
0000
0100
0010
0100
0000
0010
0000
0001
1000
0001
0000
0100
0000
0010
0000
,
1000
0000
0001
0100
0001
0001
0100
0010
,
1000
0000
0001
0100
0001
0000
1000
0000
0010
0100
0010
0000
1000
0000
0001
0000
,
1001
0000
1000
0001
1000
0100
0000
0011
,
0000
0000
0001
0100
0010
0000
1000
0000
0001
0100
0010
0000
1000
0000
0100
0000
,
0010
0000
0001
1000
0010
0010
0000
0110
,
0000
0000
0100
0001
1000
0000
0010
0000
0100
0001
1000
0000
0010
0000
1000
0000
,
0011
0000
0001
0100
0001
0001
0000
1000
,
0010
0000
0100
0001
0100
0000
0010
0000
1000
0001
1000
0000
0001
0000
0100
0000
,
0020
0000
2030
3200
0310
0010
0001
0020
,
0230
0000
2300
0000
3002
0000
2003
3000
,
1000
0001
0010
0100
1000
0100
0010
0001
0100
0010
0100
0001
0010
0100
1000
0001
,
0100
0010
1000
0100
0010
0001
0010
0100
1000
0001
0100
0010
1000
0100
0010
0001
,
0010
0100
1000
0001
0100
0010
1000
0100
0010
0001
0010
0100
1000
0001
0100
0010
,
1000
0000
0001
0000
0100
0010
0100
0010
,
1000
0100
0010
0001
0010
0100
1000
0001
0100
0010
1000
0100
0010
0001
0010
0100
,
1000
0001
0010
0100
1000
0001
0010
0001
1000
0100
0010
0001
0010
0100
1000
0001
,
0100
0010
1000
0001
0010
0100
1000
0001
0100
0010
1000
0100
0010
0001
0100
0010
,
1000
0000
0001
0000
0100
0010
0100
0010
,
1000
0001
0100
0010
1000
0001
0010
0100
1000
0100
0010
0001
0100
0010
0100
0001
,
0010
0100
1000
0001
0010
0001
1000
0100
0010
0001
0100
0010
0100
0001
0010
0100
,
1000
0100
0010
0001
0100
0010
1000
0001
0010
0100
1000
0100
0010
0001
0100
0010
,
0100
0001
0010
0100
1000
0001
0010
0001
1000
0100
0010
0001
0100
0010
1000
0001
,
0100
0001
0010
0100
1000
0100
0010
0001
0100
0010
0100
0001
0010
0100
1000
0100
,
0010
0001
0100
0010
0100
0001
0010
0100
1000
0100
0010
0001
0100
0010
0100
0001
,
0010
0100
1000
0100
0010
0001
0010
0100
1000
0001
0100
0010
0100
0001
0010
0100
,
1000
0100
0010
0001
0100
0010
0100
0001
0010
0100
1000
0100
0010
0001
0100
0010
,
1000
0100
0010
0100
1000
0001
0010
0100
1000
0100
0010
0001
0010
0100
1000
0010
,
0100
0001
0100
0010
1000
0100
0010
0001
0010
0100
1000
0001
0100
0010
1000
0100
,
0010
0001
0010
0100
1000
0001
0100
0010
1000
0001
0010
0100
1000
0100
0010
0001
,
0100
0010
0100
0001
0010
0100
1000
0001
0010
0001
1000
0100
0010
0001
0100
0010
,
1000
0001
0010
0100
1000
0100
0010
0001
0100
0010
0100
0001
0010
0100
1000
0100
,
0010
0001
0100
0010
0100
0001
0010
0100
1000
0100
0010
0001
0100
0010
0100
0001
,
0010
0100
1000
0100
0010
0001
0100
0010
0100
0010
1000
0100
0010
0001
0100
0010
,
1000
1000
1000
0000
1001
0000
0101
0000
,
1000
0100
0010
0001
0010
0100
1000
0001
0100
0010
1000
0100
0010
0001
0010
0100
,
1000
0001
0100
0010
1000
0001
0010
0100
1000
0100
0010
0001
0100
0010
1000
0001
,
0010
0100
1000
0001
0100
0010
1000
0100
0010
0001
0010
0100
1000
0001
0100
0010
,
1000
0001
0010
0100
1000
0100
0010
0001
0010
0100
1000
0001
0100
0010
1000
0001
,
0010
0100
1000
0001
0010
0001
1000
0100
0010
0001
1000
0100
1000
0001
0010
0100
,
1000
0001
0100
0010
1000
0100
0010
0001
0010
0100
1000
0001
0100
0010
0100
0010
,
1000
0100
1000
0100
0010
0001
0010
0001
1000
0010
0100
0001
1000
0100
0010
0001
,
0010
0100
1000
0001
0100
0010
1000
0001
0010
0100
1000
0100
0010
0001
0100
0010
,
1000
0001
0010
0100
1000
0100
0010
0001
0010
0100
1000
0001
0100
0010
1000
0100
,
0010
0001
0010
0100
1000
0001
0100
0010
1000
0100
0010
0001
0010
0100
1000
0001
,
0100
0010
0100
0001
1000
0100
1000
0001
0100
0010
0100
0001
0010
0100
1000
0100
,
0010
0001
0100
0010
0100
0001
0010
0100
1000
0100
0010
0001
0010
0100
1000
0001
,
0100
0010
0100
0001
0010
0100
1000
0100
0010
0001
0100
0010
0100
0001
0010
0100
,
1000
0100
0010
0100
1000
0001
0100
0010
1000
0001
0010
0100
1000
0100
0010
0001
,
0010
0100
1000
0001
0100
0010
1000
0100
0010
0100
1000
0001
0010
0100
1000
0001
,
1000
0010
0100
0000
0001
0000
0100
0000
,
0010
1000
0100
0010
0001
0010
0100
1000
0001
0100
0010
1000
0100
0010
0001
0010
,
0100
1000
0001
0100
0010
0100
0001
0010
0100
1000
0100
0010
0001
0100
0010
0100
,
0001
0010
0100
1000
0001
0010
0001
1000
0100
0010
0001
0100
0010
1000
0001
0010
,
0100
1000
0100
0010
0001
0100
0010
0100
0001
0010
0100
1000
0001
0010
0001
1000
,
0100
0010
0100
0010
0001
0100
0010
1000
0001
0010
0100
1000
0100
0010
0001
0100
,
0010
1000
0010
1000
0001
0010
0100
1000
0100
0010
0001
0100
0010
0100
0001
0010
,
0100
1000
0100
1000
0001
0100
0010
1000
0100
0010
0100
1000
0001
0010
0100
1000
,
0001
0100
0010
0100
0001
1000
0100
1000
0010
1000
0100
1000
0001
0100
0010
1000
,
0001
0010
0100
1000
0100
0010
0001
0100
0010
1000
0001
0010
0100
1000
0100
0010
,
0001
0100
0001
1000
0010
1000
0001
0100
0010
1000
0001
0010
0100
1000
0100
0010
,
0001
1000
0001
0010
0100
1000
0001
0100
0010
1000
0100
0010
0001
1000
0100
0010
,
0100
1000
0001
0100
0010
1000
0001
0010
0100
1000
0100
0010
0001
0100
0010
1000
,
0001
1000
0010
0100
0001
1000
0100
0010
0001
0010
0100
1000
0001
0100
0010
1000
,
0100
0010
0001
0010
0100
1000
0001
0100
0001
1000
0100
1000
0001
0100
0010
1000
,
0100
0010
0100
1000
0001
0010
0100
1000
0100
0010
0001
0100
0010
1000
0100
0010
,
0100
1000
0001
0100
0010
1000
0001
0010
0100
1000
0100
0010
0100
1000
0001
0100
,
0010
1000
0001
0010
0100
1000
0100
0010
0001
0100
0010
1000
0001
0010
0100
1000
,
0100
0010
0001
0100
0010
1000
0100
1000
0001
0010
0100
1000
0100
0010
0001
0100
,
0010
0100
0001
0010
0100
1000
0100
0010
0001
0010
0100
1000
0001
0100
0010
0100
,
0001
0010
0100
1000
0100
0010
0100
1000
0001
0010
0100
1000
0001
0100
0010
1000
,
0001
0010
0001
1000
0010
0100
0001
0100
0010
1000
0100
0010
0001
0010
0100
1000
,
0001
0100
0010
1000
0001
0010
0100
1000
0100
0010
0001
0100
0010
1000
0001
0100
,
0010
1000
0010
0100
0001
0010
0100
1000
0100
0010
0001
0010
0100
1000
0001
0100
,
0010
1000
0100
0010
0001
0010
0100
1000
0001
0100
0010
1000
0001
0010
0100
1000
,
0100
0010
0001
0100
0010
1000
0001
0010
0100
1000
0100
0010
0001
0010
0100
1000
,
0001
0100
0010
1000
0001
0010
0100
1000
0001
0100
0010
1000
0001
0100
0010
1000
,
0100
0010
0001
0010
0100
1000
0001
0100
0010
1000
0100
0010
0001
0010
0100
1000
,
0001
0100
0010
1000
0100
0010
0001
0010
0100
1000
0001
0100
0010
1000
0001
0010
,
0100
1000
0100
0010
0001
0010
0100
1000
0001
0100
0010
1000
0001
0010
0100
1000
,
0001
0100
0010
1000
0001
0010
0100
1000
0100
0010
0001
0010
0100
1000
0001
0100
,
0010
1000
0100
0010
0001
0010
0100
1000
0001
0100
0010
1000
0100
0010
0001
1000
,
0001
0000
0101
0000
0110
0000
1000
0010
,
1000
0100
0010
0001
0010
0100
1000
0001
0100
0010
1000
0100
0010
0001
0010
0100
,
1000
0001
0100
0010
1000
0001
0010
0100
1000
0100
0010
0001
0100
0010
0100
0001
,
0010
0100
1000
0100
0010
0001
0100
0010
0100
0001
0010
0100
1000
0100
0010
0001
,
0100
0010
1000
0001
0010
0100
1000
0100
0010
0001
0100
0010
0100
0001
0010
0100
,
1000
0100
0010
0001
0100
0010
0100
0001
0010
0100
1000
0100
0010
0001
0100
0010
,
0100
0001
0010
0100
1000
0100
0010
0001
1000
0100
1000
0001
0010
0100
1000
0100
,
0010
0001
0100
0010
1000
0001
0010
0100
1000
0100
0010
0001
0100
0010
1000
0100
,
0010
0001
0100
0010
1000
0001
1000
0100
1000
0000
0001
0000
1000
0000
0001
0000
,
1000
0100
0010
0001
0010
0100
1000
0001
0100
0010
1000
0100
0010
0001
0010
0100
,
1000
0001
0100
0010
1000
0001
0010
0100
1000
0001
0100
0010
1000
0100
0010
0001
,
1000
0010
1000
0001
0100
0010
1000
0100
0010
0001
0010
0100
1000
0001
0100
0010
,
1000
0001
1000
0010
0100
0001
1000
0100
0010
0001
1000
0010
0100
0001
1000
0100
,
0010
0001
1000
0010
0100
0001
0010
0100
1000
0001
0100
0010
1000
0100
1000
0001
,
1000
0100
1000
0001
0100
0010
0100
0001
0100
0010
0100
0001
1000
0100
0010
0001
,
1000
0001
0010
0100
0010
0001
0100
0010
1000
0100
0010
0100
1000
0001
0010
0100
,
1000
0100
0010
0001
0100
0010
1000
0001
0100
0010
0100
0001
1000
0100
1000
0001
,
0010
0001
0100
0010
1000
0010
0100
0001
1000
0100
0010
0001
0010
0100
1000
0001
,
0010
0100
1000
0001
0100
0010
1000
0100
0010
0001
0010
0100
1000
0001
0100
0010
,
0100
0001
0010
0100
1000
0001
0100
0010
0100
0001
0010
0100
1000
0100
0010
0001
,
0010
0100
0010
0001
0100
0010
1000
0001
0010
0100
1000
0001
0010
0100
0010
0001
,
1000
0100
0010
0001
1000
0100
0010
0100
1000
0001
0100
0010
1000
0100
0010
0001
,
0010
0100
1000
0001
0100
0010
1000
0100
0010
0001
0010
0100
1000
0001
0100
0010
,
0100
0001
1000
0100
0010
0100
1000
0001
0100
0010
1000
0001
0010
0100
1000
0100
,
0010
0001
0010
0100
1000
0001
0100
0010
1000
0100
0010
0001
0010
0100
1000
0001
,
1000
0000
0010
0000
0100
0000
0001
0100
0010
1000
0001
0000
0100
0000
0010
0000
,
2000
0000
3010
0000
0100
0000
0001
0100
0010
1000
0001
0000
0100
0000
0100
0000
,
0002
0000
1003
0000
0010
0000
0100
0001
0100
0010
1000
0000
0100
0000
0010
0000
,
0002
0000
1003
0000
0010
0000
0100
0001
1000
0100
0010
0000
0001
0000
0100
0000
,
0020
1030
0100
0010
0002
0103
0020
1030
,
0200
0000
0310
0000
0001
0000
0010
0001
1000
0100
0010
0000
0001
0000
0100
0000
,
0020
0000
1030
0000
0100
0000
0010
0100
1000
0001
0100
0000
0010
0000
1000
0000
,
0001
0000
0100
0000
0010
0000
1000
0100
1000
0001
0100
0000
0010
0000
1000
0000
,
0002
0000
0103
0000
0010
0000
1000
0010
0100
0010
1000
0000
0001
0000
0100
0000
,
0002
0003
0100
0000
0010
0000
1000
0100
0010
0001
0010
0000
0100
0000
1000
0000
,
0002
0003
1000
0000
0010
0000
0100
0001
1000
0100
1000
0000
0001
0000
0100
0000
,
0020
0030
1000
0000
0100
0000
0010
0001
0010
0100
1000
0000
0001
0000
0100
0000
,
0002
0003
0100
0000
0010
0000
1000
0100
1000
0001
0100
0000
0010
0000
1000
0000
,
0200
0300
0010
0000
0001
0000
0100
0010
1000
0001
0100
0000
0010
0000
1000
0000
,
0002
0003
0100
0000
0010
0000
1000
0001
0100
0010
1000
0000
0001
0000
0100
0000
,
0010
0100
1001
0000
2000
0000
3000
0000
,
0010
0000
1100
1000
1001
0001
0101
0100
,
1010
0000
1000
0000
1010
0010
1000
0001
0100
0010
0100
0001
1000
0100
1000
0001
,
0010
0100
0010
0001
1000
0100
0010
0001
0010
0100
1000
0001
0100
0010
1000
0100
,
0010
0100
1000
0001
0100
0010
0400
0000
0310
0000
1000
0000
0010
0000
0400
0000
,
0301
0010
0001
0000
1100
1000
0001
0100
0010
1000
0100
0010
0001
0010
0100
1000
,
0001
0000
0100
0000
0010
0000
1000
0000
0100
0000
0010
0000
0001
0000
1000
0001
1000
0000
0010
0000
0100
0000
0001
0000
1000
0000
0010
0000
1000
0001
1000
0001
,
1000
0000
0000
0000
0010
0100
0010
0100
0001
0000
0100
0000
0001
0000
0010
0000
0100
0000
1000
0000
0100
0000
0010
0000
0001
0000
1000
0000
0010
0000
0100
0000
,
0001
0000
0100
0000
0010
0000
1000
0000
0001
0000
0010
0000
0100
0000
1000
0001
1000
0000
0010
0000
0100
0000
0001
0100
0010
0000
0000
0000
1000
0000
0010
0100
,
0010
0000
0000
1000
0000
0000
0001
0000
0000
0010
0000
0000
0100
0000
1000
0000
0100
0000
0010
0000
0001
0000
1000
0000
0010
0000
0100
0000
0001
0000
0010
0000
0100
0000
1000
0000
0100
0000
0010
0000
0001
0000
0010
0000
0100
0000
1000
0000
,
0100
0010
0001
1000
0010
0100
0001
0010
0100
1000
0100
0010
0001
1000
0010
0100
0001
0010
0100
0000
1000
0100
0010
0001
,
1000
0000
0000
0100
0000
0000
1000
0010
0100
0001
1000
0100
0010
0001
0010
0100
1000
0010
0100
0010
1000
0100
0010
0001
,
0010
0100
1000
0010
0100
0010
1000
0100
0010
0001
1000
0100
1000
0001
0010
0100
1000
0100
0010
0001
1000
0010
0100
0001
,
0100
0000
0000
0000
0000
0000
0010
0000
0000
1000
0000
0000
0001
0000
0100
0000
0010
0000
1000
0000
0001
0000
0010
0000
0100
0000
1000
0000
0100
0000
0010
0000
0001
0000
1000
0000
0100
0000
0010
0000
0001
0000
0010
0000
0100
0000
1000
0000
,
0100
0010
0001
1000
0010
0100
0001
0010
0100
1000
0100
0010
0001
1000
0010
0100
0001
0010
0100
1000
0100
0010
0001
1000
,
0100
0000
0000
0100
0000
0000
0100
0100
0010
1000
0001
0010
0100
1000
0100
0010
0001
1000
0010
0100
0001
0010
0100
1000
,
0001
0100
0010
1000
0001
0010
0100
1000
0100
0010
0001
1000
0010
0100
0001
0010
0100
1000
0100
0010
0001
1000
0010
0100
,
0010
0000
0100
0010
0100
0001
0010
0100
1000
0100
0010
0001
1000
0010
0100
0010
,
1000
0000
0001
0000
0010
0000
0100
0000
1000
0000
0010
0000
0100
0001
0100
0001
1000
0000
0010
0000
1000
0000
0010
0000
0100
0000
0001
0000
1000
0000
0100
0000
,
0010
0001
0010
0100
1000
0100
0010
0001
1000
0010
0100
0010
1000
0100
0010
0001
,
0010
0000
0100
0000
1000
0000
0010
0000
0100
0000
0001
0000
1000
0001
1000
0001
1000
0000
0010
0000
0100
0000
0001
0000
0010
0000
0100
0000
1000
0000
0100
0000
,
0010
0001
1000
0010
0100
0001
0010
0100
1000
0100
0010
0001
1000
0010
0100
0010
,
1000
0000
0100
0000
0010
0000
0001
0000
1000
0000
0001
0000
1000
0001
1000
0001
1000
0000
0100
0000
0010
0000
0001
0000
0010
0000
0100
0000
1000
0000
0100
0000
,
0010
0001
1000
0010
0100
0001
0010
0100
0010
0001
1000
0100
0010
0001
0010
0100
,
1000
0000
0010
0000
0100
0000
0001
0000
1000
0000
0010
0000
1000
0010
1000
0010
0100
0000
0001
0000
0100
0000
0001
0000
0010
0000
0100
0000
0010
0000
0001
0000
,
1000
0010
0100
0001
0010
0000
0100
0000
1100
0000
1000
0000
0010
0000
1000
0000
,
1010
0100
0001
0100
0101
0010
1000
0010
,
1010
0100
0001
0100
0101
0010
1000
0010
,
1010
0100
0001
0100
0101
0001
1000
0001
,
1001
1000
1000
0010
0100
0001
0100
0010
,
1000
0100
1000
1000
1000
0010
0100
0001
,
0100
0010
0010
0010
1000
0001
1000
0010
,
0100
0001
0100
0000
0100
0000
0001
0010
,
0001
0000
1010
0000
1010
0000
1000
0001
,
1000
0010
1000
0000
1100
0000
1010
0000
,
0100
0001
0100
0000
1010
0000
1000
0100
,
1000
0010
1000
0000
0011
0000
0100
0010
,
0001
0000
0100
0000
0004
0000
0000
0000
0000
0000
0000
0000
1003
0010
0100
0001
,
1000
0010
0100
0001
0010
0100
1000
0010
1000
0100
0010
0001
1000
0010
0100
0001
,
1000
0100
0010
0001
0010
0100
1000
0100
0010
0001
1000
0010
0400
0000
0000
0000
,
0000
0000
0301
0010
0100
1000
0100
0010
,
0001
0010
0100
1000
0100
0010
0001
4000
,
3400
4300
3001
0010
0100
1000
0100
0010
,
0001
1000
0010
0100
0001
0010
0100
0040
,
0034
0043
0130
1000
0100
0010
0001
0010
,
0100
0010
0001
1000
0010
0100
0001
4000
,
3400
4300
3010
0100
0001
1000
0100
0010
,
0001
0010
0100
1000
0010
0100
0001
1000
,
0004
0000
0000
0000
0003
0000
1000
0010
,
0100
0001
0010
0001
1000
0000
0010
0100
0001
0010
0100
1000
0100
0000
0010
0001
,
1000
0010
0100
0001
0010
0100
1000
0100
0010
0001
1000
0100
0010
0001
0010
0100
,
1000
0010
0100
0001
1000
0100
0010
0001
0010
0100
1000
0100
0010
0001
0100
0001
,
4000
3004
0000
0000
,
0003
M000
0M00
00M0
,
000M
M000
00M0
0M00
,
000M
00M0
0M00
M000
,
00M0
0M00
000M
00M0
,
0M00
M000
0M00
00M0
,
000M
00M0
0M00
M000
,
0M00
00M0
000M
0000
,
0000
0000
0000
0000
,
0000
0000
0000
0000
0011
0000
0100
0000
1000
0000
0010
0100
0010
1000
0001
0000
,
1000
0010
1000
0000
0001
0000
0010
0000
0100
0000
1000
0100
0010
0001
1000
0000
,
0010
0100
0010
0000
1000
0000
0100
0000
0010
0000
0001
1000
0010
0100
0001
0000
,
0010
0100
1000
0000
0100
0000
0010
0000
0001
0000
1000
0010
0100
0001
1000
0000
,
0010
0100
0001
0000
1000
0000
0100
0000
0010
0000
0001
1000
0010
0100
0001
0000
,
1000
0100
0010
0000
0001
0000
1000
0000
0010
0000
0100
0001
1000
0010
0100
0000
,
0001
0010
0100
0000
1000
0000
0100
0000
0010
0000
0001
1000
0010
0100
0001
0000
,
1000
0100
0010
0000
0001
0000
0010
0000
0100
0000
1000
0010
0100
0001
1000
0000
,
0100
0010
0001
0000
1001
0000
0010
0000
0100
0000
0001
0010
0100
1000
0100
0000
,
0010
0001
1000
0000
0010
0000
0100
0000
0001
0000
0010
0100
1000
0100
0010
0000
,
0001
1000
0010
0000
0100
0000
0001
0000
0100
0000
0010
1000
0001
0010
0001
0000
,
1000
0010
0100
0000
0001
0000
0010
0000
0100
0000
1000
0100
0010
0001
1000
0000
,
0010
0100
0010
0000
1000
0000
0100
0000
0010
0000
0001
1000
0010
0100
0001
0000
,
1000
0100
0010
0000
0001
0000
1000
0000
0010
0000
0100
0001
1000
0100
0010
0000
,
0001
1000
0010
0000
0100
0000
0001
0000
1000
0000
0010
0100
0001
1000
0010
0000
,
0100
0001
1000
0000
0010
0000
0100
0000
0001
0000
1000
0010
0100
0001
1000
0000
,
0010
0100
0010
0000
1001
0000
0000
0000
0000
0000
0000
0000
0000
0000
0000
0000
,
0000
0000
0000
0000
,
0001
0000
0001
0000
1000
0010
0100
0001
1000
0100
0010
0001
0010
0100
1000
0100
,
0010
0001
1000
0010
0100
0001
1000
0100
0010
0001
0010
0100
1000
0010
0100
0010
,
1000
0100
0010
0001
1000
0010
0100
0001
0010
0100
1000
0100
0010
0001
1000
0010
,
0100
0001
1000
0100
0010
0001
0010
0100
1000
0100
0010
0001
1000
0010
0100
0001
,
1000
0010
0100
0001
1000
0100
0010
0001
0010
0100
1000
0100
0010
0001
1000
0010
,
0100
0001
1000
0100
0010
0001
1000
0100
0010
0001
0010
0100
1000
0010
0100
0001
,
1000
0100
0010
0001
0010
0100
1000
0010
0100
0010
1000
0100
0010
0001
0010
0100
,
1000
0100
0010
0001
1000
0010
0100
0001
0010
0100
1000
0100
0010
0001
1000
0010
,
0100
0001
1000
0100
0010
0001
0010
0100
1000
0100
0010
0001
1000
0100
0010
0001
,
1000
0010
0100
0001
1000
0100
0010
0001
0010
0100
1000
0100
0010
0001
1000
0010
,
0100
0001
0010
0100
1000
0100
0010
0001
1000
0100
0010
0001
1000
0100
0010
0001
,
0010
0100
1000
0100
0010
0001
1000
0010
0100
0001
1000
0010
0100
0001
0010
0100
,
1000
0100
0010
0001
1000
0100
1000
0001
0010
0001
1000
0010
0100
0001
0010
0100
,
0010
0001
1000
0100
0010
0001
0010
0100
1000
0100
0010
0001
1000
0010
0100
0001
,
1000
0100
0010
0001
0010
0100
1000
0100
0010
0001
1000
0010
0100
0001
0010
0100
,
1000
0010
0100
0010
1000
0010
0100
0001
,
0100
0000
0001
0000
1000
0001
0010
0100
0010
0001
1000
0100
0010
0001
0010
0100
,
0010
0100
0010
0001
1000
0010
0100
0001
0010
0100
1000
0100
0010
0001
1000
0010
,
0100
0001
1000
0010
0100
0001
1000
0100
1000
0001
0010
0100
1000
0010
0100
0001
,
1000
0100
0010
0100
1000
0001
0010
0100
0010
0001
1000
0010
0100
0010
1000
0100
,
0010
0001
0010
0100
1000
0100
0010
0001
1000
0010
0100
0001
1000
0100
0010
0001
,
1000
0010
0100
0001
1000
0100
0010
0001
0010
0100
1000
0100
0010
0001
1000
0010
,
0100
0001
1000
0100
0010
0001
0010
0100
1000
0100
0010
0001
1000
0010
0100
0001
,
1000
0100
0010
0001
0010
0100
1000
0100
0010
0001
1000
0010
0100
0001
1000
0100
,
0010
0001
0010
0100
1000
0100
0010
0001
1000
0010
0100
0001
1000
0100
0010
0001
,
1000
0100
1000
0001
0010
0001
1000
0010
0100
0001
1000
0010
0100
0001
0010
0100
,
0010
0001
1000
0100
0010
0001
0010
0100
1000
0100
0010
0001
1000
0010
0100
0001
,
1000
0100
0010
0001
0010
0100
1000
0100
0010
0001
1000
0010
0100
0010
1000
0100
,
0010
0001
1000
0100
1000
0001
0010
0100
1000
0100
0010
0001
1000
0010
1000
0100
,
1000
0001
0010
0001
0100
0001
1000
0100
1000
0010
1000
0001
0010
0001
1000
0100
,
0010
0001
1000
0100
0010
0001
0010
0100
1000
0100
0010
0001
1000
0010
0100
0001
,
0010
0100
1000
0100
0010
0000
0001
0000
1000
0000
0010
0000
0100
0000
0001
0000
,
0010
0100
1000
0000
0010
0000
0100
0000
,
0001
0100
0010
1000
,
0100
1000
0100
0000
1000
0000
0010
0000
,
0100
0001
0100
0010
,
1000
0100
1000
0000
0010
0000
1000
0000
,
0001
1000
0010
1000
,
0100
1000
0100
0000
1000
0000
0010
0000
,
0100
0001
1000
0010
,
0100
0000
0001
0000
0100
0010
1000
0100
0010
0001
0010
0100
1000
0100
0010
0001
,
1000
0010
0100
0001
0010
0100
1000
0100
0010
0001
1000
0010
0100
0001
1000
0100
,
0010
0001
0010
0100
1000
0100
0010
0001
1000
0010
0100
0001
0010
0100
1000
0100
,
0010
0001
1000
0010
0100
0001
0010
0100
1000
0100
0010
0001
1000
0010
0100
0001
,
1000
0010
0010
0000
0010
0000
0100
0000
,
0001
1000
0010
0100
,
0001
1000
0001
0000
0100
0000
0010
0000
,
1000
0100
1000
0010
,
0100
0001
0101
0000
0100
0000
0100
0000
,
0100
0000
0001
0000
1000
0010
1000
0000
,
0100
1000
0100
0000
1000
0000
0010
0000
,
0100
0000
0001
0000
1000
0010
1000
0000
,
0010
0100
0010
0000
0100
0000
0001
0000
,
1000
0000
0100
0000
1000
0100
1000
0000
,
0010
0110
0100
0001
,
1000
0000
0100
0000
1000
0100
1000
0000
,
0001
0000
0100
0010
0100
0000
0001
0000
,
1000
0000
0100
0000
1000
0001
1000
0000
,
0100
0010
0100
0000
0010
0000
0001
0000
,
0010
0000
0100
0000
1000
0010
1000
0000
,
0001
0100
0001
0000
1000
0000
0010
0000
,
1000
0000
0100
0000
1000
0010
1000
0000
,
0001
0100
0001
0100
0000
0000
0010
0000
0000
1000
0000
0000
,
0100
2000
3020
0230
,
0301
0100
0010
1000
,
0001
0010
0100
1000
,
0001
0100
0010
0000
1000
0000
0010
0000
,
0100
0000
0001
0000
0010
0100
0010
0000
,
1000
0010
0100
0001
,
1000
0010
0100
0000
0001
0000
0010
0000
,
0100
1000
0001
0000
0100
0000
0010
0000
,
1000
0001
0100
0010
,
1000
0001
0100
0000
0010
0000
1000
0000
,
0001
0010
0100
1000
,
0001
1000
0001
0000
0100
0000
0010
0000
,
1000
0000
0001
0000
0100
0001
0100
0000
,
0001
0010
0100
1000
,
0100
0010
0001
1000
,
0001
1000
0001
1000
0000
0000
0010
0000
0000
0100
0000
0000
,
0001
0010
0100
1000
,
0001
0000
1001
0000
0100
0000
0100
0100
,
0000
0000
0100
0000
0001
0000
1000
0001
0100
0000
0010
0000
1000
0001
0100
0000
,
0010
0100
0001
0000
0100
0001
0100
0100
,
0000
0000
0100
0000
0001
0000
1000
0010
0100
0000
0001
0000
0010
0100
0010
0000
,
0001
1000
0001
0000
0100
0000
0010
0010
,
0000
0000
1000
0000
0001
0000
0100
0010
0100
0000
0001
0000
0010
0100
0010
0000
,
0001
1000
0010
0000
0100
0001
1000
0010
,
0000
0000
0100
0000
0001
0000
1000
0010
0100
0000
0001
0000
0010
0100
0010
0000
,
0001
1000
0010
0000
0100
0000
0001
0001
,
0000
0000
0001
0000
0100
0000
0010
1000
0100
0000
1000
0000
0001
0100
0010
0000
,
1000
0001
1000
0000
0001
1000
0100
0100
,
0000
0000
0100
0000
0010
0000
0001
0010
0100
0000
1000
0000
0010
0100
0001
0000
,
0100
0010
1000
0000
0010
0000
0100
0100
,
0000
0000
0001
0000
1000
0000
1000
0001
0010
0000
0100
0000
1000
0001
0100
0000
,
0010
1000
0001
0000
0100
0001
0100
0010
,
0000
0000
1000
0000
0010
0000
0100
0001
1000
0000
0010
0000
0100
0001
1000
0000
,
0010
0010
0000
0000
0000
0000
0000
0000
;
