#TITLE:Rain;
#SUBTITLE:good fucking luck;
#ARTIST:YMCK;
#TITLETRANSLIT:;
#SUBTITLETRANSLIT:;
#ARTISTTRANSLIT:;
#CREDIT:;
#BANNER:../bn.png;
#BACKGROUND:../veyron.png;
#LYRICSPATH:;
#CDTITLE:;
#MUSIC:rain.ogg;
#OFFSET:-9.010;
#SAMPLESTART:224.220;
#SAMPLELENGTH:17.260;
#SELECTABLE:YES;
#BPMS:0.000=225.000;
#STOPS:;
#BGCHANGES:;
// cache tags:
#FIRSTBEAT:0.000;
#LASTBEAT:1267.000;
#SONGFILENAME:Songs/Cirque du Veyron/Zaia - Rain/rain.sm;
#HASMUSIC:1;
#HASBANNER:1;
#MUSICLENGTH:353.964;
// end cache tags

//---------------dance-single - Zaia----------------
#NOTES:
     dance-single:
     Zaia:
     Challenge:
     18:
     1.000,1.000,0.011,0.288,1.000,3089.000,4.000,102.000,0.000,0.000:
0001
0000
0010
0000
0001
0000
1000
0000
0001
0000
0000
0000
0000
0000
0000
1000
0000
0000
0001
0000
0000
0000
0000
0000
,
0000
0100
0001
1000
0100
0010
0100
1000
,
0000
0000
0001
0000
0000
0020
0000
0230
,
0000
1300
0001
0000
0100
0010
0100
0001
,
1000
0000
0100
0000
1000
0000
0001
0000
1000
0000
0010
0000
0000
0000
0000
0100
0000
0000
0001
0000
0000
0000
0000
0000
,
0000
0000
0100
0000
0001
0000
0010
0000
0100
1000
0001
1000
0001
0000
0100
0000
,
0010
0000
0000
0000
0000
0000
0000
0000
0000
0000
0000
0000
2000
3000
0000
0000
0000
0000
0000
0000
0000
0000
0000
0000
0000
0000
0000
0000
0000
0000
0002
0000
0000
0000
0000
0000
0000
0000
0000
0000
0000
0000
0203
0000
0000
0000
0000
0000
,
0000
0310
1000
0000
0000
0001
0010
0100
,
1000
0000
0001
0000
0010
0000
0001
0000
1000
0000
0010
0000
0000
0000
0000
0100
0000
0000
0001
0000
0000
0000
0000
0000
,
0000
1000
0100
0010
0100
1000
0010
0100
,
0000
0000
0001
0000
0000
2000
0000
3002
,
0000
0103
0010
0000
0000
1000
0010
0100
,
0001
0000
1000
0000
0100
0000
1000
0000
0001
0000
0010
0000
0000
0000
0000
0100
0000
0000
1000
0000
0000
0000
0000
0000
,
0000
0001
0100
0010
1000
0100
0010
0100
,
0000
0000
1000
0000
0000
0020
0000
0230
,
0000
0301
1000
0000
0000
0100
0010
0001
,
1000
0000
0010
0000
0100
0000
0010
0000
1000
0000
0001
0000
0000
0000
0000
0010
0000
0000
0100
0000
0000
0000
0000
0000
,
0000
1000
0001
0010
0001
0100
0010
1000
,
0000
0000
0001
0000
0000
2000
0000
3002
,
0000
0103
0010
0000
0000
1000
0010
0100
,
0001
0000
0100
0000
0010
0000
0100
0000
0001
0000
1000
0000
0000
0000
0000
0010
0000
0000
1000
0000
0000
0000
0000
0000
,
0000
0001
1000
0100
0010
0001
0010
0100
,
0000
0000
1000
0000
0000
0002
0000
0203
,
0000
0310
1000
0000
0000
0001
0010
0001
,
1000
0000
0001
0100
0001
0000
1000
0010
,
0100
0001
1000
0001
0010
0001
1000
0100
,
1000
0000
0001
0010
0001
0000
1000
0100
,
0010
0001
1000
0001
0100
0001
1000
0010
,
1000
0000
0001
0100
0001
0000
1000
0010
,
0100
0001
1000
0001
0010
0001
1000
0100
,
1000
0000
0001
0010
0001
0000
1000
0100
,
0010
0001
1000
0001
0100
0001
1000
0010
,
1000
0000
0001
0100
0001
0000
1000
0010
,
0100
0001
1000
0001
0010
0001
1000
0100
,
1000
0000
0001
0010
0001
0000
1000
0100
,
0010
0001
1000
0001
0100
0001
1000
0010
,
1000
0000
0001
0100
0001
0000
1000
0010
,
0100
0001
1000
0001
0010
0001
1000
0100
,
1000
0000
0000
0000
0001
0000
0000
0000
1000
0000
0000
0000
0100
0000
0000
0000
1000
0000
0000
0000
0001
0000
0000
0000
0000
0000
0000
0000
0000
0000
2000
0000
0000
0000
3000
0000
0200
0000
0300
0000
0000
0000
0020
0030
0000
0000
0000
0000
,
0000
0000
0000
0000
0000
0000
0000
0000
0000
0000
0000
0000
0000
0000
0000
0000
0000
0000
0000
0000
0000
0000
0000
0000
0002
0000
0000
0000
0000
0000
0000
0000
0003
0000
0000
0000
0000
0000
0000
0000
0000
0000
0000
0000
0000
0000
0000
0000
0200
0000
0000
0000
0000
0000
0300
0000
0000
0000
0000
0000
0000
0000
0000
0000
0000
0000
0000
0000
0000
0000
0000
0000
0020
0000
0000
0030
0000
0000
0000
0000
0000
0000
0000
0000
0000
0000
0000
0000
0000
0000
0000
0000
0000
0000
0000
0000
0000
0000
0000
0000
0000
0000
0000
0000
0000
0000
0000
0000
0000
0000
0000
0000
0000
0000
0000
0000
0000
0000
0000
0000
0000
0000
0000
0000
0000
0000
0000
0000
0000
0000
0000
0000
0000
0000
0000
0000
0000
0000
0000
0000
0000
0000
0000
0000
1000
0000
0000
0000
0000
0000
0000
0000
0000
0000
0000
0000
0000
0000
0000
0000
0000
0000
0000
0000
0000
0000
0000
0000
0000
0000
0000
0000
0000
0000
0000
0000
0000
0000
0000
0000
0000
0000
0000
0000
0000
0000
0000
0000
0000
0000
0000
0000
,
0001
0000
1000
0100
1000
0000
0001
0010
,
0100
1000
0001
1000
0010
1000
0001
0100
,
0001
0000
1000
0010
1000
0000
0001
0100
,
0010
1000
0001
1000
0100
1000
0001
0010
,
0001
0000
1000
0100
1000
0000
0001
0010
,
0100
1000
0001
1000
0010
1000
0001
0100
,
0001
0000
0000
0000
0000
0000
0000
0000
0000
0000
0000
0000
2000
3000
0000
0000
0000
0000
0000
0000
0000
0000
0000
0000
0002
0003
0000
0000
0000
0000
0020
0030
0000
0000
0000
0000
0000
0000
0000
0000
0000
0000
0200
0300
0000
0000
0000
0000
,
0000
0000
0000
0000
0000
0000
2000
3000
0000
0000
0000
0000
0020
0030
0000
0000
0000
0000
0200
0300
0000
0000
0000
0000
0000
0000
0000
0000
0000
0000
0001
0000
0000
0000
0000
0000
0010
0000
0000
0000
0000
0000
0001
0000
0000
0000
0000
0000
,
1000
0000
0001
0100
0001
0000
1000
0010
,
0100
0001
1000
0001
0010
0001
1000
0100
,
1000
0000
0001
0010
0001
0000
1000
0100
,
0010
0001
1000
0001
0100
0001
1000
0010
,
1000
0000
0001
0100
0001
0000
1000
0010
,
0100
0001
1000
0001
0010
0001
1000
0100
,
2000
0000
0000
0000
,
3000
0000
0000
0000
,
2000
3000
0001
0100
0001
0000
1000
0010
,
0100
0001
1000
0001
0010
0001
1000
0100
,
2000
3000
0001
0010
0001
0000
1000
0100
,
0020
0031
1000
0001
0100
0001
1000
0010
,
2000
3000
0001
0100
0001
0000
1000
0010
,
0100
0001
1000
0001
0010
0001
1000
0100
,
1000
0000
0001
0010
0001
0000
1000
0100
,
0020
0031
1000
0001
0100
0001
1000
0010
,
2000
3000
0001
0100
0001
0000
1000
0010
,
0100
0001
1000
0001
0010
0001
1000
0100
,
2000
3000
0001
0010
0001
0000
1000
0100
,
0020
0031
1000
0001
0100
0001
1000
0010
,
2000
3000
0001
0100
0001
0000
1000
0010
,
0100
0001
1000
0001
0010
0001
1000
0100
,
2000
3000
0001
0010
0001
0000
1000
0100
,
0020
0031
1000
0001
0200
0301
1000
0010
,
2000
3000
0001
0100
0001
0000
1000
0010
,
0100
0001
1000
0001
0010
0001
1000
0100
,
2000
3000
0001
0010
0001
0000
1000
0100
,
0020
0031
1000
0001
0100
0001
1000
0010
,
2000
3000
0001
0100
0001
0000
1000
0010
,
0100
0001
2000
3001
0020
0031
2000
3100
,
1000
0000
0002
0013
0001
0000
2000
3100
,
0010
0001
1000
0001
0200
0301
1000
0010
,
2000
3000
0001
0100
0001
0000
1000
0010
,
0100
0001
1000
0001
0010
0001
1000
0100
,
2000
3000
0001
0010
0001
0000
1000
0100
,
0010
0001
1000
0001
0100
0001
1000
0010
,
2000
3000
0001
0100
0001
0000
1000
0010
,
0100
0001
1000
0001
0010
0001
1000
0100
,
1000
0001
1000
0100
0010
0001
1000
0001
1000
0100
0010
0001
1000
0001
1000
0100
,
0010
0001
0010
0100
1000
0001
0010
0100
1000
0001
1000
0010
0100
0001
1000
0010
,
0100
0010
1000
0001
0100
0010
1000
0001
0100
0001
1000
0001
1000
0100
0010
0001
,
1000
0001
0010
0100
0010
0001
1000
0100
1000
0001
1000
0001
0100
0010
0100
0001
,
1000
0010
0100
0010
1000
0001
1000
0010
0100
0001
1000
0001
1000
0100
0010
0100
,
1000
0001
0010
0001
1000
0001
0010
0100
1000
0001
1000
0001
1000
0010
0100
0001
,
0100
0010
1000
0001
0100
0001
1000
0010
0100
0001
1000
0001
1000
0100
0010
0100
,
1000
0001
0010
0100
1000
0001
1000
0100
0010
0001
1000
0001
1000
0010
0100
0001
,
0100
0010
1000
0001
0100
0001
1000
0010
0100
0001
1000
0001
1000
0100
0010
0100
,
1000
0001
0010
0001
1000
0100
0010
0100
1000
0001
1000
0001
1000
0010
0100
0001
,
0100
0010
1000
0001
0100
0001
1000
0010
0100
0001
1000
0001
1000
0100
1000
0001
,
0010
0100
0010
0001
1000
0001
0010
0100
1000
0001
1000
0001
1000
0010
0100
0010
,
1000
0001
0100
0010
1000
0001
1000
0010
0100
0001
1000
0001
1000
0100
0010
0100
,
1000
0001
1000
0100
0010
0001
1000
0100
0010
0001
1000
0001
1000
0010
0100
0001
,
1000
0001
0100
0010
0100
0001
1000
0010
0100
0001
1000
0001
1000
0100
0010
0100
,
1000
0001
0010
0100
1000
0001
1000
0100
0010
0001
1000
0001
1000
0010
0100
0001
,
0100
0010
1000
0001
0100
0001
1000
0010
0100
0001
1000
0001
1000
0100
0010
0100
,
1000
0001
0010
0100
1000
0001
1000
0100
0010
0001
1000
0001
1000
0010
0100
0001
,
1000
0010
1000
0001
0100
0001
1000
0010
0100
0001
1000
0001
1000
0100
0010
0100
,
1000
0001
0010
0001
1000
0100
1000
0001
0010
0001
1000
0001
1000
0010
0100
0001
,
0100
0010
1000
0001
0100
0010
1000
0010
0100
0001
1000
0001
1000
0100
0010
0100
,
1000
0001
0010
0001
1000
0100
1000
0001
0010
0001
1000
0001
1000
0010
0100
0001
,
1000
0010
0100
0010
1000
0001
0100
0010
1000
0001
1000
0001
1000
0100
0010
0001
,
0010
0100
1000
0001
0010
0001
1000
0100
0010
0001
1000
0001
1000
0010
0100
0010
,
1000
0001
0100
0010
1000
0001
1000
0010
0100
0001
1000
0001
1000
0100
0010
0001
,
0010
0100
1000
0001
0010
0001
1000
0100
1000
0001
1000
0001
1000
0010
0100
0001
,
0100
0010
1000
0010
0100
0001
1000
0010
0100
0001
1000
0001
1000
0100
1000
0001
,
0010
0100
0010
0001
1000
0100
1000
0001
0010
0001
1000
0001
1000
0010
0100
0010
,
1000
0001
0100
0010
1000
0001
1000
0010
0100
0001
1000
0001
1000
0100
0010
0100
,
1000
0001
0010
0100
1000
0001
1000
0100
0010
0001
1000
0001
1000
0010
0100
0001
,
1000
0010
1000
0001
0100
0001
1000
0010
0100
0001
1000
0001
1000
0100
1000
0001
,
0010
0100
1000
0001
0010
0100
1000
0001
0010
0001
1000
0001
1000
0010
0100
0010
,
1000
0001
0100
0001
1000
0010
0100
0010
1000
0001
1000
0001
1000
0100
0010
0100
,
1000
0001
0010
0001
1000
0100
0010
0100
1000
0001
0010
0001
0010
0100
1000
0100
,
1000
0010
0100
0001
0010
0100
1000
0001
0100
0010
1000
0001
1000
0010
0100
0001
,
1000
0010
1000
0001
0100
0010
1000
0001
0100
0010
1000
0010
0100
0001
1000
0001
,
1000
0100
0010
0001
1000
0100
1000
0001
0010
0100
1000
0001
0010
0001
1000
0001
,
1000
0010
0100
0010
1000
0001
0100
0001
1000
0010
0100
0010
1000
0001
1000
0001
,
0010
0001
0100
0010
1000
0100
0010
0100
1000
0001
1000
0010
0100
0001
1000
0001
,
1000
0100
0010
0001
1000
0100
1000
0001
0010
0100
1000
0001
0010
0001
1000
0001
,
1000
0010
0100
0001
1000
0010
0100
0001
1000
0001
0100
0010
1000
0001
1000
0001
,
0010
0100
1000
0001
1000
0100
1000
0001
0010
0100
0010
0001
1000
0100
1000
0001
,
1000
0010
0100
0001
0010
0100
1000
0001
1000
0010
0100
0010
1000
0001
1000
0001
,
0100
0001
1000
0100
0010
0001
1000
0100
0010
0100
1000
0001
0010
0001
1000
0001
,
1000
0010
0100
0010
1000
0001
0100
0001
1000
0010
1000
0001
0100
0001
1000
0001
,
1000
0100
1000
0001
0010
0100
0010
0001
1000
0100
1000
0001
0010
0001
1000
0001
,
1000
0010
0100
0001
0100
0010
1000
0001
0100
0001
1000
0010
0100
0001
1000
0010
,
1000
0010
0100
0001
0100
0001
1000
0010
0100
0001
1000
0001
0100
0010
1000
0001
,
0100
0010
1000
0001
0010
0100
0010
0001
1000
0100
1000
0001
0010
0100
0010
0100
,
1000
0001
0010
0100
0010
0001
1000
0100
1000
0001
0010
0100
1000
0001
0010
0100
,
1000
0000
0000
0001
0000
0000
1000
0000
0000
0001
0000
0000
1000
0000
0000
0001
0000
0000
1000
0000
0000
0000
0000
0000
0010
0000
0000
0000
0000
0000
0000
0000
0100
0000
0000
0000
0000
0000
0000
0000
0001
0000
0000
0000
0000
0000
0000
0000
,
0100
0000
0000
0000
0001
0000
0000
0000
0100
0000
0000
0000
0001
0000
0000
0100
0000
0000
0010
0000
0000
1000
0000
0000
0001
0000
0000
1000
0000
0000
0010
0000
0000
0100
0000
0000
0001
0000
0000
0000
1000
0000
0000
0000
0001
0000
0000
0000
,
1000
0100
1000
0100
0010
0001
1000
0100
1000
0100
0010
0001
1000
0010
0100
0001
,
0100
0010
1000
0010
1000
0001
0100
0010
1000
0010
1000
0001
0100
0010
0100
0000
,
0001
1000
0010
0100
0010
0100
0001
1000
0010
0100
0010
0100
0001
1000
0010
0100
,
0001
2000
0000
3002
,
1003
0010
0100
0001
0100
0001
1000
0010
0100
0001
0100
0001
1000
0010
0100
0001
,
0100
0001
1000
0010
0100
0001
0010
0100
2000
0000
0000
0000
0000
0000
0000
0000
,
3001
0010
0001
0010
0100
1000
0001
0010
0001
0010
0100
1000
0001
0010
0001
0010
,
0100
0000
1000
0000
0001
0000
0020
0000
0000
0000
0000
0000
0000
0000
0000
0230
0000
0000
0000
0000
0000
0300
0000
0000
,
1000
0000
0000
0000
0100
0000
0000
0000
1000
0000
0000
0000
0100
0000
0000
0000
0010
0000
0000
0000
0001
0000
0000
0000
1000
0000
0000
0000
0100
0000
0000
0000
1000
0000
0000
0000
0100
0000
0000
0010
0000
0000
0001
0000
0000
1000
0000
0000
,
0001
0100
0001
0100
0010
1000
0001
0100
0001
0100
0010
1000
0001
1000
0010
0100
,
0002
0000
0000
0003
,
1000
0100
1000
0100
0010
0001
1000
0001
1000
0010
0100
0001
1000
0001
1000
0010
,
0100
0001
0100
0001
1000
0010
0100
0001
0100
0001
1000
0010
0100
0001
0100
0010
,
1000
0010
0100
0001
1000
0001
0010
0001
1000
0100
0010
0001
,
1000
0000
0000
0001
0000
0000
1000
0000
0000
0001
0000
0000
0010
0000
0000
0100
0000
0000
1000
0000
0000
0001
0000
0000
1000
0000
0000
0000
0000
0000
0000
0000
0010
0000
0000
0000
0000
0000
0000
0000
0100
0000
0000
0000
0000
0000
0000
0000
,
0001
0000
0000
0100
0000
0000
0001
0000
0000
0100
0000
0000
0010
0000
0000
1000
0000
0000
0001
0000
0000
0100
0000
0000
0001
0000
0000
1000
0000
0000
0010
0000
0000
1000
0000
0000
0001
0000
0000
0000
0010
0000
0000
0000
0100
0000
0000
0000
,
1000
0001
1000
0100
1000
0100
0010
0001
1000
0100
1000
0100
0010
0001
1000
0010
,
0100
0001
0100
0001
1000
0010
1000
0001
1000
0001
0010
0100
1000
0001
0010
0100
,
1000
0001
1000
0001
0010
0100
1000
0001
1000
0001
0010
0100
1000
0001
1000
0001
,
0010
0000
0000
0000
0100
0000
0000
0000
1000
0000
0000
0000
0001
1000
0010
1000
,
0001
0100
0010
1000
0010
1000
0001
0100
0010
1000
0010
1000
0001
0100
0010
1000
,
0010
0100
0001
0100
0010
1000
0001
0010
0001
1000
0001
0010
,
0200
0000
0000
0000
,
0300
0000
0000
0000
1000
0000
0000
0000
0001
0000
0000
0000
0100
0010
1000
0001
,
0100
0000
0000
0001
0000
0000
0100
0000
0000
0010
0000
0000
1000
0000
0000
0001
0000
0000
0100
0000
0000
0001
0000
0000
0100
0000
0000
0000
0010
0000
0000
0000
1000
0000
0000
0000
0001
0000
0000
0000
0000
0000
0100
0000
0000
0000
0000
0000
,
0010
1000
0010
0100
0001
1000
0001
0100
0010
1000
0001
1000
,
0001
0010
0001
0010
0100
1000
0001
0010
0001
0010
0100
1000
0001
0010
0001
0010
,
0100
0000
0000
1000
0000
0000
0001
0000
0000
1000
0000
0000
0001
0000
0000
0000
0010
0000
0000
0000
0100
0000
0000
0000
0010
0000
0000
0000
0001
0000
0000
0000
1000
0000
0000
0000
0100
0000
0000
0000
0010
0000
0000
0000
0001
0000
0000
0000
,
1000
0010
1000
0001
1000
0010
1000
0001
1000
0010
1000
0001
,
2000
0000
0000
0000
,
3001
0000
0010
0000
0001
0000
1000
0000
0001
0000
0000
0000
0000
0000
0000
1000
0000
0000
0001
0000
0000
0000
0000
0000
,
0000
0010
0100
1000
0001
0100
0010
0100
,
0000
0000
0001
0000
0000
0200
0000
0320
,
0000
1030
0001
0000
0000
0010
0100
1000
,
0001
0000
0100
0000
0001
0000
1000
0000
0001
0000
0010
0000
0000
0000
0000
0001
0000
0000
1000
0000
0000
0000
0000
0000
,
0000
0100
1000
0010
0100
0010
1000
0100
,
0000
0000
1000
0000
0000
0002
0000
0023
,
0000
0130
1000
0000
0000
0001
0100
0010
,
1000
0000
0001
0000
0100
0000
0001
0000
1000
0000
0100
0000
0000
0000
0000
0010
0000
0000
0001
0000
0000
0000
0000
0000
,
0000
1000
0010
0100
0010
1000
0100
0010
,
0000
0000
0001
0000
0000
2000
0000
3002
,
0000
0013
0100
0000
0000
1000
0100
0010
,
0001
0000
1000
0000
0010
0000
1000
0000
0001
0000
0100
0000
0000
0000
0000
0010
0000
0000
1000
0000
0000
0001
0000
0000
,
0000
1000
0001
1000
0010
0100
0001
1000
,
0100
0010
0100
0010
0000
0002
0000
2003
,
0000
3010
0100
0001
0010
0100
1000
0001
,
0010
0100
1000
0010
0000
0000
1010
0000
,
0000
0000
0000
0000
0000
0000
0000
0000
0000
0000
0000
0000
2000
3000
0000
0000
0000
0000
0002
0003
0000
0000
0000
0000
0020
0030
0000
0000
0000
0000
0002
0003
0000
0000
0000
0000
0200
0300
0000
0000
0000
0000
0002
0003
0000
0000
0000
0000
,
0010
0000
0000
0000
0000
0000
0000
0000
0000
0000
0000
0000
0000
0000
0000
0000
0000
0000
0000
0000
0000
0000
0000
0000
0100
0000
0000
0000
0000
0000
0000
0000
0000
0000
0000
0000
0000
0000
0000
0000
0000
0000
0000
0000
0000
0000
0000
0000
1000
0000
0000
0000
0000
0000
0000
0000
0000
0000
0000
0000
0000
0000
0000
0000
0000
0000
0000
0000
0000
0000
0000
0000
0001
0000
0000
0000
0000
0000
0000
0000
0000
0000
0000
0000
0000
0000
0000
0000
0000
0000
0000
0000
0000
0000
0000
0000
0200
0000
0000
0000
0300
0000
0000
0000
0000
0000
0000
0000
0000
0000
0000
0000
0000
0000
0000
0000
0000
0000
0000
0000
0020
0000
0000
0000
0000
0000
0030
0000
0000
0000
0000
0000
0000
0000
0000
0000
0000
0000
0000
0000
0000
0000
0000
0000
2000
0000
0000
0000
0000
0000
0000
0000
3000
0000
0000
0000
0000
0000
0000
0000
0000
0000
0000
0000
0000
0000
0000
0000
0002
0000
0000
0000
0000
0000
0000
0000
0000
0000
0000
0000
0003
0000
0000
0000
0000
0000
0000
0000
0000
0000
0000
0000
,
0100
0010
0100
0000
0001
1000
0001
0000
0010
0000
0010
0000
0100
0000
0100
0000
,
1000
0001
0010
0100
1000
0001
1000
0100
,
0000
0010
0001
1000
0010
0100
0010
1000
,
0000
0000
0000
0000
0000
0010
0100
0001
,
0000
1000
0100
0010
0001
0010
0100
1000
,
0001
0100
0001
0010
0000
0000
0011
0000
,
0000
0000
0000
0000
0000
0000
0000
0000
0000
0000
0000
0000
0002
0003
0000
0000
0000
0000
2000
3000
0000
0000
0000
0000
0020
0030
0000
0000
0000
0000
2000
3000
0000
0000
0000
0000
0200
0300
0000
0000
0000
0000
2000
3000
0000
0000
0000
0000
,
0001
0100
0010
1000
0000
0000
0001
0000
,
0000
0000
0010
0000
0100
0000
1000
0000
0001
1000
0001
0000
0100
0000
0010
0000
,
0200
0000
0302
2003
,
0000
3002
0000
0023
,
0000
0000
0130
0000
1000
0001
0010
0001
,
1000
0010
0000
0100
0001
1000
0001
1000
,
0100
0010
0001
1000
0100
1000
0100
0010
0001
1000
0100
1000
0100
0010
0001
1000
,
0001
0100
0010
1000
0001
0100
0010
1000
0010
0100
0001
1000
0010
0000
0000
0000
,
0000
0000
0000
0000
0000
0000
0000
0000
1000
0001
1000
0001
0100
0010
0100
0001
,
1000
0010
1000
0001
0100
0010
1000
0001
0100
0001
1000
0001
1000
0100
0010
0001
,
1000
0001
0010
0100
0010
0001
1000
0100
1000
0001
1000
0001
0100
0010
0100
0001
,
1000
0010
0100
0010
1000
0001
1000
0010
0100
0001
1000
0001
1000
0100
0010
0100
,
1000
0001
0010
0001
1000
0001
0010
0100
1000
0001
1000
0001
1000
0010
0100
0001
,
0100
0010
1000
0001
0100
0001
1000
0010
0100
0001
1000
0001
1000
0100
0010
0100
,
1000
0001
0010
0100
1000
0001
1000
0100
0010
0001
1000
0001
1000
0010
0100
0001
,
0100
0010
1000
0001
0100
0001
1000
0010
0100
0001
1000
0001
1000
0100
0010
0100
,
1000
0001
0010
0001
1000
0100
0010
0100
1000
0001
1000
0001
1000
0010
0100
0001
,
0100
0010
1000
0001
0100
0001
1000
0010
0100
0001
1000
0001
1000
0100
1000
0001
,
0010
0100
0010
0001
1000
0001
0010
0100
1000
0001
1000
0001
1000
0010
0100
0010
,
1000
0001
0100
0010
1000
0001
1000
0010
0100
0001
1000
0001
1000
0100
0010
0100
,
1000
0001
1000
0100
0010
0001
1000
0100
0010
0001
1000
0001
1000
0010
0100
0001
,
1000
0001
0100
0010
0100
0001
1000
0010
0100
0001
1000
0001
1000
0100
0010
0100
,
1000
0001
0010
0100
1000
0001
1000
0100
0010
0001
1000
0001
1000
0010
0100
0001
,
0100
0010
1000
0001
0100
0001
1000
0010
0100
0001
1000
0001
1000
0100
0010
0100
,
1000
0001
0010
0100
1000
0001
1000
0100
0010
0001
1000
0001
1000
0010
0100
0001
,
1000
0010
1000
0001
0100
0001
1000
0010
0100
0001
1000
0001
1000
0100
0010
0100
,
1000
0001
0010
0001
1000
0100
1000
0001
0010
0001
1000
0001
1000
0010
0100
0001
,
0100
0010
1000
0001
0100
0010
1000
0010
0100
0001
1000
0001
1000
0100
0010
0100
,
1000
0001
0010
0001
1000
0100
1000
0001
0010
0001
1000
0001
1000
0010
0100
0001
,
1000
0010
0100
0010
1000
0001
0100
0010
1000
0001
1000
0001
1000
0100
0010
0001
,
0010
0100
1000
0001
0010
0001
1000
0100
0010
0001
1000
0001
1000
0010
0100
0010
,
1000
0001
0100
0010
1000
0001
1000
0010
0100
0001
1000
0001
1000
0100
0010
0001
,
0010
0100
1000
0001
0010
0001
1000
0100
1000
0001
1000
0001
1000
0010
0100
0001
,
0100
0010
1000
0010
0100
0001
1000
0010
0100
0001
1000
0001
1000
0100
1000
0001
,
0010
0100
0010
0001
1000
0100
1000
0001
0010
0001
1000
0001
1000
0010
0100
0010
,
1000
0001
0100
0010
1000
0001
1000
0010
0100
0001
1000
0001
1000
0100
0010
0100
,
1000
0001
0010
0100
1000
0001
1000
0100
0010
0001
1000
0001
1000
0010
0100
0001
,
1000
0010
1000
0001
0100
0001
1000
0010
0100
0001
1000
0001
1000
0100
1000
0001
,
0010
0100
0010
0100
1000
0001
1000
0100
1000
0100
0010
0001
1000
0100
1000
0100
,
0010
0001
1000
0001
1000
0010
0100
0001
1000
0001
1000
0010
0100
0001
1000
0001
,
0010
0100
0010
0001
1000
0100
0010
0001
1000
0001
0010
0100
1000
0001
1000
0001
,
1000
0010
0100
0001
1000
0010
1000
0001
0100
0010
1000
0001
0100
0001
1000
0001
,
1000
0100
0010
0001
1000
0001
0010
0100
0010
0001
1000
0100
1000
0001
1000
0001
,
0100
0010
0100
0001
1000
0010
0100
0010
1000
0001
1000
0010
0100
0001
1000
0001
,
1000
0100
0010
0100
1000
0001
0010
0001
1000
0001
0010
0100
1000
0001
1000
0001
,
1000
0010
0100
0001
0100
0010
1000
0001
0100
0001
1000
0010
0100
0001
1000
0001
,
1000
0100
0010
0100
1000
0001
0010
0100
1000
0001
1000
0100
0010
0001
1000
0001
,
1000
0010
0100
0001
0100
0010
1000
0001
0100
0001
1000
0010
0100
0001
1000
0001
,
1000
0100
0010
0100
1000
0001
0010
0001
1000
0100
0010
0100
1000
0001
1000
0001
,
1000
0010
0100
0001
0100
0010
1000
0001
0100
0001
1000
0010
0100
0001
1000
0001
,
1000
0100
1000
0001
0010
0100
0010
0001
1000
0001
0010
0100
1000
0001
1000
0001
,
1000
0010
0100
0010
1000
0001
0100
0010
1000
0001
1000
0010
0100
0001
1000
0001
,
1000
0100
0010
0100
1000
0001
1000
0100
0010
0001
1000
0100
0010
0001
1000
0001
,
1000
0010
0100
0001
1000
0001
0100
0010
0100
0001
1000
0010
0100
0001
1000
0001
,
1000
0100
0010
0100
1000
0001
0010
0100
1000
0001
1000
0100
0010
0001
1000
0001
,
1000
0010
0100
0001
0100
0010
1000
0001
0100
0001
1000
0010
0100
0001
1000
0001
,
1000
0100
0010
0100
1000
0001
0010
0100
1000
0001
1000
0100
0010
0001
1000
0001
,
1000
0010
0100
0001
1000
0010
1000
0001
0100
0001
1000
0010
0100
0001
1000
0001
,
1000
0100
0010
0100
1000
0001
0010
0001
1000
0100
1000
0001
0010
0001
1000
0001
,
1000
0010
0100
0001
0100
0010
1000
0001
0100
0010
1000
0010
0100
0001
1000
0001
,
1000
0100
0010
0100
1000
0001
0010
0001
1000
0100
1000
0001
0010
0001
1000
0001
,
1000
0010
0100
0001
1000
0010
0100
0010
1000
0001
0100
0010
1000
0001
1000
0001
,
1000
0100
0010
0001
0010
0100
1000
0001
0010
0001
1000
0100
0010
0001
1000
0001
,
1000
0010
0100
0010
1000
0001
0100
0010
1000
0001
1000
0010
0100
0001
1000
0001
,
1000
0100
0010
0001
0010
0100
1000
0001
0010
0001
1000
0100
1000
0001
1000
0001
,
1000
0010
0100
0001
0100
0010
1000
0010
0100
0001
1000
0010
0100
0001
1000
0001
,
1000
0100
1000
0001
0010
0100
0010
0001
1000
0100
1000
0001
0010
0001
1000
0001
,
1000
0010
0100
0010
1000
0001
0100
0010
1000
0001
1000
0010
0100
0001
1000
0001
,
1000
0100
0010
0100
1000
0001
0010
0100
1000
0001
1000
0100
0010
0001
1000
0001
,
1000
0010
0100
0001
1000
0010
1000
0001
0100
0001
1000
0010
0100
0001
1000
0001
,
1000
0100
1000
0001
0010
0100
1000
0001
0010
0100
1000
0001
0010
0001
1000
0001
,
1000
0010
0100
0010
1000
0001
0100
0001
1000
0010
0100
0010
1000
0001
0100
0001
,
1000
0000
0000
0010
0000
0000
0100
0000
,
0000
0000
0001
0000
0100
0010
0100
0000
,
0001
0000
0010
0000
0100
1000
0000
0001
,
0000
0010
0001
1000
,
0100
0000
0000
0010
0000
0000
0001
0000
,
1000
0000
0000
0010
0000
0000
0100
0000
,
0000
0000
0002
0000
0000
0000
0000
0003
,
0000
0000
1000
0000
0100
0010
0001
0000
,
1000
0000
0000
0010
0000
0000
0200
0000
,
0000
0000
0000
0300
0000
0000
0001
0000
,
1000
0000
0001
0000
0010
0100
0000
1000
,
0000
0001
0100
0010
,
0200
0000
0000
0302
,
0000
0000
0000
0000
0000
0000
0000
0000
0000
0003
0000
0000
1000
0000
0000
0000
,
0000
0100
0010
0100
,
1000
0000
0000
0001
0000
0000
1000
0000
,
0010
0100
0001
0000
,
0000
0000
1000
0000
0100
0010
0000
0100
,
0000
1000
0001
0000
0100
0000
0010
0000
,
1000
0100
0010
0100
,
1000
0000
0000
0001
,
0000
1000
0010
0100
,
0000
0001
1000
0000
0100
0000
0010
0000
,
0001
0000
0000
1000
0000
0000
1000
0000
,
1001
0000
0000
0001
0000
0000
0000
0000
,
0000
1000
0010
0100
,
0001
0000
0000
1000
0000
0000
0100
0000
,
0000
1000
0001
0100
,
0020
0000
0000
0030
0000
0000
2000
0000
,
0000
0000
0000
3000
0001
0000
0010
0000
,
0000
0100
0000
1000
,
0000
0001
0000
0100
,
0000
0000
0000
0000
,
0000
0000
0010
0000
,
0000
1000
0000
0000
,
0010
0000
0100
0000
,
0001
0000
0000
0000
,
0000
1000
0000
0100
,
0000
0010
0001
0000
,
0100
0000
0000
0000
0020
0030
2000
3000
,
0000
0000
0000
0000
0020
0030
0000
0000
2000
3000
0000
0000
0000
0000
0000
0000
,
0020
0030
0000
0000
0000
0000
0000
0000
0000
0000
0000
0000
2000
3000
0000
0000
0000
0000
0000
0000
0000
0000
0000
0000
0000
0000
0000
0000
0000
0000
0000
0000
0000
0000
0000
0000
0001
0000
0000
0000
0000
0000
0000
0000
0000
0000
0000
0000
,
0000
0000
0000
1000
,
0000
0000
0010
0000
,
0100
0000
0000
0001
,
0000
0000
0000
0000
,
0000
0000
0000
0100
,
0000
0010
0000
2010
,
0000
0000
0000
0000
,
0000
0000
0000
0000
,
0000
0000
0000
3000
;

//---------------dance-single - Zaia----------------
#NOTES:
     dance-single:
     Zaia:
     Hard:
     17:
     1.000,1.000,0.011,0.288,1.000,2736.000,4.000,102.000,0.000,0.000:
0001
0000
0010
0000
0001
0000
1000
0000
0001
0000
0000
0000
0000
0000
0000
1000
0000
0000
0001
0000
0000
0000
0000
0000
,
0000
0100
0001
1000
0100
0010
0100
1000
,
0000
0000
0001
0000
0000
0020
0000
0230
,
0000
1300
0001
0000
0100
0010
0100
0001
,
1000
0000
0100
0000
1000
0000
0001
0000
1000
0000
0010
0000
0000
0000
0000
0100
0000
0000
0001
0000
0000
0000
0000
0000
,
0000
0000
0100
0000
0001
0000
0010
0000
0100
1000
0001
1000
0001
0000
0100
0000
,
0010
0000
0000
0000
0000
0000
0000
0000
0000
0000
0000
0000
2000
3000
0000
0000
0000
0000
0000
0000
0000
0000
0000
0000
0000
0000
0000
0000
0000
0000
0002
0000
0000
0000
0000
0000
0000
0000
0000
0000
0000
0000
0203
0000
0000
0000
0000
0000
,
0000
0310
1000
0000
0000
0001
0010
0100
,
1000
0000
0001
0000
0010
0000
0001
0000
1000
0000
0010
0000
0000
0000
0000
0100
0000
0000
0001
0000
0000
0000
0000
0000
,
0000
1000
0100
0010
0100
1000
0010
0100
,
0000
0000
0001
0000
0000
2000
0000
3002
,
0000
0103
0010
0000
0000
1000
0010
0100
,
0001
0000
1000
0000
0100
0000
1000
0000
0001
0000
0010
0000
0000
0000
0000
0100
0000
0000
1000
0000
0000
0000
0000
0000
,
0000
0001
0100
0010
1000
0100
0010
0100
,
0000
0000
1000
0000
0000
0020
0000
0230
,
0000
0301
1000
0000
0000
0100
0010
0001
,
1000
0000
0010
0000
0100
0000
0010
0000
1000
0000
0001
0000
0000
0000
0000
0010
0000
0000
0100
0000
0000
0000
0000
0000
,
0000
1000
0001
0010
0001
0100
0010
1000
,
0000
0000
0001
0000
0000
2000
0000
3002
,
0000
0103
0010
0000
0000
1000
0010
0100
,
0001
0000
0100
0000
0010
0000
0100
0000
0001
0000
1000
0000
0000
0000
0000
0010
0000
0000
1000
0000
0000
0000
0000
0000
,
0000
0001
1000
0100
0010
0001
0010
0100
,
0000
0000
1000
0000
0000
0002
0000
0203
,
0000
0310
1000
0000
0000
0001
0010
0001
,
1000
0000
0001
0100
0001
0000
1000
0010
,
0100
0001
1000
0001
0010
0001
1000
0100
,
1000
0000
0001
0010
0001
0000
1000
0100
,
0010
0001
1000
0001
0100
0001
1000
0010
,
1000
0000
0001
0100
0001
0000
1000
0010
,
0100
0001
1000
0001
0010
0001
1000
0100
,
1000
0000
0001
0010
0001
0000
1000
0100
,
0010
0001
1000
0001
0100
0001
1000
0010
,
1000
0000
0001
0100
0001
0000
1000
0010
,
0100
0001
1000
0001
0010
0001
1000
0100
,
1000
0000
0001
0010
0001
0000
1000
0100
,
0010
0001
1000
0001
0100
0001
1000
0010
,
1000
0000
0001
0100
0001
0000
1000
0010
,
0100
0001
1000
0001
0010
0001
1000
0100
,
1000
0000
0000
0000
0001
0000
0000
0000
1000
0000
0000
0000
0100
0000
0000
0000
1000
0000
0000
0000
0001
0000
0000
0000
0000
0000
0000
0000
0000
0000
2000
0000
0000
0000
3000
0000
0200
0000
0300
0000
0000
0000
0020
0030
0000
0000
0000
0000
,
0000
0000
0000
0000
0000
0000
0000
0000
0000
0000
0000
0000
0000
0000
0000
0000
0000
0000
0000
0000
0000
0000
0000
0000
0002
0000
0000
0000
0000
0000
0000
0000
0003
0000
0000
0000
0000
0000
0000
0000
0000
0000
0000
0000
0000
0000
0000
0000
0200
0000
0000
0000
0000
0000
0300
0000
0000
0000
0000
0000
0000
0000
0000
0000
0000
0000
0000
0000
0000
0000
0000
0000
0020
0000
0000
0030
0000
0000
0000
0000
0000
0000
0000
0000
0000
0000
0000
0000
0000
0000
0000
0000
0000
0000
0000
0000
0000
0000
0000
0000
0000
0000
0000
0000
0000
0000
0000
0000
0000
0000
0000
0000
0000
0000
0000
0000
0000
0000
0000
0000
0000
0000
0000
0000
0000
0000
0000
0000
0000
0000
0000
0000
0000
0000
0000
0000
0000
0000
0000
0000
0000
0000
0000
0000
1000
0000
0000
0000
0000
0000
0000
0000
0000
0000
0000
0000
0000
0000
0000
0000
0000
0000
0000
0000
0000
0000
0000
0000
0000
0000
0000
0000
0000
0000
0000
0000
0000
0000
0000
0000
0000
0000
0000
0000
0000
0000
0000
0000
0000
0000
0000
0000
,
0001
0000
1000
0100
1000
0000
0001
0010
,
0100
1000
0001
1000
0010
1000
0001
0100
,
0001
0000
1000
0010
1000
0000
0001
0100
,
0010
1000
0001
1000
0100
1000
0001
0010
,
0001
0000
1000
0100
1000
0000
0001
0010
,
0100
1000
0001
1000
0010
1000
0001
0100
,
0001
0000
0000
0000
0000
0000
0000
0000
0000
0000
0000
0000
2000
3000
0000
0000
0000
0000
0000
0000
0000
0000
0000
0000
0002
0003
0000
0000
0000
0000
0020
0030
0000
0000
0000
0000
0000
0000
0000
0000
0000
0000
0200
0300
0000
0000
0000
0000
,
0000
0000
0000
0000
0000
0000
2000
3000
0000
0000
0000
0000
0020
0030
0000
0000
0000
0000
0200
0300
0000
0000
0000
0000
0000
0000
0000
0000
0000
0000
0001
0000
0000
0000
0000
0000
0010
0000
0000
0000
0000
0000
0001
0000
0000
0000
0000
0000
,
1000
0000
0001
0100
0001
0000
1000
0010
,
0100
0001
1000
0001
0010
0001
1000
0100
,
1000
0000
0001
0010
0001
0000
1000
0100
,
0010
0001
1000
0001
0100
0001
1000
0010
,
1000
0000
0001
0100
0001
0000
1000
0010
,
0100
0001
1000
0001
0010
0001
1000
0100
,
2000
0000
0000
0000
,
3000
0000
0000
0000
,
2000
3000
0001
0100
0001
0000
1000
0010
,
0100
0001
1000
0001
0010
0001
1000
0100
,
2000
3000
0001
0010
0001
0000
1000
0100
,
0020
0031
1000
0001
0100
0001
1000
0010
,
2000
3000
0001
0100
0001
0000
1000
0010
,
0100
0001
1000
0001
0010
0001
1000
0100
,
1000
0000
0001
0010
0001
0000
1000
0100
,
0020
0031
1000
0001
0100
0001
1000
0010
,
2000
3000
0001
0100
0001
0000
1000
0010
,
0100
0001
1000
0001
0010
0001
1000
0100
,
2000
3000
0001
0010
0001
0000
1000
0100
,
0020
0031
1000
0001
0100
0001
1000
0010
,
2000
3000
0001
0100
0001
0000
1000
0010
,
0100
0001
1000
0001
0010
0001
1000
0100
,
2000
3000
0001
0010
0001
0000
1000
0100
,
0020
0031
1000
0001
0200
0301
1000
0010
,
2000
3000
0001
0100
0001
0000
1000
0010
,
0100
0001
1000
0001
0010
0001
1000
0100
,
2000
3000
0001
0010
0001
0000
1000
0100
,
0020
0031
1000
0001
0100
0001
1000
0010
,
2000
3000
0001
0100
0001
0000
1000
0010
,
0100
0001
2000
3001
0020
0031
2000
3100
,
1000
0000
0002
0013
0001
0000
2000
3100
,
0010
0001
1000
0001
0200
0301
1000
0010
,
2000
3000
0001
0100
0001
0000
1000
0010
,
0100
0001
1000
0001
0010
0001
1000
0100
,
2000
3000
0001
0010
0001
0000
1000
0100
,
0010
0001
1000
0001
0100
0001
1000
0010
,
2000
3000
0001
0100
0001
0000
1000
0010
,
0100
0001
1000
0001
0010
0001
1000
0001
,
1000
0100
0010
0001
1000
0100
0010
0001
,
1000
0100
0010
0001
1000
0010
0100
0001
,
1000
0001
1000
0001
0100
0010
1000
0001
0100
0001
1000
0001
1000
0100
0010
0001
,
1000
0001
0010
0100
0010
0001
1000
0100
1000
0001
1000
0001
0100
0010
0100
0001
,
1000
0010
0100
0010
1000
0001
1000
0010
0100
0001
1000
0001
1000
0100
0010
0100
,
1000
0001
0010
0001
1000
0001
0010
0100
1000
0001
1000
0001
1000
0010
0100
0001
,
0100
0010
1000
0001
0100
0001
1000
0010
0100
0001
1000
0001
1000
0100
0010
0100
,
1000
0001
0010
0100
1000
0001
1000
0100
0010
0001
1000
0001
1000
0010
0100
0001
,
0100
0010
1000
0001
0100
0001
1000
0010
0100
0001
1000
0001
1000
0100
0010
0100
,
1000
0001
0010
0001
1000
0100
0010
0100
1000
0001
1000
0001
1000
0010
0100
0001
,
0100
0010
1000
0001
0100
0001
1000
0010
0100
0001
1000
0001
1000
0100
1000
0001
,
0010
0100
0010
0001
1000
0001
0010
0100
1000
0001
1000
0001
1000
0010
0100
0010
,
1000
0001
0100
0010
1000
0001
1000
0010
0100
0001
1000
0001
1000
0100
0010
0100
,
1000
0001
1000
0100
0010
0001
1000
0100
0010
0001
1000
0001
1000
0010
0100
0001
,
1000
0001
0100
0010
0100
0001
1000
0010
0100
0001
1000
0001
1000
0100
0010
0100
,
1000
0001
0010
0100
1000
0001
1000
0100
0010
0001
1000
0001
1000
0010
0100
0001
,
0100
0010
1000
0001
0100
0001
1000
0010
0100
0001
1000
0001
1000
0100
0010
0100
,
1000
0001
0010
0100
1000
0001
1000
0100
0010
0001
1000
0001
1000
0010
0100
0001
,
1000
0010
1000
0001
0100
0001
1000
0010
0100
0001
1000
0001
1000
0100
0010
0100
,
1000
0001
0010
0001
1000
0100
1000
0001
0010
0001
1000
0001
1000
0010
0100
0001
,
0100
0010
1000
0001
0100
0010
1000
0010
0100
0001
1000
0001
1000
0100
0010
0100
,
1000
0001
0010
0001
1000
0100
1000
0001
0010
0001
1000
0001
1000
0010
0100
0001
,
1000
0010
0100
0010
1000
0001
0100
0010
1000
0001
1000
0001
1000
0100
0010
0001
,
0010
0100
1000
0001
0010
0001
1000
0100
0010
0001
1000
0001
1000
0010
0100
0010
,
1000
0001
0100
0010
1000
0001
1000
0010
0100
0001
1000
0001
1000
0100
0010
0001
,
0010
0100
1000
0001
0010
0001
1000
0100
1000
0001
1000
0001
1000
0010
0100
0001
,
0100
0010
1000
0010
0100
0001
1000
0010
0100
0001
1000
0001
1000
0100
1000
0001
,
0010
0100
0010
0001
1000
0100
1000
0001
0010
0001
1000
0001
1000
0010
0100
0010
,
1000
0001
0100
0010
1000
0001
1000
0010
0100
0001
1000
0001
1000
0100
0010
0100
,
1000
0001
0010
0100
1000
0001
1000
0100
0010
0001
1000
0001
1000
0010
0100
0001
,
1000
0010
1000
0001
0100
0001
1000
0010
0100
0001
1000
0001
1000
0100
1000
0001
,
0010
0100
1000
0001
0010
0100
1000
0001
0010
0001
1000
0001
1000
0010
0100
0010
,
1000
0001
0100
0001
1000
0010
0100
0010
1000
0001
1000
0001
1000
0100
0010
0100
,
1000
0001
0010
0001
1000
0100
0010
0100
1000
0001
0010
0001
0010
0100
1000
0100
,
1000
0001
1000
0001
1000
0001
0010
0000
0000
0000
0100
0000
1000
0000
0000
0000
,
0000
0001
0100
0010
0100
0001
0010
0100
,
0000
1000
0100
0010
0001
1000
0001
0100
,
0000
0010
1000
0000
0000
0001
0010
0001
,
1000
0000
0100
0000
1000
0000
0001
0000
1000
0000
0010
0000
0000
0000
0000
0100
0000
0000
0001
0000
0000
1000
0000
0000
,
0000
0001
0010
0100
1000
0100
0010
0001
,
0000
1000
0001
1000
0010
0100
0001
0010
,
0100
0000
1000
0000
0001
0000
0010
0000
0100
0000
1000
0000
0001
0000
0000
0010
0000
0000
0100
0000
0000
0010
0000
0000
,
0001
0000
1000
0000
0001
0000
0010
0000
0001
0000
1000
0000
0000
0000
0000
0010
0000
0000
0100
0000
0000
0000
0000
0000
,
0000
0010
1000
0001
0010
0100
0010
0001
,
0000
0000
0000
0100
0000
0000
0010
0000
0000
1000
0000
0000
0001
0000
0010
0000
0100
0000
0010
0000
0000
0001
0000
0000
,
1000
0000
0000
0010
0000
0000
0100
0000
0000
0001
0000
0000
1000
0000
0001
0000
0010
0000
0001
0000
0000
1000
0000
0000
,
0010
0000
0100
0000
0001
0000
0100
0000
0010
0000
1000
0000
0000
0000
0000
0001
0000
0000
0100
0000
0000
0010
0000
0000
,
0000
0100
0001
1000
0100
0010
0100
1000
,
0001
0010
0100
1000
0001
1000
0001
0010
0100
1000
0001
1000
0001
0100
0010
1000
,
0001
0100
0010
0100
0001
1000
0010
0100
0001
0000
0000
0000
1000
0000
0000
0000
,
0001
0000
0000
1000
0000
0000
0001
0000
0000
1000
0000
0000
0001
0000
0000
1000
0000
0000
0001
0000
0000
0000
0000
0000
0100
0000
0000
0000
0000
0000
0000
0000
0010
0000
0000
0000
0000
0000
0000
0000
1000
0000
0000
0000
0000
0000
0000
0000
,
0010
0000
0000
0000
1000
0000
0000
0000
0010
0000
0000
0000
1000
0000
0000
0010
0000
0000
0100
0000
0000
0001
0000
0000
1000
0000
0000
0001
0000
0000
0100
0000
0000
0010
0000
0000
1000
0000
0000
0000
0001
0000
0000
0000
1000
0000
0000
0000
,
0001
0010
0001
0010
0100
1000
0001
0010
0001
0010
0100
1000
0001
0100
0010
1000
,
0010
0100
0001
0100
0001
1000
0010
0100
0001
0100
0001
1000
0010
0100
0010
0000
,
1000
0001
0100
0010
0100
0010
1000
0001
0100
0010
0100
0010
1000
0001
0100
0010
,
1000
0002
0000
2003
,
3001
0100
0010
1000
0010
1000
0001
0100
0010
1000
0010
1000
0001
0100
0010
1000
,
0010
1000
0001
0100
0010
1000
0100
0010
0002
0000
0000
0000
0000
0000
0000
0000
,
1003
0100
1000
0100
0010
0001
1000
0100
1000
0100
0010
0001
1000
0100
1000
0100
,
0010
0000
0001
0000
1000
0000
0200
0000
0000
0000
0000
0000
0000
0000
0000
0320
0000
0000
0000
0000
0000
0030
0000
0000
,
0001
0000
0000
0000
0010
0000
0000
0000
0001
0000
0000
0000
0010
0000
0000
0000
0100
0000
0000
0000
1000
0000
0000
0000
0001
0000
0000
0000
0010
0000
0000
0000
0001
0000
0000
0000
0010
0000
0000
0100
0000
0000
1000
0000
0000
0001
0000
0000
,
1000
0010
1000
0010
0100
0001
1000
0010
1000
0010
0100
0001
1000
0001
0100
0010
,
2000
0000
0000
3000
,
0001
0010
0001
0010
0100
1000
0001
1000
0001
0100
0010
1000
0001
1000
0001
0100
,
0010
1000
0010
1000
0001
0100
0010
1000
0010
1000
0001
0100
0010
1000
0010
0100
,
0001
0100
0010
1000
0001
1000
0100
1000
0001
0010
0100
1000
,
0001
0000
0000
1000
0000
0000
0001
0000
0000
1000
0000
0000
0100
0000
0000
0010
0000
0000
0001
0000
0000
1000
0000
0000
0001
0000
0000
0000
0000
0000
0000
0000
0100
0000
0000
0000
0000
0000
0000
0000
0010
0000
0000
0000
0000
0000
0000
0000
,
1000
0000
0000
0010
0000
0000
1000
0000
0000
0010
0000
0000
0100
0000
0000
0001
0000
0000
1000
0000
0000
0010
0000
0000
1000
0000
0000
0001
0000
0000
0100
0000
0000
0001
0000
0000
1000
0000
0000
0000
0100
0000
0000
0000
0010
0000
0000
0000
,
0001
1000
0001
0010
0001
0010
0100
1000
0001
0010
0001
0010
0100
1000
0001
0100
,
0010
1000
0010
1000
0001
0100
0001
1000
0001
1000
0100
0010
0001
1000
0100
0010
,
0001
1000
0001
1000
0100
0010
0001
1000
0001
1000
0100
0010
0001
1000
0001
1000
,
0100
0000
0000
0000
0010
0000
0000
0000
0001
0000
0000
0000
1000
0001
0100
0001
,
1000
0010
0100
0001
0100
0001
1000
0010
0100
0001
0100
0001
1000
0010
0100
0001
,
0100
0010
1000
0010
0100
0001
1000
0100
1000
0001
1000
0100
,
0020
0000
0000
0000
,
0030
0000
0000
0000
0001
0000
0000
0000
1000
0000
0000
0000
0010
0100
0001
1000
,
0010
0000
0000
1000
0000
0000
0010
0000
0000
0100
0000
0000
0001
0000
0000
1000
0000
0000
0010
0000
0000
1000
0000
0000
0010
0000
0000
0000
0100
0000
0000
0000
0001
0000
0000
0000
1000
0000
0000
0000
0000
0000
0010
0000
0000
0000
0000
0000
,
0100
0001
0100
0010
1000
0001
1000
0010
0100
0001
1000
0001
,
1000
0100
1000
0100
0010
0001
1000
0100
1000
0100
0010
0001
1000
0100
1000
0100
,
0010
0000
0000
0001
0000
0000
1000
0000
0000
0001
0000
0000
1000
0000
0000
0000
0100
0000
0000
0000
0010
0000
0000
0000
0100
0000
0000
0000
1000
0000
0000
0000
0001
0000
0000
0000
0010
0000
0000
0000
0100
0000
0000
0000
1000
0000
0000
0000
,
0001
0100
0001
1000
0001
0100
0001
1000
0001
0100
0001
1000
,
0002
0000
0000
0000
,
1003
0000
0100
0000
1000
0000
0001
0000
1000
0000
0000
0000
0000
0000
0000
0001
0000
0000
1000
0000
0000
0000
0000
0000
,
0000
0100
0010
0001
1000
0010
0100
0010
,
0000
0000
1000
0000
0000
0020
0000
0230
,
0000
0301
1000
0000
0000
0100
0010
0001
,
1000
0000
0010
0000
1000
0000
0001
0000
1000
0000
0100
0000
0000
0000
0000
1000
0000
0000
0001
0000
0000
0000
0000
0000
,
0000
0010
0001
0100
0010
0100
0001
0010
,
0000
0000
0001
0000
0000
2000
0000
3200
,
0000
0310
0001
0000
0000
1000
0010
0100
,
0001
0000
1000
0000
0010
0000
1000
0000
0001
0000
0010
0000
0000
0000
0000
0100
0000
0000
1000
0000
0000
0000
0000
0000
,
0000
0001
0100
0010
0100
0001
0010
0100
,
0000
0000
1000
0000
0000
0002
0000
2003
,
0000
3100
0010
0000
0000
0001
0010
0100
,
1000
0000
0001
0000
0100
0000
0001
0000
1000
0000
0010
0000
0000
0000
0000
0100
0000
0000
0001
0000
0000
1000
0000
0000
,
0000
0001
1000
0001
0100
0010
1000
0001
,
0010
0100
0010
0100
0000
2000
0000
3002
,
0000
0103
0010
1000
0100
0010
0001
1000
,
0100
0010
0001
0100
0000
0000
0101
0000
,
0000
0000
0000
0000
0000
0000
0000
0000
0000
0000
0000
0000
0002
0003
0000
0000
0000
0000
2000
3000
0000
0000
0000
0000
0200
0300
0000
0000
0000
0000
2000
3000
0000
0000
0000
0000
0020
0030
0000
0000
0000
0000
2000
3000
0000
0000
0000
0000
,
0100
0000
0000
0000
0000
0000
0000
0000
0000
0000
0000
0000
0000
0000
0000
0000
0000
0000
0000
0000
0000
0000
0000
0000
0010
0000
0000
0000
0000
0000
0000
0000
0000
0000
0000
0000
0000
0000
0000
0000
0000
0000
0000
0000
0000
0000
0000
0000
0001
0000
0000
0000
0000
0000
0000
0000
0000
0000
0000
0000
0000
0000
0000
0000
0000
0000
0000
0000
0000
0000
0000
0000
1000
0000
0000
0000
0000
0000
0000
0000
0000
0000
0000
0000
0000
0000
0000
0000
0000
0000
0000
0000
0000
0000
0000
0000
0020
0000
0000
0000
0030
0000
0000
0000
0000
0000
0000
0000
0000
0000
0000
0000
0000
0000
0000
0000
0000
0000
0000
0000
0200
0000
0000
0000
0000
0000
0300
0000
0000
0000
0000
0000
0000
0000
0000
0000
0000
0000
0000
0000
0000
0000
0000
0000
0002
0000
0000
0000
0000
0000
0000
0000
0003
0000
0000
0000
0000
0000
0000
0000
0000
0000
0000
0000
0000
0000
0000
0000
2000
0000
0000
0000
0000
0000
0000
0000
0000
0000
0000
0000
3000
0000
0000
0000
0000
0000
0000
0000
0000
0000
0000
0000
,
0010
0100
0010
0000
1000
0001
1000
0000
0100
0000
0100
0000
0010
0000
0010
0000
,
0001
1000
0100
0010
0001
1000
0001
0010
,
0000
0100
1000
0001
0100
0010
0100
0001
,
0000
0000
0000
0000
0000
0100
0010
1000
,
0000
0001
0010
0100
1000
0100
0010
0001
,
1000
0010
1000
0100
0000
0000
1100
0000
,
0000
0000
0000
0000
0000
0000
0000
0000
0000
0000
0000
0000
2000
3000
0000
0000
0000
0000
0002
0003
0000
0000
0000
0000
0200
0300
0000
0000
0000
0000
0002
0003
0000
0000
0000
0000
0020
0030
0000
0000
0000
0000
0002
0003
0000
0000
0000
0000
,
1000
0010
0100
0001
0000
0000
1000
0000
,
0000
0000
0100
0000
0010
0000
0001
0000
1000
0001
1000
0000
0010
0000
0100
0000
,
0020
0000
2030
3002
,
0000
2003
0000
3200
,
0000
0000
0310
0000
0001
1000
0100
1000
,
0001
0100
0000
0010
1000
0001
1000
0001
,
0010
0100
1000
0001
0010
0001
0010
0100
1000
0001
0010
0001
0010
0100
1000
0001
,
1000
0010
0100
0001
1000
0010
0100
0001
0100
0010
1000
0001
0100
0000
0000
0000
,
0000
0000
0000
0000
0000
0000
0000
0000
0001
1000
0001
1000
0010
0100
0010
1000
,
0001
0100
0001
1000
0010
0100
0001
1000
0010
1000
0001
1000
0001
0010
0100
1000
,
0001
1000
0100
0010
0100
1000
0001
0010
0001
1000
0001
1000
0010
0100
0010
1000
,
0001
0100
0010
0100
0001
1000
0001
0100
0010
1000
0001
1000
0001
0010
0100
0010
,
0001
1000
0100
1000
0001
1000
0100
0010
0001
1000
0001
1000
0001
0100
0010
1000
,
0010
0100
0001
1000
0010
1000
0001
0100
0010
1000
0001
1000
0001
0010
0100
0010
,
0001
1000
0100
0010
0001
1000
0001
0010
0100
1000
0001
1000
0001
0100
0010
1000
,
0010
0100
0001
1000
0010
1000
0001
0100
0010
1000
0001
1000
0001
0010
0100
0010
,
0001
1000
0100
1000
0001
0010
0100
0010
0001
1000
0001
1000
0001
0100
0010
1000
,
0010
0100
0001
1000
0010
1000
0001
0100
0010
1000
0001
1000
0001
0010
0001
1000
,
0100
0010
0100
1000
0001
1000
0100
0010
0001
1000
0001
1000
0001
0100
0010
0100
,
0001
1000
0010
0100
0001
1000
0001
0100
0010
1000
0001
1000
0001
0010
0100
0010
,
0001
1000
0001
0010
0100
1000
0001
0010
0100
1000
0001
1000
0001
0100
0010
1000
,
0001
1000
0010
0100
0010
1000
0001
0100
0010
1000
0001
1000
0001
0010
0100
0010
,
0001
1000
0100
0010
0001
1000
0001
0010
0100
1000
0001
1000
0001
0100
0010
1000
,
0010
0100
0001
1000
0010
1000
0001
0100
0010
1000
0001
1000
0001
0010
0100
0010
,
0001
1000
0100
0010
0001
1000
0001
0010
0100
1000
0001
1000
0001
0100
0010
1000
,
0001
0100
0001
1000
0010
1000
0001
0100
0010
1000
0001
1000
0001
0010
0100
0010
,
0001
1000
0100
1000
0001
0010
0001
1000
0100
1000
0001
1000
0001
0100
0010
1000
,
0010
0100
0001
1000
0010
0100
0001
0100
0010
1000
0001
1000
0001
0010
0100
0010
,
0001
1000
0100
1000
0001
0010
0001
1000
0100
1000
0001
1000
0001
0100
0010
1000
,
0001
0100
0010
0100
0001
1000
0010
0100
0001
1000
0001
1000
0001
0010
0100
1000
,
0100
0010
0001
1000
0100
1000
0001
0010
0100
1000
0001
1000
0001
0100
0010
0100
,
0001
1000
0010
0100
0001
1000
0001
0100
0010
1000
0001
1000
0001
0010
0100
1000
,
0100
0010
0001
1000
0100
1000
0001
0010
0001
1000
0001
1000
0001
0100
0010
1000
,
0010
0100
0001
0100
0010
1000
0001
0100
0010
1000
0001
1000
0001
0010
0001
1000
,
0100
0010
0100
1000
0001
0010
0001
1000
0100
1000
0001
1000
0001
0100
0010
0100
,
0001
1000
0010
0100
0001
1000
0001
0100
0010
1000
0001
1000
0001
0010
0100
0010
,
0001
1000
0100
0010
0001
1000
0001
0010
0100
1000
0001
1000
0001
0100
0010
1000
,
0001
0100
0001
1000
0010
1000
0001
0100
0010
1000
0001
1000
0001
0010
0001
1000
,
0100
0000
0010
0001
1000
0010
0000
0100
,
0000
0001
0000
1000
0000
0010
0000
0100
,
0001
0000
0000
1000
,
0000
0100
0010
0001
,
1000
0000
0000
0010
0000
0000
0100
0000
,
0000
0001
1000
0001
,
0010
0000
0000
0100
,
1000
0000
0000
0001
0000
0000
0100
0000
0010
0000
1000
0000
,
0001
0000
0010
0000
0100
1000
0000
0001
,
0000
0100
0010
1000
,
0001
0000
0010
0100
,
0000
0000
0000
0000
0000
0000
1000
0001
,
0010
0000
0100
0000
1000
0001
0000
0100
,
0000
0000
0000
0010
0000
0000
1000
0000
0000
0000
0010
1000
,
0001
0000
1000
0000
,
0100
0000
0000
0010
0000
0000
0001
0000
,
0000
1000
0001
0100
0001
0010
0100
1000
,
0001
0000
0100
0000
0010
0000
1000
0000
0100
0000
0010
0000
0100
0000
0000
1000
0000
0000
0010
0000
0000
0100
0000
0000
,
0001
1000
0001
1000
0010
0100
0001
0100
0010
1000
0001
0100
0010
1000
0001
1000
,
0001
0010
0100
1000
0001
0010
0001
1000
0100
1000
0001
0010
0100
1000
0001
1000
,
0001
0100
0010
0100
0001
1000
0010
1000
0001
0100
0001
1000
0010
1000
0001
1000
,
0001
0010
0100
1000
0100
0010
0001
1000
0100
0010
0001
0010
0100
1000
0001
1000
,
0001
0100
0010
0100
0001
1000
0010
1000
0001
0100
0001
1000
0010
1000
0001
1000
,
0001
0010
0100
1000
0001
0010
0100
0010
0001
1000
0100
0010
0001
1000
0001
1000
,
0001
0100
0010
1000
0010
0100
0001
1000
0010
1000
0001
0100
0010
1000
0001
1000
,
0001
0010
0100
0010
0001
1000
0100
0010
0001
1000
0001
0010
0100
1000
0001
1000
,
0001
0100
0010
1000
0010
0100
0001
1000
0010
1000
0001
0100
0001
1000
0001
1000
,
0001
0010
0100
1000
0100
0010
0001
0010
0100
1000
0001
0010
0100
1000
0001
1000
,
0001
0100
0001
1000
0010
0100
0010
1000
0001
0100
0001
1000
0010
1000
0001
1000
,
0001
0010
0100
0010
0001
1000
0100
0010
0001
1000
0001
0010
0100
1000
0001
1000
,
0001
0100
0010
0100
0001
1000
0010
0100
0001
1000
0001
0100
0010
1000
0001
1000
,
0001
0010
0100
1000
0001
0010
0001
1000
0100
1000
0001
0010
0100
1000
0001
1000
,
0001
0100
0001
1000
0010
0100
0001
1000
0010
0100
0001
1000
0010
1000
0001
1000
,
0001
0010
0100
0010
0001
1000
0100
1000
0001
0010
0100
0010
0001
1000
0100
1000
,
0001
0000
0000
0100
0000
0000
0010
0000
,
0000
0000
1000
0000
0010
0100
0010
0000
,
1000
0000
0100
0000
0010
0001
0000
1000
,
0000
0100
1000
0001
,
0010
0000
0000
0100
0000
0000
1000
0000
,
0001
0000
0000
0100
0000
0000
0010
0000
,
0000
0000
2000
0000
0000
0000
0000
3000
,
0000
0000
0001
0000
0010
0100
1000
0000
,
0001
0000
0000
0100
0000
0000
0020
0000
,
0000
0000
0000
0030
0000
0000
1000
0000
,
0001
0000
1000
0000
0100
0010
0000
0001
,
0000
1000
0010
0100
,
0020
0000
0000
2030
,
0000
0000
0000
0000
0000
0000
0000
0000
0000
3000
0000
0000
0001
0000
0000
0000
,
0000
0010
0100
0010
,
0001
0000
0000
1000
0000
0000
0001
0000
,
0100
0010
1000
0000
,
0000
0000
0001
0000
0010
0100
0000
0010
,
0000
0001
1000
0000
0010
0000
0100
0000
,
0001
0010
0100
0010
,
0001
0000
0000
1000
,
0000
0001
0100
0010
,
0000
1000
0001
0000
0010
0000
0100
0000
,
1000
0000
0000
0001
0000
0000
0001
0000
,
1001
0000
0000
1000
0000
0000
0000
0000
,
0000
0001
0100
0010
,
1000
0000
0000
0001
0000
0000
0010
0000
,
0000
0001
1000
0010
,
0200
0000
0000
0300
0000
0000
0002
0000
,
0000
0000
0000
0003
1000
0000
0100
0000
,
0000
0010
0000
0001
,
0000
1000
0000
0010
,
0000
0000
0000
0000
,
0000
0000
0100
0000
,
0000
0001
0000
0000
,
0100
0000
0010
0000
,
1000
0000
0000
0000
,
0000
0001
0000
0010
,
0000
0100
1000
0000
,
0010
0000
0000
0000
0200
0300
0002
0003
,
0000
0000
0000
0000
0200
0300
0000
0000
0002
0003
0000
0000
0000
0000
0000
0000
,
0200
0300
0000
0000
0000
0000
0000
0000
0000
0000
0000
0000
0002
0003
0000
0000
0000
0000
0000
0000
0000
0000
0000
0000
0000
0000
0000
0000
0000
0000
0000
0000
0000
0000
0000
0000
1000
0000
0000
0000
0000
0000
0000
0000
0000
0000
0000
0000
,
0000
0000
0000
0001
,
0000
0000
0100
0000
,
0010
0000
0000
1000
,
0000
0000
0000
0000
,
0000
0000
0000
0010
,
0000
0100
0000
0102
,
0000
0000
0000
0000
,
0000
0000
0000
0000
,
0000
0000
0000
0003
;
