#TITLE:In Excelsius Deo;
#SUBTITLE:;
#ARTIST:Dynamo & JP feat Felicia;
#TITLETRANSLIT:;
#SUBTITLETRANSLIT:;
#ARTISTTRANSLIT:;
#CREDIT:;
#BANNER:In Excelsius Deo BN.png;
#BACKGROUND:In Excelsius Deo BG.png;
#LYRICSPATH:In Excelsius Deo.lrc;
#CDTITLE:;
#MUSIC:In Excelsius Deo.mp3;
#OFFSET:-3.590;
#SAMPLESTART:41.800;
#SAMPLELENGTH:16.500;
#SELECTABLE:YES;
#BPMS:0.000=137.740,206.000=68.920;
#STOPS:;
#BGCHANGES:;
// cache tags:
#FIRSTBEAT:8.000;
#LASTBEAT:220.000;
#SONGFILENAME:Songs/DDRExtreme.co.uk presents ChristmasMix/In Excelsius Deo/In Excelsius Deo.sm;
#HASMUSIC:1;
#HASBANNER:1;
#MUSICLENGTH:107.972;
// end cache tags

//---------------dance-single - ----------------
#NOTES:
     dance-single:
     :
     Medium:
     5:
     0.352,0.357,0.259,0.370,0.000,198.000,28.000,40.000,0.000,0.000:  // measure 1
0000
0000
0000
0000
,  // measure 2
0000
0000
0000
0000
,  // measure 3
0100
1000
0100
1000
,  // measure 4
0001
1000
0010
1000
,  // measure 5
0001
0100
0001
0100
,  // measure 6
0001
1000
0001
0010
,  // measure 7
0110
0000
0100
1000
,  // measure 8
0010
0010
0020
0030
,  // measure 9
0101
0000
0010
0000
,  // measure 10
1000
0001
1001
0000
,  // measure 11
0100
0001
0010
0000
,  // measure 12
0100
0100
0200
0300
,  // measure 13
1100
0000
0000
0100
1000
0000
0000
0000
,  // measure 14
1010
1000
0001
0000
,  // measure 15
0010
0020
0130
0200
,  // measure 16
1300
2000
0010
3001
,  // measure 17
1000
2000
3001
0002
,  // measure 18
0013
0002
0103
0000
,  // measure 19
1001
0000
0000
0100
1000
0000
0000
0000
,  // measure 20
1001
0110
1001
0000
,  // measure 21
0002
0000
0010
0000
0103
0000
0000
0001
,  // measure 22
2000
0010
3100
1000
,  // measure 23
0001
0000
0100
0001
1000
0000
1000
0000
,  // measure 24
0100
0000
0100
1000
0001
0000
0001
0000
,  // measure 25
0100
0000
0100
0000
0110
0000
0000
0001
,  // measure 26
0010
0010
0210
0000
,  // measure 27
1000
0000
0320
0000
,  // measure 28
0031
0000
2001
0001
,  // measure 29
0010
3100
1002
1000
,  // measure 30
0100
0013
2100
0100
,  // measure 31
0001
0000
3010
0000
0102
0000
1003
0100
,  // measure 32
1000
1000
0001
0010
,  // measure 33
0100
1000
0020
0000
,  // measure 34
0230
0000
0302
0000
,  // measure 35
1000
0000
1003
0100
,  // measure 36
0000
1000
0000
0001
0200
0000
0010
0000
,  // measure 37
0001
0010
0320
1000
,  // measure 38
0100
1030
0002
0010
,  // measure 39
0100
0000
0010
0000
2003
0000
3100
1000
,  // measure 40
0001
0100
0110
0110
,  // measure 41
0101
1001
0021
0130
,  // measure 42
1020
0130
2002
0000
,  // measure 43
0000
0000
3003
0000
0001
0100
1000
0000
,  // measure 44
1000
0100
0001
1000
0002
0000
0000
0000
,  // measure 45
0013
0100
1000
0100
2000
0000
0000
0000
,  // measure 46
3010
0100
0001
0100
0002
0000
0000
0000
,  // measure 47
0013
0100
1000
0001
0100
0000
0010
0000
,  // measure 48
1001
0000
1100
0000
0001
0000
0100
0001
,  // measure 49
0100
0010
1200
0301
,  // measure 50
0201
1300
2002
0000
,  // measure 51
0000
0000
3003
0000
0001
0000
0100
0010
,  // measure 52
1000
0000
0001
1000
0002
0000
0000
0103
,  // measure 53
0020
0000
0000
1030
0200
0000
0000
1300
,  // measure 54
0002
1003
1000
0010
,  // measure 55
0001
0100
2002
0000
,  // measure 56
3003
0000
0000
0000
;

//---------------dance-single - ----------------
#NOTES:
     dance-single:
     :
     Easy:
     3:
     0.249,0.306,0.194,0.222,0.000,143.000,21.000,24.000,0.000,0.000:  // measure 1
0000
0000
0000
0000
,  // measure 2
0000
0000
0000
0000
,  // measure 3
1000
0000
0100
0000
,  // measure 4
0100
0000
1000
0000
,  // measure 5
0002
0000
0000
0100
,  // measure 6
0100
0100
0100
0103
,  // measure 7
1001
0000
0100
0001
,  // measure 8
0100
0001
0100
0000
,  // measure 9
0110
0000
1000
0000
,  // measure 10
0001
0010
0100
0000
,  // measure 11
1000
0100
1000
0000
,  // measure 12
1000
0100
1000
0000
,  // measure 13
1001
0000
0100
0000
,  // measure 14
0001
1000
0010
0000
,  // measure 15
0101
0101
0100
0100
,  // measure 16
0001
0001
0200
0300
,  // measure 17
0110
0110
0100
0100
,  // measure 18
0010
0010
0200
0300
,  // measure 19
1002
0000
0013
0000
,  // measure 20
1000
1000
1000
0000
,  // measure 21
2001
0000
3010
0000
,  // measure 22
0001
0001
0001
0000
,  // measure 23
2000
0000
3100
1000
,  // measure 24
0010
0010
0010
0000
,  // measure 25
0100
0001
0020
0000
,  // measure 26
0130
1000
0001
0000
,  // measure 27
0000
0000
0000
0000
,  // measure 28
1000
1001
0200
0000
,  // measure 29
0001
0310
2000
0000
,  // measure 30
0100
3001
0020
0000
,  // measure 31
0130
1000
0020
0000
,  // measure 32
0130
0000
0001
1000
,  // measure 33
0001
1000
1001
0000
,  // measure 34
0110
0000
2002
0000
,  // measure 35
0000
0000
0000
0000
,  // measure 36
0000
3003
0100
0100
,  // measure 37
0010
0100
0001
0001
,  // measure 38
1000
0001
0010
0010
,  // measure 39
0100
1000
0002
0000
,  // measure 40
0103
0000
0200
0000
,  // measure 41
0310
0000
1000
0000
,  // measure 42
0001
0000
2002
0000
,  // measure 43
0000
0000
0000
3003
,  // measure 44
0100
0110
0001
0100
,  // measure 45
0001
0100
0001
0010
,  // measure 46
0001
0010
0100
1000
,  // measure 47
0100
1000
0010
1000
,  // measure 48
0010
1000
1001
1001
,  // measure 49
0100
0100
1001
0000
,  // measure 50
1100
0000
0102
0000
,  // measure 51
0000
0000
0013
0000
,  // measure 52
0100
0000
2000
0000
,  // measure 53
3002
0000
0203
0000
,  // measure 54
0320
0030
0100
0100
,  // measure 55
0001
1000
2002
0000
,  // measure 56
3003
0000
0000
0000
;

//---------------dance-single - ----------------
#NOTES:
     dance-single:
     :
     Hard:
     7:
     0.497,0.688,0.435,0.408,0.088,285.000,47.000,44.000,0.000,0.000:  // measure 1
0000
0000
0000
0000
,  // measure 2
0000
0000
0000
0000
,  // measure 3
1000
0010
0100
0000
0100
0001
0010
0000
,  // measure 4
1100
0000
0100
1000
0001
0000
0011
0000
,  // measure 5
1001
0000
0100
1000
0001
0000
0100
0001
,  // measure 6
1000
0000
0000
0001
0000
0000
1000
0000
0001
0000
0000
1000
0000
0000
0001
0000
,  // measure 7
0100
0000
0000
0100
0010
0000
0010
0000
,  // measure 8
1000
1100
1020
0031
,  // measure 9
0010
0100
0000
0001
1000
0000
0000
0000
,  // measure 10
0100
0000
0000
0100
1000
0000
0010
0000
0200
0000
0000
0000
0301
0000
0000
0000
,  // measure 11
1000
0000
1100
0000
0001
0000
0100
0001
,  // measure 12
0010
0000
1100
0000
0001
0000
0000
0100
,  // measure 13
0100
0010
0000
1000
0001
0000
0000
0000
,  // measure 14
0010
0000
0000
0001
0010
0000
0100
0000
1000
0000
0000
0000
0001
0000
1000
0000
,  // measure 15
0001
0101
0100
0110
,  // measure 16
0010
1010
2001
3100
,  // measure 17
1100
0100
0110
0010
,  // measure 18
0011
0000
0101
0000
0120
0000
0031
0010
,  // measure 19
2001
0000
0000
3100
1000
0000
0001
0000
,  // measure 20
0100
0100
0100
0000
,  // measure 21
0100
0001
0010
1000
0020
0000
0000
0130
,  // measure 22
1000
0010
0001
0010
1001
0000
0100
0000
,  // measure 23
0110
0000
0100
1000
0010
0000
0110
0000
,  // measure 24
0101
0000
0010
0001
0200
0000
1300
0000
,  // measure 25
0100
0001
0010
0000
,  // measure 26
0100
0000
0000
0000
0100
0000
0000
0000
2001
0000
0000
0001
0000
0000
0001
0000
,  // measure 27
0010
0000
0000
0010
0000
0000
3010
0000
0200
0000
0000
1000
0000
0000
1000
0000
,  // measure 28
0301
0000
1001
0000
0001
0010
0100
0010
,  // measure 29
0001
0010
1000
0010
0001
0100
0010
0100
,  // measure 30
0001
0100
1000
0100
0001
0010
0100
1000
,  // measure 31
0100
0010
0001
0100
0020
0000
0031
0010
,  // measure 32
1000
0001
1001
0101
,  // measure 33
0110
1100
0020
0000
,  // measure 34
0230
0000
0000
0000
2300
0000
0000
3010
,  // measure 35
0200
0000
0000
1300
0200
0000
0000
0301
,  // measure 36
0000
0010
0001
0010
0100
1000
0100
1000
,  // measure 37
0010
1000
0010
0100
0001
0100
0001
0100
,  // measure 38
0010
1000
0100
0010
0001
0010
0001
0010
,  // measure 39
0100
1000
0100
0010
0100
0000
1001
1000
,  // measure 40
0010
0100
0001
0110
,  // measure 41
1000
0110
0012
0103
,  // measure 42
2010
3100
2002
3003
,  // measure 43
0100
0000
0000
1000
0000
0000
0010
0000
0100
0000
0010
0000
0100
0000
0001
0000
,  // measure 44
0010
0010
0100
0100
2002
0000
3003
0000
,  // measure 45
1000
0010
0001
0010
2002
0000
3003
0000
,  // measure 46
0100
0001
0100
1000
2002
0000
3003
0000
,  // measure 47
0010
0100
1000
0100
0002
0000
0013
0100
,  // measure 48
1001
1010
0200
0320
,  // measure 49
0032
0023
2030
3001
,  // measure 50
0002
1003
2002
3003
,  // measure 51
1000
0000
0001
1000
0000
0001
1000
0000
0001
0000
0010
0001
0000
0100
0001
0000
,  // measure 52
1000
0000
0010
0000
1000
0000
0100
0000
0012
0000
0000
0000
0103
0010
1000
0100
,  // measure 53
2000
0000
0000
0000
3010
0100
0001
0010
0002
0000
0000
0000
0103
0001
1000
0100
,  // measure 54
2000
0000
3001
0100
0100
0000
0000
0000
1010
0000
1010
0000
0110
0000
0101
0000
,  // measure 55
2002
3003
0220
0330
2002
0000
0000
0000
,  // measure 56
3003
0000
0000
0000
;

//---------------dance-single - ----------------
#NOTES:
     dance-single:
     :
     Beginner:
     1:
     0.136,0.177,0.130,0.083,0.000,80.000,14.000,9.000,0.000,0.000:  // measure 1
0000
0000
0000
0000
,  // measure 2
0000
0000
0000
0000
,  // measure 3
1000
0000
0001
0000
,  // measure 4
1000
0000
0001
0000
,  // measure 5
2000
0000
0000
0000
,  // measure 6
0000
0000
0000
3000
,  // measure 7
1001
0000
0000
0000
,  // measure 8
0100
0000
0100
0000
,  // measure 9
0010
0000
0000
0000
,  // measure 10
1000
0000
0001
0000
,  // measure 11
1001
0000
0000
0000
,  // measure 12
0001
0001
0001
0000
,  // measure 13
1000
0000
0010
0000
,  // measure 14
1000
1000
1000
0000
,  // measure 15
1001
0000
0000
0000
,  // measure 16
0001
0000
0010
0000
,  // measure 17
0100
0000
0000
0000
,  // measure 18
1000
0000
0001
0000
,  // measure 19
1001
0000
0000
0000
,  // measure 20
1001
0000
0000
0000
,  // measure 21
0100
0000
0010
0000
,  // measure 22
0100
0000
0110
0000
,  // measure 23
0100
0000
0000
0000
,  // measure 24
0001
0000
0010
0000
,  // measure 25
0001
0000
0000
0000
,  // measure 26
1000
0000
1001
0000
,  // measure 27
0000
0000
0000
0000
,  // measure 28
0000
0000
2000
0000
,  // measure 29
3000
0000
0002
0000
,  // measure 30
0003
0000
0200
0000
,  // measure 31
0300
0000
0020
0000
,  // measure 32
0030
0000
1000
1000
,  // measure 33
1000
0000
0001
0000
,  // measure 34
0001
0000
1001
0000
,  // measure 35
0000
0000
0000
0000
,  // measure 36
0000
0000
0020
0000
,  // measure 37
0030
0000
0200
0000
,  // measure 38
0300
0000
0002
0000
,  // measure 39
0003
0000
2000
0000
,  // measure 40
3000
0000
0010
0010
,  // measure 41
0010
0000
0100
0000
,  // measure 42
0100
0000
0110
0000
,  // measure 43
0000
0000
0001
0000
,  // measure 44
1000
1001
1001
0000
,  // measure 45
0000
0000
0010
0000
,  // measure 46
0000
0000
1001
0000
,  // measure 47
0000
0000
0100
0000
,  // measure 48
0100
0000
0001
0001
,  // measure 49
0001
0000
1000
0000
,  // measure 50
1000
0000
1001
0000
,  // measure 51
0000
0000
0000
0000
,  // measure 52
0000
0000
1000
0000
,  // measure 53
0100
0000
0010
0000
,  // measure 54
0001
0000
1000
0000
,  // measure 55
0001
1000
1001
0000
;
