#TITLE:Above the Winter Moonlight v2;
#SUBTITLE:;
#ARTIST:DragonForce;
#TITLETRANSLIT:;
#SUBTITLETRANSLIT:;
#ARTISTTRANSLIT:;
#CREDIT:;
#BANNER:abovethewintermoonlight-bn.PNG;
#BACKGROUND:abovethewintermoonlight-bg.PNG;
#LYRICSPATH:;
#CDTITLE:cdtitle.PNG;
#MUSIC:05 Above the Winter Moonlight.mp3;
#OFFSET:-6.942;
#SAMPLESTART:74.000;
#SAMPLELENGTH:13.800;
#SELECTABLE:YES;
#BPMS:0.000=200.000,1247.000=180.000,1398.000=150.000,1403.000=130.000,1406.000=90.000,1407.000=200.000;
#STOPS:422.000=0.300
;
#BGCHANGES:;
// cache tags:
#FIRSTBEAT:0.000;
#LASTBEAT:1452.000;
#SONGFILENAME:Songs/toune 2/(OMEGAspike)Above the Winter Moonlight v2/05 Above the Winter Moonlight.sm;
#HASMUSIC:1;
#HASBANNER:1;
#MUSICLENGTH:450.986;
// end cache tags

//---------------dance-single - ----------------
#NOTES:
     dance-single:
     :
     Hard:
     12:
     1.000,1.000,0.891,0.310,0.991,3155.000,402.000,140.000,0.000,0.000:
2000
0000
0000
3002
,
0203
0000
0320
2030
,
3002
0000
0000
0023
,
0230
0000
2300
3200
,
0320
0000
0000
0032
,
2003
3200
0320
0032
,
0023
0230
2300
3002
,
0000
0023
0230
0000
,
2300
0000
0000
3200
,
0320
0032
0023
0230
,
2300
0000
0000
3200
,
2300
0000
3200
0320
,
0032
0000
0000
0203
,
0320
0230
0302
0023
,
0230
2300
3200
0320
,
0000
0032
0203
0000
,
0301
0000
0010
0000
0100
0000
1000
0000
0100
0000
0010
0000
0001
0010
0100
0000
,
1000
0000
0001
0000
0100
0010
0100
0000
0010
0000
1000
0000
0100
0010
0001
0000
,
0010
0000
0100
0000
1000
0000
0001
0000
0100
0000
0010
0000
0100
0010
0100
0000
,
0010
0000
1000
0000
0001
0100
0001
0000
1000
0000
0100
0000
0010
0001
0100
0000
,
0010
0000
0100
0000
0010
0000
1000
0000
0001
0000
0100
0000
0001
0100
0001
0000
,
1000
0000
0100
0000
0010
0001
0010
0000
0100
0000
1000
0000
0100
0010
0100
0000
,
0020
0032
0203
0320
,
0000
0000
1030
0100
1000
0100
0010
0100
2000
0000
0000
0000
0000
0000
0000
0000
,
3001
0100
0010
1000
0010
0100
0001
1000
0100
0010
0100
1000
0010
0100
0001
0100
,
0010
0100
0010
1000
0100
0010
0100
1000
0010
0100
0001
1000
0001
0100
0010
1000
,
0100
0010
0100
1000
0010
0100
0010
1000
0001
0010
0100
0010
0001
1000
0010
0100
,
1001
1001
0000
1001
1001
0000
1001
1001
,
0010
0100
1000
0100
0010
0001
0100
0010
0100
0001
1000
0100
0010
0001
0010
0100
,
1000
0010
0100
0010
1000
0100
0010
0100
1000
0001
0100
0010
0100
0001
1000
0100
,
0010
0100
0010
0100
0010
0001
0010
0001
0010
0100
0010
0100
1000
0100
1000
0100
,
1000
0100
1000
0100
0010
0001
0010
0001
0100
0010
0100
0010
1000
0010
1000
0010
,
1001
0000
1001
1001
0000
1001
1001
0000
,
0101
0101
0000
0101
0101
0000
0101
0000
,
1010
0000
1010
1010
0000
1010
1010
0000
,
0011
0011
0000
0011
0011
0000
0011
0000
,
1100
0000
1100
1100
0000
1100
1100
0000
,
0110
0110
0000
0110
0110
0000
0110
0000
,
2002
0000
0000
0000
0000
0000
0000
3003
,
0020
0000
0000
0000
0100
0000
0000
0000
1030
0100
0010
0001
0010
0100
1000
0100
,
0010
0000
0001
0000
0100
0010
1000
0000
0010
0000
0100
0000
0001
1000
0100
0000
,
0010
0000
0001
0000
0010
0100
1000
0000
0010
0000
0100
0000
0001
0100
0001
0000
,
1000
0000
0010
0000
0100
0001
1000
0000
0010
0000
0100
0000
0001
1000
0100
0000
,
0010
0000
0001
0000
0010
0100
1000
0000
0100
0000
0010
0000
0001
1000
0100
0000
,
1000
0000
0010
0000
1000
0010
1000
0000
0100
0000
0001
0000
1000
0100
0010
0000
,
0001
0000
0010
0000
0100
1000
0100
0000
0010
0000
0001
0000
0100
0001
0100
0000
,
0010
0000
1000
0000
0100
0010
0001
0000
0010
0000
0100
0000
1000
0010
0100
0000
,
0001
1000
0001
1000
0001
1000
0001
1000
0100
0010
0100
0010
0100
0010
0100
0010
,
0001
0000
0010
0000
0100
0010
0100
0000
0010
0000
0100
0000
1000
0001
0100
0000
,
0010
0000
1000
0000
0010
0100
0010
0000
0100
0000
0001
0000
1000
0100
1000
0000
,
0100
0000
0010
0000
0001
0010
0001
0000
0100
0000
0010
0000
1000
0100
1000
0000
,
0101
0100
1001
1001
,
1000
0000
0100
0000
0010
0000
0100
0000
1000
0000
0001
0000
0100
0010
0100
0000
,
0010
0000
1000
0000
0100
0000
0010
0000
0001
0000
0010
0000
0100
1000
0001
0000
,
0010
0000
0100
0000
1000
0000
0001
0000
0100
0000
0010
0000
1000
0001
1000
0000
,
0001
0010
0100
1000
0100
0010
0001
0100
0001
1000
0100
0010
0100
1000
0001
0100
,
1001
0101
1001
1010
1001
0110
1010
0110
,
0101
0110
1010
1001
0110
1001
0000
0000
,
1100
0011
0101
1010
,
1001
0000
0000
0101
0000
0000
1010
0000
,
1010
1100
1010
0110
0101
0110
0101
1001
,
1100
0011
1100
0011
0101
1001
0000
0000
,
1100
0110
0011
0110
,
1001
0000
0000
1010
0000
0000
0101
0000
,
1010
0100
0000
1000
0110
0001
0000
0001
,
1100
0010
0001
0100
1001
0010
0100
1000
,
0011
1000
0000
0010
0101
0010
0000
0100
,
0011
0100
1000
0001
1100
0010
0100
0001
,
1010
0100
0000
1000
0110
0001
0000
0001
,
1100
0010
0001
1000
0101
0010
1000
0001
,
1100
0010
0000
0010
0101
0010
0000
0010
,
1100
0010
0001
0100
0001
1000
0010
0100
,
1001
0100
0010
1000
0101
0010
1000
0100
,
0011
0100
1000
0001
1100
0010
0100
0001
,
0110
1000
0001
0100
0011
0100
1000
0100
,
0011
1000
0010
0100
1001
0100
0001
0010
,
1100
0010
0000
0010
0101
1000
0000
0010
,
0101
1000
0001
0100
0011
0100
0010
1000
,
0101
0010
0000
1000
0011
1000
0000
0001
,
0010
0100
0010
0100
0010
0000
1000
0100
1000
0100
1000
0000
0000
0000
0000
0000
,
0001
0010
0100
1000
0100
0010
0001
0100
0001
1000
0010
1000
0001
1000
0100
0010
,
0100
1000
0001
0100
0010
0100
0001
0100
0010
1000
0100
0010
0100
1000
0001
0100
,
0010
1000
0010
0100
0001
0100
0001
1000
0001
0100
0010
1000
0010
0100
0001
1000
,
0100
0010
0001
0010
0100
1000
0001
0100
0001
1000
0010
0100
0010
1000
0100
0010
,
0001
0010
0100
1000
0001
0100
0001
1000
0010
0100
0001
1000
0100
0010
0100
1000
,
0010
0100
0001
0100
0001
1000
0100
0010
0100
1000
0010
0100
0001
1000
0001
0100
,
0010
1000
0100
0010
0001
0010
0100
1000
0010
1000
0001
0100
0001
0100
0010
1000
,
0100
0010
0100
0010
0001
1000
0001
0010
0100
1000
0010
1000
0001
0100
0001
0010
,
0100
1000
0100
0010
0001
0100
0001
1000
0100
0010
0100
1000
0001
0100
0001
1000
,
0100
0010
0001
0010
0100
1000
0001
0010
0100
1000
0100
0010
0001
0100
0001
1000
,
0100
0010
0100
0010
0100
1000
0001
0100
0010
0100
0010
0100
0001
0010
0100
1000
,
0100
0010
0001
1000
0001
0100
0010
1000
0001
0100
0001
0100
0010
1000
0010
1000
,
0010
0100
0001
1000
0010
0100
0001
1000
0100
0010
0001
0010
0100
1000
0100
0010
,
0001
0100
0010
1000
0001
0100
0010
1000
0001
0010
0100
1000
0100
0010
0001
0010
,
0100
1000
0010
0100
0001
0010
0100
1000
0010
0100
0001
0100
0010
1000
0100
0010
,
0001
1000
0001
1000
0001
1000
0100
0010
0100
0010
0100
0010
0001
0100
0001
0100
,
1001
0101
1001
1010
0110
0101
0110
1010
,
1100
0011
1100
0110
0101
1001
1010
1001
,
1001
0010
0100
1000
0100
0010
0001
0100
0001
1000
0010
1000
,
0001
0010
0100
0010
0001
1000
0010
0100
0010
1000
0100
0010
,
1001
0010
0100
0010
0001
1000
0100
0010
0001
0100
0010
1000
,
0100
0010
0001
0010
0100
1000
0010
0100
0001
1000
0100
0010
,
1001
0100
0010
1000
0001
0100
0001
1000
0100
0010
0001
0010
,
0100
1000
0010
0100
0001
0010
0100
1000
0001
0100
0001
1000
,
0110
0001
0100
0010
1000
0001
0100
0001
0010
0100
1000
0100
,
0010
0001
0010
0100
1000
0100
0010
0100
1001
0000
0000
0000
0100
0000
1000
0000
,
0010
0100
0001
0000
0100
0000
0010
0000
1000
0001
0010
0000
0100
0000
1000
0000
,
0100
0010
0001
0000
0100
0000
0010
0000
1000
0010
1000
0000
0001
0000
0100
0000
,
0010
1000
0001
0000
0100
0000
0010
0000
1000
0001
0010
0000
0100
0000
1000
0000
,
0100
0010
0001
0000
0010
0000
0100
0000
1000
0001
0010
0000
0001
0000
0100
0000
,
0001
0100
0001
0000
0010
0000
1000
0000
0001
0010
0100
0000
1000
0000
0100
0000
,
0010
0001
0010
0000
0100
0000
1000
0000
0010
1000
0010
0000
0100
0000
0001
0000
,
0010
0100
1000
0000
0100
0000
0010
0000
0001
0100
0010
0000
1000
0001
1000
0001
,
1000
0001
1000
0001
0010
0100
0010
0100
0010
0100
0010
0100
1000
0000
0100
0000
,
0010
0100
0010
0000
0100
0000
0010
0000
0001
1000
0010
0000
0100
0000
0001
0000
,
0100
0010
0100
0000
0010
0000
1000
0000
0001
0010
0001
0000
0010
0000
0100
0000
,
1000
0100
1000
0000
0010
0000
0100
0000
0001
0010
0001
0000
1100
0000
0000
0000
,
0001
0000
1010
0000
1010
0000
0001
0010
,
0100
0000
0010
0000
0001
0000
1000
0000
0010
0100
0010
0000
0100
0000
0001
0000
,
0010
0000
0100
0000
1000
0000
0100
0000
0010
0001
1000
0000
0100
0000
0010
0000
,
0001
0000
1000
0000
0010
0000
0100
0000
0001
1000
0001
0000
1000
0100
0010
0001
,
0010
0100
1000
0010
1000
0001
0010
0100
0010
0001
1000
0010
1001
0000
0110
0000
,
1010
0110
0101
1001
0011
1100
0011
0101
,
1010
1100
0110
1001
0000
0000
0101
0000
,
1100
0110
0101
1001
,
0000
0101
0000
0000
1010
0000
1100
0110
,
1100
0110
0011
0110
0011
0110
0101
1001
,
1010
0110
1001
0101
0000
0000
1100
0000
,
0011
0101
1001
2002
,
0000
0000
0000
3003
0000
0000
0101
0010
,
0000
0001
0110
1000
0000
1000
0011
0100
,
1000
0010
1001
0100
0010
0001
1100
0001
,
0000
0100
1010
0100
0000
0010
1100
0010
,
0001
1000
0011
0100
0010
1000
0101
0010
,
0000
0001
0110
1000
0000
1000
0011
0100
,
1000
0001
1010
0100
0001
1000
0011
0100
,
0000
0100
1010
0100
0000
0100
0011
0100
,
1000
0010
1000
0001
0100
0010
1001
0010
,
0100
0001
1010
0100
0001
0010
1100
0010
,
0001
1000
0011
0100
0010
1000
0110
0001
,
1000
0010
1100
0010
0001
0010
1100
0001
,
0100
0010
1001
0010
1000
0100
0011
0100
,
0000
0100
1010
0001
0000
0100
1010
0001
,
1000
0010
1100
0010
0100
0001
1010
0100
,
0000
0000
0001
0000
1100
0000
0001
0000
0000
0000
1000
0000
0100
0001
0100
0001
,
0100
0000
0010
1000
0100
0010
0001
0000
0000
0000
0000
0000
1000
0100
0010
0001
,
0010
0100
1000
0010
1000
0001
0100
0001
1000
0001
0010
0100
0010
0001
1000
0010
,
0100
0010
1000
0010
0100
0001
0010
0100
0010
0001
1000
0010
0100
0001
0100
0010
,
1000
0010
1000
0001
1000
0010
0100
0001
0100
0010
1000
0001
0010
0100
1000
0100
,
0010
0001
1000
0010
1000
0001
0100
0010
0100
0001
0010
0100
1000
0100
0010
0001
,
1000
0010
1000
0001
0100
0010
1000
0001
0010
0100
0010
0001
0100
0010
1000
0010
,
1000
0001
0010
0100
0010
0001
0100
0010
1000
0001
1000
0010
0100
0001
0010
0100
,
1000
0100
0010
0001
0100
0001
1000
0010
1000
0010
0100
0001
0010
0100
0010
0100
,
1000
0001
1000
0100
0010
0001
0100
0001
1000
0010
1000
0100
0010
0001
0010
0100
,
1000
0010
1000
0001
0010
0100
0010
0001
1000
0010
1000
0001
0010
0100
1000
0100
,
0010
0001
1000
0100
0010
0001
0010
0100
1000
0010
1000
0001
0010
0100
1000
0100
,
0010
0001
1000
0010
0100
0001
0100
0010
1000
0100
0010
0001
0010
0100
1000
0001
,
1000
0010
0100
0001
1000
0010
1000
0010
0100
0001
0100
0001
0100
0010
1000
0001
,
0100
0010
1000
0001
0010
0100
1000
0100
0010
0001
0010
0100
1000
0010
0100
0001
,
1000
0010
0100
0001
1000
0100
0010
0001
0010
0100
1000
0100
0010
0001
0100
0010
,
1000
0100
0010
0001
0100
0010
1000
0010
0100
0001
0010
0100
1000
0001
1000
0001
,
1000
0001
0010
0100
0010
0100
0010
0100
1000
0010
1000
0010
0101
0000
1000
0000
,
0101
0010
1100
0100
1001
0100
0000
0101
,
1001
1010
0110
1001
0101
1010
1001
0010
,
1100
0010
0101
0010
1100
0001
0000
1100
,
0101
1001
1010
0011
0101
1010
0101
0010
,
1100
0010
1001
0100
0011
1000
0000
0110
,
0101
0110
1010
1001
0110
1001
0102
0000
,
0000
0000
0000
0000
0000
0000
0000
0000
0000
0000
0000
0000
1003
0100
0010
0001
,
1000
0100
0010
0001
0010
0000
0100
0000
1000
0000
0100
0000
1001
0000
0010
0000
,
1000
1010
0000
0101
0001
1001
0000
1001
,
1000
1010
0000
0001
0010
0000
0110
1000
,
0001
1010
0000
0110
0001
1010
0000
0110
,
0010
1010
0000
0000
1001
0000
1001
0010
,
0100
1100
0000
1100
0100
0110
0000
0110
,
0010
0011
0000
0001
0100
0000
1010
1000
,
0001
0101
0000
1010
0100
2010
0000
0000
,
0000
3001
0000
1001
,
0001
0001
0001
0001
,
0001
0001
0001
0010
,
0010
0010
0010
0010
,
0010
0010
0010
0100
,
1000
0100
1000
0000
0010
0100
0010
0000
,
0100
0001
0010
0000
0100
0000
1000
0000
,
0100
0010
0100
0000
0010
0001
0010
0000
,
0100
1000
0001
0000
0100
0000
0010
0000
,
1000
0001
1000
0000
0010
1000
0100
0000
,
0010
0001
0010
0000
0100
0000
1000
0000
,
0100
0010
0001
0000
0001
0100
0010
0000
,
1000
0100
0010
0000
0001
0000
1000
0000
,
0001
0010
0001
0000
1000
0100
1000
0000
,
0010
0100
0010
0000
1000
0000
0001
0000
,
1000
0010
1000
0000
0010
1000
0010
0000
,
0100
0001
0100
0000
0010
0000
1001
0010
,
1100
0010
0001
0100
1001
0010
0100
1000
,
0011
0100
0010
1000
0101
0010
1001
0100
,
0011
0100
1000
0010
1100
0010
0001
1000
,
0011
0100
0001
1000
0101
0010
1001
0100
,
1001
0010
0100
1000
0110
0001
1000
0001
,
1100
0001
1000
0010
0101
0010
1100
0010
,
0101
0010
0100
1000
0110
0001
1010
0110
,
1001
0000
0101
0000
1001
0000
1010
0000
1001
0000
0110
0000
1000
0010
1000
0010
,
1000
0000
0000
0000
0001
0100
0001
0100
0001
0000
0010
0000
0100
1000
0100
1000
,
0100
0000
0000
0000
0010
0001
0010
0001
0010
0000
0100
0000
1000
0001
1000
0001
,
1000
0000
0000
0000
0100
0010
0100
0010
0100
0000
0010
0000
1000
0100
0010
0001
,
0010
0000
0000
0000
0100
1000
0100
0010
0001
0000
0100
0000
1001
0000
0100
0000
,
1010
0100
0011
0100
1001
0010
1100
0010
,
1001
0100
1001
0010
0101
1000
0110
1000
,
0011
0000
0100
0000
1010
0000
0100
0000
1001
0000
0010
0000
1100
0010
0001
0100
,
0010
0100
0000
0100
0010
0000
1100
0100
,
0100
0110
0000
0110
0010
0011
0000
0101
,
0100
1100
0000
0100
0010
0000
0101
0010
,
0100
1010
0000
1010
0100
1001
0000
0101
,
0010
1100
0000
0000
0101
0000
1010
1000
,
0100
0110
0000
0011
0001
0101
0000
1010
,
1000
1001
0000
0001
0100
0000
1010
0100
,
0001
1001
0000
0010
0100
1000
0011
0100
,
0010
1010
0000
1000
0100
0010
1001
0100
,
0010
1010
0000
0110
0001
1001
0000
1010
,
0100
0011
0000
1000
0100
0000
0011
0001
,
0100
0101
0000
1010
0100
1001
0000
0101
,
0010
1100
0000
0100
0001
0000
2010
0000
,
0100
0100
3100
0102
,
0100
0100
0103
0020
,
0130
0001
0020
0000
0130
1000
0100
0010
,
0001
0100
0000
0010
1000
0001
0200
0000
,
0320
2030
3002
0023
,
0000
0230
0000
0000
0000
0300
2000
0000
,
3200
0320
0032
0000
0023
0230
2300
3200
,
0000
0320
0030
0002
0000
0013
0100
1000
,
0100
0010
0001
0100
0010
1000
0001
0100
,
0010
0000
1000
0000
0200
0000
0000
0000
0000
0000
0300
0000
0001
0010
0100
0000
,
1000
0100
0100
1000
0100
0100
0010
0001
,
0100
0000
0010
0000
0000
0000
0010
0000
0200
0000
0000
0000
0310
1000
0001
0000
,
0010
0100
0100
0010
0100
0100
0010
1000
,
0100
0000
0010
0000
0000
0000
0010
0000
0002
0000
0000
0000
0013
0100
1000
0100
,
0010
0000
0000
0001
0000
0000
0001
0000
0000
0010
0000
0000
0100
0000
0000
0100
0000
0000
1001
0000
0000
0000
0100
0000
,
0000
0000
0000
0000
0010
0000
0000
0000
0000
0000
0000
0000
1001
0000
0000
0000
0000
0000
0000
0000
0010
0000
0000
0000
0000
0000
0000
0000
0100
0000
0000
0000
0000
0000
0000
0000
1000
0000
0000
0100
0000
0000
0010
0000
0000
0001
0000
0000
,
0100
0001
1000
0010
0100
0001
1000
0100
0010
0001
0010
0100
1000
0010
0100
0001
,
0100
0010
1000
0100
0020
0000
0000
0000
0000
0000
0000
0000
0031
0100
0010
1000
,
0010
0100
0001
0100
0010
1000
0010
0100
0001
0100
0010
1000
0001
0010
0100
1000
,
0100
0010
0001
0010
0100
1000
0100
0010
0001
0010
0100
1000
0001
1000
0001
0100
,
0001
1000
0001
0100
0001
1000
0001
0100
0001
1000
0001
0100
0010
1000
0010
0100
,
0010
1000
0010
0100
0010
1000
0010
0100
0010
1000
0010
0100
0001
0010
0100
1000
,
0001
0100
0010
1000
0001
0010
0100
1000
0001
0100
0010
1000
0100
0010
0001
0010
,
0100
1000
0100
0010
0001
0010
0100
1000
0010
0100
0001
1000
0001
0010
0100
1000
,
0010
0100
0001
0010
0100
1000
0010
0100
0001
0010
0100
1000
0001
0100
0001
0100
,
0001
1000
0100
0010
0001
0100
0001
0100
0001
1000
0100
0010
1002
0000
0000
0000
,
0000
0000
0000
0000
1003
0100
0020
0000
,
0000
0032
0000
0000
0023
0000
0230
0000
,
0000
2300
0000
0000
0000
0000
0000
0200
,
0000
0000
0300
0200
0000
0300
3020
0000
,
0000
0000
0000
0030
0100
0001
1020
0000
,
0000
2030
0000
0000
3200
0000
0320
0000
,
0031
0010
0000
0010
0001
0000
0200
0000
,
0000
0320
2030
3020
,
0000
0000
0000
0000
0130
0001
2000
0000
,
0000
0000
0000
0000
0000
3000
0200
0000
,
0000
0000
0000
0000
0000
0000
0310
0001
0010
0000
0100
0000
2000
0000
0000
0000
,
0000
0000
3200
0000
0000
0000
0310
0001
,
0010
0100
1000
0000
0010
0000
0100
0000
0001
0000
1000
0000
0100
0010
0001
0000
,
0010
0000
0100
0000
1000
0000
0001
0000
0100
0000
0001
0000
1000
0010
0100
0001
,
0100
0010
1000
0001
0100
0001
1000
0010
0100
0001
0100
0010
1000
0100
0010
0001
,
1000
0100
0010
0001
0200
0000
0000
0000
0000
0000
0000
0000
0310
0000
1000
0000
,
0002
0000
0013
0000
0100
0000
2000
0000
3100
0000
0010
0000
0002
0000
0013
0100
,
1000
0001
0100
0001
1000
0010
0100
0010
1000
0100
0010
0001
0010
0000
0100
0000
,
2000
0000
0000
3100
0000
0000
0010
0000
0000
0002
0000
0000
0103
0000
0000
0010
0000
0000
2000
0000
0000
0000
3200
0000
,
0000
0000
0000
0000
0320
0000
0000
0000
0000
0000
0000
0000
0032
0000
0000
0000
0000
0000
0000
0000
0000
0000
0000
0000
0000
0000
0000
0000
0000
0000
0000
0000
0000
0000
0000
0000
0013
0000
0000
0100
0000
0000
0010
0000
0000
0001
0000
0000
,
0100
0001
1000
0100
0010
0100
1000
0010
0100
0010
1000
0001
0100
0001
1000
0100
,
0010
0001
0010
0100
1000
0001
0100
0010
2000
0000
0000
0000
3100
0010
0001
0010
,
0100
1000
0001
0100
0010
1000
0010
1000
0001
0100
0001
1000
0100
0010
0100
0010
,
0100
0010
0001
0010
0100
1000
0100
1000
0100
0010
0001
0100
0020
0000
0000
0000
,
0000
0000
0000
0000
1030
0100
0002
0000
,
0000
0023
0000
0000
0230
0000
2300
0000
,
0000
3200
0300
0000
0020
0000
0230
0000
,
0000
0000
0000
0000
1300
0100
0020
0000
,
0031
0020
0030
0100
1000
0002
0000
1003
,
0001
0010
0100
1000
0010
0100
0001
0010
0100
1000
0010
0100
0001
0010
0100
1000
,
0100
0010
0001
0010
0100
1000
0100
0010
0001
0010
0100
0010
0001
0100
0010
1000
,
0001
0100
0010
1000
0001
0100
0010
0100
,
0010
1000
0100
0010
0001
0010
0200
0000
,
0300
2000
0000
3100
0010
0001
0100
0100
,
1000
0000
0100
0000
0010
0000
0001
0000
0000
0000
0000
0000
0010
0000
0000
0000
0000
0000
0010
0000
0000
0000
0000
0000
0001
0000
0010
0000
0100
0000
1000
0000
0000
0000
0000
0000
1000
0000
0000
0100
0000
0000
0010
0000
0000
0001
0000
0000
,
1000
0100
0010
0001
1000
0100
0010
0001
1000
0100
0010
0001
0100
0010
1000
0010
,
0100
0010
1000
0100
0010
0001
0010
0001
0010
0001
0010
0001
0100
0010
1000
0010
,
0100
0010
1000
0001
0100
0010
0100
0010
0100
0010
0100
0010
1000
0100
0010
0001
,
0100
0001
1000
0010
0100
0001
1000
0100
0010
0001
0010
0100
1000
0010
0100
0010
,
1000
0001
0100
0001
1000
0010
0100
0010
1000
0001
0100
0001
2020
0000
0000
0000
,
0000
0000
0000
0000
,
0000
0000
0000
0000
0000
3030
1001
0000
,
0000
0000
0000
0000
,
0000
0000
0000
0000
0000
0000
0000
0000
0000
0000
0000
0000
0010
1000
0001
0100
,
0001
1000
0100
0010
0100
1000
0001
0100
0010
0100
0001
1000
0001
0100
0010
1000
,
0100
0010
0001
0010
0100
1000
0010
0100
0010
1000
0001
0100
0001
1000
0100
0010
,
0100
1000
0001
0010
0100
0010
0001
0100
0010
1000
0100
0010
0001
0100
0010
1000
,
0001
0100
0001
0010
0100
1000
0010
0100
0001
1000
0100
0010
0001
0010
0100
1000
,
0001
0100
0010
1000
0100
0010
0001
0100
0010
1000
0001
0100
0001
1000
0100
0010
,
0001
0100
0010
1000
0001
0100
0001
1000
0100
0010
0100
1000
0010
0100
0001
0100
,
0010
1000
0001
0100
0001
1000
0100
0010
0100
1000
0010
0100
0001
0010
0100
1000
,
0001
0100
0010
1000
0010
0100
0001
1000
0100
0010
0001
0100
0010
1000
0001
0100
,
0001
1000
0100
0010
0100
1000
0001
0010
0100
0010
0001
0100
0010
1000
0001
0100
,
0001
1000
0100
0010
0001
0010
0100
1000
0001
0100
0010
1000
0010
0100
0001
1000
,
0100
0010
0001
1000
0001
0100
0010
1000
0001
0010
0100
1000
0001
0100
0001
0100
,
0001
0100
0001
1000
0001
1000
0001
1000
0010
1000
0010
1000
0011
1000
0100
0010
,
0001
0010
0100
1000
0001
0100
0001
1000
0010
0100
0010
1000
0001
0100
0001
1000
,
0100
0010
0001
0010
0100
1000
0001
0100
0001
1000
0100
0010
0100
1000
0010
0100
,
0001
0010
0100
1000
0010
0100
0001
1000
0100
0010
0001
0100
0010
1000
0001
0100
,
0001
1000
0001
0100
0010
1000
0001
0100
0001
1000
0100
0010
0100
1000
0001
0100
,
0010
1000
0100
0010
0001
0010
0100
1000
0010
0100
0001
1000
0001
0010
0100
1000
,
0100
0010
0001
0100
0010
1000
0010
0100
0001
0010
0100
1000
0010
0100
0001
1000
,
0001
0100
0010
1000
0100
0010
0001
0100
0001
1000
0010
0100
0001
1000
0001
1000
,
0001
0010
0100
1000
0100
0010
1001
0100
,
0010
1000
0101
0010
0100
1000
0011
1000
,
0100
0010
1001
0100
0010
1000
0110
0001
,
1000
0001
1010
0100
0001
1000
0110
0001
,
0010
0100
1001
0010
1001
0100
1001
0010
,
0100
1000
0011
1000
0100
0010
1100
0010
,
0100
1000
0011
1000
0100
0010
1001
0100
,
0010
1000
0101
0010
1000
0100
0011
0010
,
0010
1100
0100
0100
0011
0100
1001
0100
,
0010
0000
1000
0000
0001
0100
0001
0000
1000
0000
0100
0000
0010
0000
0100
0000
,
1000
0000
0001
0000
0100
0010
0100
0000
1000
0000
0100
0000
0010
0001
0010
0000
,
0000
0000
0000
0000
0000
0000
0000
0000
1000
0000
0000
0000
0100
0010
0100
0000
,
1000
0000
0001
0010
0001
0000
1000
0000
0100
0010
0100
0000
1001
0000
0010
0000
,
0100
0000
1000
0000
0001
0100
0010
0000
1000
0000
0010
0000
0100
0000
0001
0000
,
1000
0000
0100
0000
0010
0001
0100
0000
0010
0000
1000
0000
0001
1000
0001
0000
,
0000
0000
0000
0000
0000
0000
0000
0000
0010
0000
0000
0000
1000
0100
0010
0001
,
1000
0000
0000
0010
0000
0000
0100
0000
0000
0001
0000
0000
1000
0000
0100
0000
0010
0000
1001
0000
0000
0100
0000
0000
,
0010
0000
1000
0000
0100
0010
0100
0000
0010
0000
0001
0000
0010
0000
0100
0000
,
1000
0000
0001
0000
0100
0010
1000
0000
0100
0000
0010
0000
0001
0010
0100
0000
,
0000
0000
0000
0000
1000
0000
0101
0010
,
0000
0110
0000
1000
0110
0000
1001
0100
,
0010
0000
0001
0000
0100
0010
1000
0000
0100
0000
0010
0000
0001
0000
0010
0000
,
0100
0000
1000
0000
0100
0010
0001
0000
0010
0000
0100
0000
1000
0001
0100
0000
,
0000
0000
0000
0000
0000
0000
0010
0000
0000
1000
0100
0010
,
0001
0000
0010
0000
0100
0000
1000
0000
0001
0000
0100
0000
0010
0000
1000
0000
0001
0000
1010
0000
0000
0100
0000
0000
,
0001
0000
1000
0000
0100
0010
0001
0000
0010
0000
0100
0000
1000
0000
0010
0000
,
0100
0000
0001
0000
1000
0010
1000
0000
0010
0000
1000
0000
0100
0010
0001
0000
,
0000
0000
0000
0000
0100
0000
1010
0100
,
0000
0110
0000
0010
0101
0000
1100
0010
,
0001
0000
0100
0000
0001
0100
0010
0000
1000
0000
0010
0000
0100
0000
0001
0000
,
1000
0000
0100
0000
0010
0100
0010
0000
0100
0000
1000
0000
0001
1000
0010
0000
,
0000
0000
0000
0000
0000
0000
0000
0000
0100
0000
0000
0000
1000
0010
1000
0001
,
1000
0000
0000
0000
0001
0100
0001
1000
0001
0000
0000
0000
1100
0000
0010
0000
,
0100
0001
1010
0100
0001
0010
1100
0010
,
0001
1000
0101
1001
0110
1001
0110
1000
,
0001
0100
0011
1000
0100
0010
1001
0100
,
0001
1000
0110
0101
0110
1010
0101
1000
,
0001
0010
1100
0010
0001
0100
1010
0100
,
0001
1000
0101
1010
1001
0110
2020
0000
,
0000
3030
0202
0000
0000
0303
2002
0000
,
0000
3003
0220
0000
0000
0330
2002
0000
,
0000
0000
0000
0000
,
0000
0000
0000
0000
,
0000
0000
0000
0000
,
0000
0000
0000
0000
,
0000
0000
0000
0000
,
0000
0000
0000
0000
,
0000
0000
0000
0000
,
0000
0000
0000
0000
0000
0000
0000
0000
0000
0000
0000
0000
3003
0000
1000
0010
,
0100
0000
0010
0000
1000
0000
0100
0000
0010
0000
0001
0000
0010
0000
0100
0000
1000
0000
0100
0000
0010
0001
0000
0000
0000
0000
0000
0000
0000
1000
0100
0000
,
0000
0000
0000
0000
,
2002
0000
0000
0000
,
3003
0000
0000
0000
;

//---------------dance-single - ----------------
#NOTES:
     dance-single:
     :
     Challenge:
     16:
     1.000,1.000,1.000,0.310,1.000,3697.000,837.000,140.000,0.000,2.000:
0002
0000
0000
2003
,
3020
0000
0230
0302
,
2003
0000
0000
3200
,
0320
0000
0032
0023
,
0230
0000
0000
2300
,
3002
0023
0230
2300
,
3200
0320
0032
2003
,
0000
3020
0230
0000
,
0302
0000
0000
0023
,
0230
2300
3200
0320
,
0032
0000
0000
0023
,
0032
0000
0203
0320
,
2030
0000
0000
3020
,
0230
0320
2030
3020
,
0230
0302
0023
0230
,
0000
2300
3020
0000
,
1031
0100
0010
1000
0100
0010
0001
0010
0100
1000
0100
0010
1001
0100
0010
1000
,
0101
0010
1000
0100
0010
0001
0010
0100
1010
0100
0010
0001
1010
0001
0010
0100
,
1001
0100
0010
0001
0010
0100
1000
0001
0100
0010
1000
0001
1010
0100
0010
0001
,
1100
0001
0010
0100
1000
0010
1000
0001
0110
1000
0010
0100
0011
1000
0100
0010
,
0101
0010
0100
1000
0100
0010
0001
0010
0100
1000
0001
0100
1010
0001
1000
0010
,
0101
1000
0100
0010
0101
1000
0100
0010
0101
0010
0100
1000
0011
0100
0010
1000
,
0002
0023
0230
2300
,
0000
0000
3001
0010
0001
0010
0100
0010
0002
0000
0000
0000
0000
0000
0000
0000
,
1103
0010
0100
0001
0100
0010
1000
0001
0010
0100
0010
0001
1100
0010
1000
0010
,
0101
0010
0100
0001
1010
0100
0010
0001
1100
0010
1000
0001
1100
0010
0100
0001
,
1010
0100
0010
0001
0100
0010
0100
0001
1000
0100
0010
0100
1010
0001
0100
0010
,
1001
0000
1001
0100
0010
0100
1001
0000
1001
0010
0100
0010
1001
0000
1001
0000
,
1100
0010
0001
0010
0100
1000
0010
0100
0010
1000
0001
0010
0101
1000
0100
0010
,
1001
0100
0010
0100
1001
0010
0100
0010
0101
1000
0010
0100
0011
1000
0001
0010
,
1100
0010
0100
0010
0101
1000
0100
1000
0101
0010
0100
0010
1001
0010
0001
0010
,
0001
0010
0001
0010
0101
1000
0100
1000
0011
0100
0010
0100
1001
0100
0001
0100
,
1001
0100
1001
1001
0010
1001
1001
0100
,
1010
1010
0001
1010
1010
0100
1010
0001
,
0101
1000
0101
0101
0010
0101
0101
1000
,
1100
1100
0010
1100
1100
0001
1100
0100
,
0011
1000
0011
0011
0100
0011
0011
1000
,
0110
0110
0001
0110
0110
1000
0110
0001
,
2002
0000
0000
0000
0000
0000
0000
3003
,
0200
0000
0000
0000
0010
0000
0000
0000
0301
0010
0100
1000
0100
0010
0001
0010
,
1100
0010
0001
0100
1010
0100
0001
1000
0101
1000
0100
0010
1100
0001
0010
0100
,
1001
0100
1000
0001
1010
0100
0011
1000
0100
1000
0100
0010
1001
0010
1000
0010
,
0101
1000
0001
0100
0011
1000
0011
1000
0100
0010
0001
0010
1100
0001
0010
0100
,
1001
0100
0010
0001
0100
0010
1000
0001
0010
0100
1000
0100
1010
0001
0010
0100
,
1001
0010
0100
1010
0001
0100
0011
1000
0100
0010
0001
0100
1001
0010
0100
0010
,
1001
0010
1100
0001
0100
0001
1010
0100
0001
0010
0100
1000
0011
1000
0010
0100
,
1010
0100
1000
0100
0011
0100
1010
0001
0100
0010
1000
0100
1001
0100
0010
0001
,
1100
0001
1000
0001
1000
0001
1000
0001
0010
0100
0010
0100
0010
0100
0010
0100
,
1001
0010
0100
0001
1010
0100
0010
1000
0101
1000
0100
0010
0101
1000
0010
0100
,
0011
0100
1000
0001
1100
0010
1100
0001
0010
0100
1010
0100
0001
0010
0001
0100
,
1010
0001
0100
0010
1001
0100
1001
0100
0010
1000
0100
0010
1001
0010
0001
0100
,
1010
0100
0010
0001
0010
0100
1000
0010
1001
0100
0001
0100
1001
0010
1000
0100
,
1001
0010
0100
1001
0010
1000
0110
1000
0100
0010
0001
0010
1100
0001
0010
0001
,
1100
0010
0101
1000
0100
0010
1001
0010
0100
1000
0001
1000
0110
0001
1000
0010
,
0101
1000
0010
1000
0101
0010
1001
0100
0010
0001
0010
0100
1000
0001
0010
0001
,
1000
0100
0010
0001
0010
0100
1000
0010
1000
0001
0010
0100
0010
0001
1000
0010
,
1100
0010
1100
0001
1100
0010
1100
0001
1100
0010
1100
0001
1100
0010
1100
0001
,
1100
0010
1100
0001
1100
0010
1100
0001
1100
0010
1100
0010
0100
1000
0100
0010
,
1001
0010
0100
1000
0101
1000
0100
0010
1001
0010
0100
1000
0101
0010
0100
0010
,
1001
0010
0100
1000
0001
0100
1010
0001
0010
0100
1000
0100
0011
0100
1000
0010
,
1001
0100
1001
0010
1001
0100
1001
0010
1001
0100
1001
0010
1001
0100
1001
0010
,
1001
0100
1001
0010
1001
0100
1001
0010
1001
0100
1001
0010
0100
1000
0100
1000
,
0011
0100
1000
0001
0110
1000
0001
0010
1100
0001
1000
0001
0110
1000
0100
0010
,
1001
0100
0010
0001
1000
0010
0101
0010
1000
0100
0010
0001
1010
0100
1000
0010
,
0101
0010
0000
0001
0110
1000
0000
1000
,
0011
0100
1000
0010
1001
0100
0010
0001
,
1100
0001
0000
0100
1010
0100
0000
0010
,
1100
0010
0001
1000
0011
0100
0010
1000
,
0101
0010
0000
0001
0110
1000
0000
1000
,
0011
0100
1000
0001
1010
0100
0001
1000
,
0011
0100
0000
0100
1010
0100
0000
0100
,
0011
0100
1000
0010
1000
0001
0100
0010
,
1001
0010
0100
0001
1010
0100
0001
0010
,
1100
0010
0001
1000
0011
0100
0010
1000
,
0110
0001
1000
0010
1100
0010
0001
0010
,
1100
0001
0100
0010
1001
0010
1000
0100
,
0011
0100
0000
0100
1010
0001
0000
0100
,
1010
0001
1000
0010
1100
0010
0100
0001
,
1010
0100
0000
0001
1100
0001
0000
1000
,
0100
0010
0100
0010
0100
0000
0001
0010
0001
0010
0001
0000
0000
0000
0000
0000
,
1001
0010
0100
1000
0100
0010
0001
1000
0001
0100
0010
1000
0110
0001
1000
0100
,
0011
0100
1000
0100
0011
1000
0011
0100
1000
0001
0100
0010
1100
0010
0001
0100
,
1001
0010
0100
1000
0011
1000
0101
0010
1000
0001
0100
0001
1010
0100
0010
0001
,
1100
0010
0001
0010
1100
0010
0100
0010
1100
0010
0001
0010
1100
0010
0100
0010
,
1001
0100
0010
1000
0101
0010
0101
1000
0100
0010
0001
0010
1100
0010
0001
1000
,
0101
0010
1000
0011
1000
0001
0110
1000
0100
0010
0001
0010
1100
0010
0001
1000
,
0101
0010
1000
0001
1100
0001
0110
0001
1000
0001
0100
0010
1100
0010
0001
0010
,
0101
0010
1000
0100
1010
0100
0011
0100
1000
0100
0010
0001
0110
1000
0001
0100
,
1001
0010
1000
0100
0010
0001
0010
0100
1000
0001
0100
0010
1001
0010
0100
1000
,
0110
0001
0010
0100
1010
0001
0110
1000
0100
0010
0001
0100
1010
0100
0001
1000
,
0011
1000
0100
0010
0101
0010
1100
0010
0001
0100
0010
1000
0101
0010
1000
0001
,
0110
1000
0100
0010
0001
0010
0100
1000
0011
1000
0100
1000
0011
0100
0010
0100
,
1001
0100
0010
1000
0011
1000
0101
0010
1000
0100
0010
0001
1100
0001
0010
0100
,
1010
0001
1000
0101
1000
0001
1010
0001
0100
0010
1000
0100
0011
0100
1000
0010
,
0101
0010
1000
0001
1010
0100
0011
1000
0100
0010
0100
0010
1100
0010
0001
0010
,
1100
0001
1000
0001
1000
0001
1010
0100
0010
0100
0010
0100
1001
0010
1000
0010
,
1001
1010
1001
0101
0110
1010
0110
0101
,
0011
1100
0011
0110
1010
1001
0101
1001
,
1001
0100
0010
0001
0010
0100
1000
0010
1000
0001
0100
0001
,
1000
0100
0010
0100
1000
0001
0100
0010
0100
0001
0010
0100
,
1001
0100
0010
0100
1000
0001
0010
0100
1000
0010
0100
0001
,
0010
0000
0000
0000
0100
0000
0000
0000
1000
0000
0000
0000
0100
0000
0000
0000
0010
0000
0000
0000
0001
0000
0000
0000
0010
0000
0000
0100
0000
0000
1000
0000
0000
0100
0000
0000
0010
0000
0000
0001
0000
0000
0010
0000
0000
0100
0000
0000
,
1001
0010
0100
0001
1000
0010
1000
0001
0010
0100
1000
0100
,
0010
0001
0100
0010
1000
0100
0010
0001
1000
0010
1000
0001
,
0110
1000
0010
0100
0001
1000
0010
1000
0100
0010
0001
0010
,
0100
0000
0000
0000
1000
0000
0000
0000
0100
0000
0000
0000
0010
0000
0000
0000
0001
0000
0000
0000
0010
0000
0000
0000
0100
0000
0000
0000
0010
0000
0000
0000
2002
3003
0000
0000
0000
0000
0000
0000
0000
0000
0000
0000
0000
0000
0000
0000
0110
0000
0000
0000
1000
0000
0000
0000
0001
0000
0000
0000
1000
0000
0000
0000
,
0011
0100
1000
0010
0101
0010
1000
0001
1010
0001
0010
0100
0011
1000
0100
0010
,
1001
0010
0101
0010
1000
0100
0010
0001
1100
0001
0010
0100
1001
0100
0001
0100
,
1010
0001
1010
0001
0100
0001
1000
0001
1010
0100
1000
0100
0011
1000
0100
0010
,
0001
0010
0100
1000
0010
0100
0001
0010
1100
0010
0001
0010
0101
1000
0100
0010
,
1001
0100
1010
0001
0100
0010
1000
0100
1001
0010
0100
0010
1001
0100
0010
1100
,
0001
1000
0011
0100
0010
1000
0001
0010
1100
0001
0010
1000
0110
0001
1000
0010
,
0101
0010
1001
0010
0100
0010
0001
1000
0011
1000
0100
0010
0101
1000
0001
1000
,
0001
1000
0001
1000
0100
0010
0100
0010
0100
0010
0100
0010
1001
0100
0001
0010
,
1001
0100
0010
1000
0101
0010
0100
0001
1010
0001
0010
0100
1010
0001
0100
0011
,
1000
0100
0011
1000
0010
0100
0001
0010
1100
0010
0001
0010
1001
0100
1000
0010
,
0101
1000
0011
0100
1000
0100
0010
0001
1100
0001
0010
0100
1001
0100
0001
0100
,
0001
0100
0001
0100
0011
0100
1000
0100
0011
1000
0100
0010
1001
0010
0100
1001
,
0100
0010
1001
0100
0001
1000
0100
0010
1100
0010
0100
1000
0011
1000
0100
0010
,
1001
0100
0011
1000
0100
0010
0001
0100
1010
0100
0001
1000
0011
1000
0001
0100
,
1010
0100
1010
0100
0010
0001
1000
0100
0010
0001
0010
0100
1010
0100
0001
0100
,
0001
0100
0001
0100
0010
0100
0010
0100
0010
0100
0010
0100
1010
0001
1010
0100
,
1010
0001
1010
0100
1010
0001
1010
0100
1010
0001
1010
0100
1010
0001
1010
0100
,
1010
0001
1010
0100
1010
0001
1010
0100
0001
1000
0100
0010
1001
0100
0010
1000
,
0011
0100
0001
1000
0110
0001
0100
0010
1100
0010
0001
0100
1001
0010
0100
1000
,
0100
0010
1001
0010
0100
1000
0100
0010
0101
0010
0100
1000
0011
0100
0011
1000
,
0011
0100
0011
1000
0011
0100
0011
1000
0011
0100
0011
1000
0011
0100
0011
1000
,
0011
0100
0011
1000
0011
0100
0011
1000
0001
0100
0010
1000
0011
0100
0010
0001
,
1100
0010
0100
0001
1010
0100
0010
0100
1001
0010
0100
0010
1001
0100
0010
0001
,
1000
0100
0010
0001
1000
0100
0010
0001
1000
0100
0010
0001
1010
0000
0100
0000
,
0000
1000
0110
0001
0000
0001
1100
0010
,
0001
0100
1001
0010
0100
1000
0011
1000
,
0000
0010
0101
0010
0000
0100
0011
0100
,
1000
0001
1100
0010
0100
0001
1010
0100
,
0000
1000
0110
0001
0000
0001
1100
0010
,
0001
1000
0101
0010
1000
0001
1100
0010
,
0000
0010
0101
0010
0000
0010
1100
0010
,
0001
0100
0001
1000
0010
0100
1001
0100
,
0010
1000
0101
0010
1000
0100
0011
0100
,
1000
0001
1100
0010
0100
0001
0110
1000
,
0001
0100
0011
0100
1000
0100
0011
1000
,
0010
0100
1001
0100
0001
0010
1100
0010
,
0000
0010
0101
1000
0000
0010
0101
1000
,
0001
0100
0011
0100
0010
1000
0101
0010
,
0000
0000
1000
0000
0011
0000
1000
0000
0000
0000
0001
0000
0010
1000
0010
1000
,
0010
0000
0100
0001
0010
0100
1000
0000
0000
0000
0000
0000
1001
0100
0010
0001
,
0010
0100
1000
0001
1000
0010
0100
0001
0110
1000
0001
0010
1100
0010
0001
0010
,
1100
0001
1100
0010
0001
1000
0010
0100
0011
0100
1000
0010
1001
0100
0010
0001
,
1100
0001
1010
0100
0001
1000
0010
1000
0101
0010
0100
1000
0011
0100
1000
0100
,
0011
0100
0010
0100
0011
0100
1000
0100
0011
0100
0010
0100
1001
0010
0100
0001
,
1010
0100
1010
0001
0010
0100
1000
0100
0011
0100
1000
0001
1010
0100
0001
1100
,
0001
1000
0110
0001
0010
0100
1000
0100
0011
0100
1000
0001
1010
0100
0001
1000
,
0011
1000
0110
1000
0001
1000
0010
0100
0011
0100
1000
0100
1010
0100
0001
0010
,
0101
0010
1100
0010
0001
0010
0100
1000
0110
0001
1000
0010
1001
0100
0001
0010
,
0100
1000
0100
0010
0001
1000
0010
0100
1001
0100
0010
0001
0110
1000
0100
0010
,
0101
1000
0110
0001
0010
0100
1000
0010
0101
0010
1000
0001
1100
0001
0010
0100
,
1010
0100
0011
0100
1000
0010
0100
0001
1010
0100
0001
1000
0110
0001
0010
0100
,
1000
0100
0010
0001
1100
0001
0010
0001
1100
0010
0100
0010
1001
0010
0100
0001
,
1100
0001
1010
0100
0001
0010
0100
1000
0011
1000
0100
0010
0101
1000
0001
1010
,
0001
1000
0101
1000
0010
0100
0001
0010
1100
0010
0001
0100
1010
0100
0001
1000
,
0101
0010
1100
0001
0010
0100
0010
0100
0011
0100
1000
0100
0011
1000
0001
1000
,
0001
1000
0101
0010
0100
0010
0100
0010
1001
0100
0001
0100
1001
0000
0001
0000
,
1010
0100
0011
0010
1001
0010
0100
1010
,
1001
0101
0110
1001
1010
0101
1001
0100
,
0011
0100
1010
0100
0011
1000
0100
0011
,
1010
1001
0101
1100
1010
0101
1010
0100
,
0011
0100
1001
0010
1100
0001
1000
0110
,
1010
0110
0101
1001
0110
1001
2010
0001
,
0100
0000
0010
0000
0100
0000
0001
0000
0100
0000
0010
0000
3001
0010
0100
1000
,
0001
0010
0100
1000
0100
0000
0010
0000
0001
0000
0010
0000
1001
0000
0100
0000
,
0001
0101
0000
1010
1000
1001
0000
1001
,
0001
0101
0000
1000
0100
0001
0110
0001
,
1000
0101
0000
0110
1000
0101
0000
0110
,
0100
0101
0000
0000
1001
0000
1001
0100
,
0010
0011
0000
0011
0010
0110
0000
0110
,
0100
1100
0000
1000
0010
1000
0101
0001
,
1000
1010
0000
0101
0010
0102
0000
0000
,
0000
1003
0000
1001
,
1000
1000
1000
1000
,
1000
1000
1000
0100
,
0100
0100
0100
0100
,
0100
0100
0100
1010
,
1001
0010
1001
0000
0101
0010
0101
0000
,
0110
1000
0110
0000
1010
0000
0101
0000
,
0011
0100
1010
0000
0101
1000
0110
0000
,
1010
0001
1100
0000
0011
0000
0110
0000
,
0101
1000
1001
0000
0110
0001
1010
0000
,
0101
1000
0110
0000
0110
0000
1001
0000
,
0011
0100
1100
0000
1010
0010
1100
0000
,
0011
0010
0101
0000
1010
0000
0101
0000
,
1001
0100
1010
0000
0101
0010
1001
0000
,
0101
0010
1100
0000
0011
0000
1100
0000
,
0011
0100
1001
0000
0101
0001
1100
0000
,
0011
1000
0011
0000
0110
0000
1001
0100
,
0011
0100
1000
0010
1001
0100
0010
0001
,
1100
0010
0100
0001
1010
0100
1001
0010
,
1100
0010
0001
0100
0011
0100
1000
0001
,
1100
0010
1000
0001
1010
0100
1001
0010
,
1001
0100
0010
0001
0110
1000
0001
1000
,
0011
1000
0001
0100
1010
0100
0011
0100
,
1010
0100
0010
0001
0110
1000
0101
0110
,
1001
0000
1010
0000
1001
0000
0101
0000
1001
0000
0110
0000
1001
0100
0011
0100
,
1001
0000
0000
0000
1001
0010
1100
0010
1001
0000
0110
0000
0110
0001
1010
0001
,
0110
0000
0000
0000
0101
1000
0110
1000
0101
0000
0110
0000
0011
1000
0101
1000
,
0011
0000
0000
0000
1010
0100
0011
0100
1010
0000
0101
0000
0101
0010
0101
1000
,
0110
0000
0000
0000
0110
0001
1010
0100
1001
0000
0110
0000
1010
0100
0001
0010
,
1100
0010
1000
0100
0011
0100
1000
0010
0101
0010
1000
0100
1010
0100
0001
0010
,
1100
0010
1000
0100
0011
0100
1000
0010
0101
0010
1000
0100
1010
0100
0001
0010
,
1100
0010
1000
0100
0011
0100
1000
0010
0101
0010
1000
0100
1001
0010
0100
1000
,
0001
0010
0100
1000
0001
0010
0100
1000
0001
0010
0100
1000
0011
0000
0010
0000
,
0010
0110
0000
0110
0100
1100
0000
1010
,
0010
0011
0000
0010
0100
0001
1010
0100
,
0010
0101
0000
0101
0010
1001
0000
1010
,
0100
0011
0000
0000
1010
0000
0101
0001
,
0010
0110
0000
1100
1000
1010
0000
0101
,
0001
1001
0000
1000
0010
0100
0101
0010
,
1000
1001
0000
0100
0010
0001
1100
0010
,
0100
0101
0000
0001
0010
0100
1001
0010
,
0100
0101
0000
0110
1000
1001
0000
0101
,
0010
1100
0000
0001
0010
0000
1100
1000
,
0010
1010
0000
0101
0010
1001
0000
1010
,
0100
0011
0000
0010
1000
0000
0102
0000
,
0010
0010
0013
2010
,
0010
0010
3010
0200
,
0310
1000
0200
0000
0310
0001
0010
0100
,
1000
0010
0000
0100
0001
1000
0020
0000
,
0230
0302
2003
3200
,
0000
0320
0000
0000
0000
0030
0002
0000
,
0023
0230
2300
0000
3200
0320
0032
0023
,
0000
0230
0300
2000
0000
3100
0010
0001
,
0010
0100
1000
0010
0100
0001
1000
0010
,
0100
0000
0001
0000
0020
0000
0000
0000
0000
0000
0030
0000
1000
0100
0010
0010
,
0001
0001
0010
0010
0010
0010
0001
0001
0010
0010
0010
0010
0100
0100
1000
1000
,
0010
0010
0100
0100
0000
0000
0100
0100
0020
0000
0000
0000
0130
0001
1000
1000
,
0100
0100
0010
0010
0010
0010
0100
0100
0010
0010
0010
0010
0100
0100
0001
0001
,
0010
0010
0100
0100
0000
0000
0100
0100
2000
0000
0000
0000
3100
0010
0001
0010
,
0100
0000
0000
0100
0000
0000
1000
0000
0000
1000
0000
0000
1000
0000
0000
1000
0000
0000
0100
0000
0000
0100
0000
0000
0010
0000
0000
0010
0000
0000
0010
0000
0000
0010
0000
0000
1001
0000
0000
0000
0000
0000
0000
0000
0110
0000
0000
0000
,
0000
0000
0000
0000
1100
0000
0000
0000
0000
0000
0000
0000
1001
0000
0000
0000
0000
0000
0000
0000
0101
0000
0000
0000
0000
0000
0000
0000
0110
0000
0000
0000
0000
0000
0000
0000
0001
0000
0000
0010
0000
0000
0100
0000
0000
1000
0000
0000
,
0010
1000
0001
0100
0010
1000
0001
0010
0100
1000
0100
0010
0001
0100
0010
1000
,
0010
0100
0001
0010
0200
0000
0000
0000
0000
0000
0000
0000
1300
0010
0100
0001
,
0100
0010
1000
0010
0100
0001
0100
0010
1000
0010
0100
0001
1000
0100
0010
0001
,
0010
0100
1000
0100
0010
0001
0010
0100
1000
0100
0010
0001
1000
0001
1000
0010
,
1000
0001
1000
0010
1000
0001
1000
0010
1000
0001
1000
0010
0100
0001
0100
0010
,
0100
0001
0100
0010
0100
0001
0100
0010
0100
0001
0100
0010
1000
0100
0010
0001
,
1000
0010
0100
0001
1000
0100
0010
0001
1000
0010
0100
0001
0010
0100
1000
0100
,
0010
0001
0010
0100
1000
0100
0010
0001
0100
0010
1000
0001
1000
0100
0010
0001
,
0100
0010
1000
0100
0010
0001
0100
0010
1000
0100
0010
0001
1000
0010
1000
0010
,
1000
0001
0010
0100
1000
0010
1000
0010
1000
0001
0010
0100
2001
0000
0000
0000
,
0000
0000
0000
0000
3001
0010
0200
0000
,
0000
2300
0000
0000
3200
0000
0320
0000
,
0000
0032
0000
0000
0000
0000
0000
0020
,
0000
0000
0030
0020
0000
0030
0203
0000
,
0000
0000
0000
0300
0010
1000
0201
0000
,
0000
0302
0000
0000
0023
0000
0230
0000
,
1300
0100
0000
0100
1000
0000
0020
0000
,
0000
0230
0302
0203
,
0000
0000
0000
0000
0310
1000
0002
0000
,
0000
0000
0000
0000
0000
0003
0020
0000
,
0000
0000
0000
0000
0000
0000
0130
1000
0100
0000
0010
0000
0002
0000
0000
0000
,
0000
0000
0023
0000
0000
0000
0130
1000
,
0100
0010
0001
0000
0100
0000
0010
0000
1000
0000
0001
0000
0010
0100
1000
0000
,
0100
0000
0010
0000
0001
0000
1000
0000
0010
0000
1000
0000
0001
0100
0010
1000
,
0010
0100
0001
1000
0010
1000
0001
0100
0010
1000
0010
0100
0001
0010
0100
1000
,
0001
0010
0100
1000
0020
0000
0000
0000
0000
0000
0000
0000
0130
0000
0001
0000
,
2000
0000
3100
0000
0010
0000
0002
0000
0013
0000
0100
0000
2000
0000
3100
0010
,
0001
1000
0010
1000
0001
0100
0010
0100
0001
0010
0100
1000
0100
0000
0010
0000
,
0002
0000
0000
0013
0000
0000
0100
0000
0000
2000
0000
0000
3010
0000
0000
0100
0000
0000
0002
0000
0000
0000
0023
0000
,
0000
0000
0000
0000
0230
0000
0000
0000
0000
0000
0000
0000
2300
0000
0000
0000
0000
0000
0000
0000
0000
0000
0000
0000
0000
0000
0000
0000
0000
0000
0000
0000
0000
0000
0000
0000
3100
0000
0000
0010
0000
0000
0100
0000
0000
1000
0000
0000
,
0010
1000
0001
0010
0100
0010
0001
0100
0010
0100
0001
1000
0010
1000
0001
0010
,
0100
1000
0100
0010
0001
1000
0010
0100
0002
0000
0000
0000
0013
0100
1000
0100
,
0010
0001
1000
0010
0100
0001
0100
0001
1000
0010
1000
0001
0010
0100
0010
0100
,
0010
0100
1000
0100
0010
0001
0010
0001
0010
0100
1000
0010
0200
0000
0000
0000
,
0000
0000
0000
0000
0301
0010
2000
0000
,
0000
3200
0000
0000
0320
0000
0032
0000
,
0000
0023
0030
0000
0200
0000
0320
0000
,
0000
0000
0000
0000
0031
0010
0200
0000
,
1300
0200
0300
0010
0001
2000
0000
3001
,
1000
0100
0010
0001
0100
0010
1000
0100
0010
0001
0100
0010
1000
0100
0010
0001
,
0010
0100
1000
0100
0010
0001
0010
0100
1000
0100
0010
0100
1000
0010
0100
0001
,
1000
0010
0100
0001
1000
0010
0100
0010
,
0100
0001
0010
0100
1000
0100
0020
0000
,
0030
0002
0000
0013
0100
1000
0010
0010
,
0001
0000
0010
0000
0100
0000
1000
0000
0000
0000
0000
0000
0100
0000
0000
0000
0000
0000
0100
0000
0000
0000
0000
0000
1000
0000
0100
0000
0010
0000
0001
0000
0000
0000
0000
0000
0001
0000
0000
0010
0000
0000
0100
0000
0000
1000
0000
0000
,
0001
0010
0100
1000
0001
0010
0100
1000
0001
0010
0100
1000
0010
0100
0001
0100
,
0010
0100
0001
0010
0100
1000
0100
1000
0100
1000
0100
1000
0010
0100
0001
0100
,
0010
0100
0001
1000
0010
0100
0010
0100
0010
0100
0010
0100
0001
0010
0100
1000
,
0010
1000
0001
0100
0010
1000
0001
0010
0100
1000
0100
0010
0001
0100
0010
0100
,
0001
1000
0010
1000
0001
0100
0010
0100
0001
1000
0010
1000
0202
0000
0000
0000
,
0000
0000
0000
0000
,
0000
0000
0000
0000
0000
0303
1001
0000
,
0000
0000
0000
0000
,
0000
0000
0000
0000
0000
0000
0000
0000
0000
0000
0000
0000
1001
0100
0010
1000
,
0101
0010
0101
1000
0100
0010
0001
0010
1100
0010
0001
1000
0101
0010
1000
0011
,
1000
0001
0110
1000
0100
0010
0001
0010
1100
0010
0001
1000
0101
0010
1000
0001
,
1100
0001
0110
0001
1000
0001
0100
0010
1100
0010
0001
0010
0101
0010
1000
0100
,
1010
0100
0011
0100
1000
0100
0010
0001
0110
1000
0001
0100
1001
0010
1000
0100
,
0010
0001
0010
0100
1000
0001
0100
0010
1001
0010
0100
1000
0110
0001
0010
0100
,
1010
0001
0110
1000
0100
0010
0001
0100
1010
0100
0001
1000
0011
1000
0100
0010
,
0101
0010
1100
0010
0001
0100
0010
1000
0101
0010
1000
0001
0110
1000
0100
0010
,
0001
0010
0100
1000
0011
1000
0100
1000
0011
0100
0010
0100
1001
0100
0010
1000
,
0011
1000
0101
0010
1000
0100
0010
0001
1100
0001
0010
0100
1010
0001
1000
0101
,
1000
0001
1010
0001
0100
0010
1000
0100
0011
0100
1000
0010
0101
0010
1000
0001
,
1010
0100
0011
1000
0100
0010
0100
0010
1100
0010
0001
0010
1100
0001
1000
0001
,
1000
0001
1010
0100
0010
0100
0010
0100
1001
0010
1000
0010
1001
0100
0010
0100
,
1000
0100
0010
0001
1000
0010
1000
0001
1100
0010
0100
0001
1100
0010
1000
0001
,
1010
0100
1001
0100
0010
0001
1000
0010
1100
0001
0010
0100
1010
0001
0100
0010
,
1001
0100
1010
0001
0100
0010
1000
0100
0011
0100
1000
0010
1100
0001
1000
0010
,
1000
0001
1000
0010
0100
0001
1000
0010
1100
0001
0010
0100
1010
0001
1000
0010
,
1100
0010
1001
0100
1000
0100
0010
0001
1100
0010
1000
0001
1010
0100
0010
0001
,
1010
0100
1001
0010
0100
0001
0100
0010
1001
0100
0010
0001
1100
0010
1000
0001
,
1100
0010
0101
1000
0100
0010
0001
0100
1010
0001
0100
0010
1100
0001
1000
0001
,
1000
0100
0010
0001
0010
0100
1000
0100
0010
0001
0010
0100
1001
0000
0010
0000
,
0100
0001
1010
0100
0010
0001
1100
0001
,
0010
0100
1001
0010
0100
0001
0110
1000
,
0001
1000
0101
0010
1000
0001
0110
1000
,
0100
0010
1001
0100
1001
0010
1001
0100
,
0010
0001
1100
0001
0010
0100
0011
0100
,
0010
0001
1100
0001
0010
0100
1001
0010
,
0100
0001
1010
0100
0001
0010
1100
0100
,
0100
0011
0010
0010
1100
0010
1001
0010
,
0100
0000
0001
0000
1100
0010
1000
0000
0001
0000
0010
0000
1100
0000
0010
0000
,
0001
0000
1000
0000
0011
0100
0010
0000
0001
0000
0010
0000
0101
1000
0100
0000
,
0010
0000
0001
0000
1010
0000
0100
0000
0010
0000
0001
0000
1010
0100
0010
0000
,
0001
0000
0000
0000
0000
0000
1000
0000
0000
0100
0000
0000
1000
0000
0000
0000
0100
0000
0000
0000
0010
0000
0000
0000
0001
0000
0000
0000
0010
0000
0000
0000
0100
0000
0000
0000
1001
0000
0000
0000
0010
0000
0000
0000
0100
0000
0000
0000
,
0001
0000
0000
0000
0010
0000
0000
0000
0100
0000
0000
0000
1001
0000
0000
0010
0000
0000
0100
0000
0000
0000
0000
0000
0001
0000
0000
0000
0000
0000
0100
0000
0000
0000
0000
0000
0011
0000
0000
0000
0000
0000
1000
0000
0000
0000
0000
0000
,
0001
0000
0010
0000
0101
1000
0010
0000
0100
0000
0001
0000
1100
0001
1000
0000
,
0100
0000
0010
0000
1001
0000
0010
0000
0100
0000
1000
0000
0101
0010
0100
1000
,
0001
0000
0000
0100
0000
0000
0011
0000
0000
1000
0000
0000
0001
0000
0010
0000
0100
0000
1001
0000
0000
0010
0000
0000
,
0100
0000
0001
0000
1010
0100
0010
0000
0100
0000
1000
0000
0101
0000
0010
0000
,
0001
0000
1000
0000
1010
0100
0001
0000
0010
0000
0100
0000
1001
0100
0010
0000
,
0100
0001
1100
0010
0001
0100
1010
0100
,
0000
0110
0000
0001
0110
0000
1001
0010
,
0100
0000
1000
0000
0011
0100
0001
0000
0010
0000
0100
0000
1010
0000
0100
0000
,
0010
0000
0001
0000
1010
0100
1000
0000
0100
0000
0010
0000
0101
1000
0010
0000
,
0010
0000
0000
0100
0000
0000
1010
0000
0000
0001
0000
0000
0100
0000
0000
0010
0000
0000
1001
0000
0010
0000
0100
0000
,
1000
0000
0100
0000
0010
0000
0101
0000
1000
0000
0010
0000
0100
0000
0001
0000
1000
0000
0101
0000
0000
0010
0000
0000
,
1000
0000
0001
0000
1001
0100
1000
0000
0100
0000
0010
0000
1001
0000
0100
0000
,
0010
0000
1000
0000
0011
0100
0001
0000
0100
0000
0001
0000
1010
0100
1000
0000
,
0100
0010
1001
0100
0010
1000
0101
0010
,
0000
0110
0000
0100
1010
0000
0011
0100
,
1000
0000
0010
0000
1001
0010
0100
0000
0001
0000
0100
0000
0011
0000
1000
0000
,
0001
0000
0010
0000
1100
0010
0100
0000
0010
0000
0001
0000
1010
0001
0100
0000
,
0010
0000
1000
0000
0101
0000
1000
0000
0010
0000
1000
0000
0001
0010
0001
0100
,
0001
0000
0000
0000
1000
0100
1000
0010
1000
0000
0000
0000
0011
0000
0100
0000
,
0010
1000
0101
0010
1000
0100
0011
0100
,
1000
0001
1010
1001
0110
1001
0110
0001
,
1000
0010
1100
0001
0010
0100
1001
0010
,
1000
0000
0000
0001
0000
0000
1010
0000
0100
0000
0001
0000
1010
0000
0100
0000
0001
0000
1010
0000
0000
0001
0000
0000
,
1000
0100
0011
0100
1000
0010
0101
0010
,
1000
0001
1010
0101
1001
0110
0202
0000
,
0000
0303
2020
0000
0000
3030
2002
0000
,
0000
3003
0220
0000
0000
0330
2002
0000
,
0000
0000
0000
0000
,
0000
0000
0000
0000
,
0000
0000
0000
0000
,
0000
0000
0000
0000
,
0000
0000
0000
0000
,
0000
0000
0000
0000
,
0000
0000
0000
0000
,
0000
0000
0000
0000
0000
0000
0000
0000
0000
0000
0000
0000
3003
0000
0001
0100
,
0010
0000
0100
0000
0001
0000
0010
0000
0100
0000
1000
0000
0100
0000
0010
0000
0001
0000
0010
0000
0100
1000
0000
0000
0000
0000
0000
0000
0000
0001
0010
0000
,
0000
0000
0000
0000
,
2002
0000
0000
0000
,
3003
0000
0000
0000
;
