#TITLE:Our Generation;
#SUBTITLE:;
#ARTIST:Imil & Sunhiausa;
#TITLETRANSLIT:;
#SUBTITLETRANSLIT:;
#ARTISTTRANSLIT:;
#CREDIT:Cave;
#BANNER:generation-bn.jpg;
#BACKGROUND:generation-bg.jpg;
#LYRICSPATH:;
#CDTITLE:;
#MUSIC:DCRPS028 - 04. Imil & Sunhiausa - Our Generation.ogg;
#OFFSET:0.013;
#SAMPLESTART:98.681;
#SAMPLELENGTH:12.000;
#SELECTABLE:YES;
#BPMS:0.000=207.000;
#STOPS:;
#BGCHANGES:;
// cache tags:
#FIRSTBEAT:16.000;
#LASTBEAT:558.000;
#SONGFILENAME:Songs/SPEEEDCOOOORE 3/Our Generation - [Cave]/ourgeneration.sm;
#HASMUSIC:1;
#HASBANNER:1;
#MUSICLENGTH:163.100;
// end cache tags

//---------------dance-single - Cave----------------
#NOTES:
     dance-single:
     Cave:
     Challenge:
     11:
     0.902,1.000,0.227,0.466,0.242,917.000,37.000,76.000,17.000,0.000:
0000
0000
0000
0000
,
0000
0000
0000
0000
,
0000
0000
0000
0000
,
0000
0000
0000
0000
,
0001
1000
0010
1000
0001
0100
0010
1000
,
0100
1000
0001
0010
0100
0010
0001
1000
,
0100
1000
0001
1000
0010
0100
0001
0010
,
0001
0000
0000
0000
0000
0000
1000
0000
0000
0000
0000
0000
0100
0000
0000
0000
0000
0000
1000
0000
0000
0000
0000
0000
0001
0000
0000
0000
0000
0000
1000
0000
0000
0010
0000
0000
1000
0000
0000
0000
0000
0000
0001
0000
0100
0000
0001
0000
,
0100
0010
1000
0100
1000
0001
0010
0100
,
1000
0010
0100
0001
0010
0001
1000
1000
,
1000
0010
0100
0001
0010
0100
1000
0001
,
0100
0010
0100
0001
2001
0000
3000
0000
,
1000
0001
0100
0001
1000
0010
0100
0001
,
0010
0001
1000
0100
0010
0100
1000
0001
,
0010
0001
1000
0001
0100
0010
1000
0100
,
1000
0001
0010
0100
1100
0000
1100
0000
,
0001
1000
0010
1000
0001
0100
0010
1000
,
0100
0010
0100
1000
0001
0100
0001
1000
,
0010
0100
0001
1000
0010
0100
0010
1000
,
0200
0000
03M0
00M0
,
1000
0001
0100
0010
1000
0100
0010
0001
,
0100
0010
0100
0001
0101
0000
0101
0000
,
1000
0010
0100
0001
0010
0100
1000
0001
,
0010
0000
0001
0000
0100
0000
0010
0000
1000
0100
0010
0001
0100
0010
0100
0001
,
1000
0010
0100
0001
1000
0010
1000
0001
,
1000
0010
0100
0001
0010
0001
1000
0010
,
0110
0110
1010
1010
,
0002
0000
00M0
00M3
,
1001
0000
0101
0000
,
0110
0000
1010
0000
,
1001
0000
1100
0000
,
1010
0000
1001
0000
,
0011
0000
0000
0000
,
0000
0000
0000
0000
,
0000
0000
0000
0000
,
0000
00M0
M000
0M00
,
0002
0000
0000
0000
,
0000
0000
1003
0100
,
0020
0000
0000
0000
,
0000
0000
0000
0030
,
0002
0000
0000
0000
,
0000
0000
1003
0010
,
0200
0000
0000
0000
,
0000
0000
0000
0000
,
0300
0000
0000
0000
,
0000
0000
0000
0000
,
0000
0000
0000
0000
,
0000
00M0
M000
0M00
,
0001
0010
0100
1000
0001
1000
0001
1000
,
0001
0100
0010
1000
0010
1000
0001
0010
,
0100
1000
0001
1000
0001
1000
0001
1000
,
0010
0100
0001
0001
0010
0100
1000
0001
,
0100
0010
1000
0100
1000
0100
1000
0100
,
0010
0001
1000
0001
1000
0001
0100
0010
,
1000
0100
0010
0100
1000
0100
1000
0100
,
1000
0010
0010
0100
0001
1000
0100
0010
,
0001
1000
0100
0010
0100
0010
0100
0010
,
0001
1000
0100
0010
0100
0010
0001
1000
,
0010
0100
0001
1000
0001
1000
0001
1000
,
0010
0100
0001
0001
0010
0100
1000
0001
,
0100
0010
1000
0001
1000
0001
1000
0100
,
0010
0001
1000
0001
1000
0001
0100
0010
,
1000
0001
1000
0001
1000
0001
1000
0001
,
1000
0010
0100
0001
0020
0000
0000
0000
,
0031
0100
0010
1000
0010
1000
0010
1000
,
0001
0000
0000
0000
0000
0000
0010
0000
0000
0000
0000
0000
0100
0000
0000
0000
0000
0000
1000
0000
0000
0000
0000
0000
0100
0000
0000
0000
0000
0000
1000
0000
0000
0001
0000
0000
1000
0000
0000
0000
0000
0000
0001
0000
0100
0000
0001
0000
,
0100
0010
1000
0001
1000
0001
1000
0001
,
0010
0000
0100
0000
1000
0000
1000
0000
1001
0000
0000
0000
0001
0100
0010
1000
,
0001
0100
0001
0010
0001
0010
0001
0010
,
0100
0000
1000
0000
0001
0000
1000
0000
0001
0100
0010
1000
0001
0100
0010
0100
,
0001
0010
0100
1000
0001
0100
0001
0100
,
0010
0000
0000
1000
0001
1000
0001
0000
0000
1000
0100
1000
0100
0000
0000
0010
0001
0010
0001
0000
0000
1000
0001
1000
,
0001
0100
0010
1000
0001
1000
0001
1000
,
0100
0000
0000
0000
0000
0000
0010
0000
0000
0000
0000
0000
0001
0000
0000
0000
0000
0000
1000
0000
0000
0000
0000
0000
0001
0000
0000
0000
0000
0000
0100
0000
0000
0001
0000
0000
0100
0000
0000
0000
0000
0000
0010
0000
1000
0000
0010
0000
,
1000
0001
0010
0100
0010
0100
0010
0100
,
1000
0000
0010
0000
0100
0000
0100
0000
0001
1000
0100
1000
0001
0100
0010
1000
,
0001
0010
0100
1000
0100
1000
0100
1000
,
0001
0000
0100
0000
0010
0000
1000
0000
0001
0010
0001
0100
0010
1000
0010
1000
,
0001
1000
0100
0010
0001
1000
0001
1000
,
0001
0100
0100
0010
1010
0000
0000
0000
,
1000
0001
0010
0100
0010
0100
0010
0100
,
1000
0001
0100
0010
0100
0010
1000
0001
,
1000
0100
0010
0001
0010
0001
0010
0001
,
0100
0000
0010
0000
1000
0000
1000
0000
0100
0000
0000
0000
1000
0100
0010
0001
,
1000
0010
0100
0001
0100
0001
0100
0001
,
1000
0100
0010
0001
0010
0001
0100
0010
,
1010
1100
0011
0101
,
00M0
00M0
2001
0000
,
3200
0300
0020
0030
0002
0003
2000
3000
0002
0003
2000
3000
0002
0003
2000
3000
,
0020
0030
0200
0300
0002
0003
2000
3000
0002
0003
2000
3000
0200
0300
0020
0030
,
0002
0003
0200
0300
0020
0030
2000
3000
0020
0030
2000
3000
0020
0030
2000
3000
,
0200
0300
0020
0030
0002
0003
0002
0003
2000
3000
0020
0030
0200
0300
0002
0003
,
2000
3000
0200
0300
0020
0030
0002
0003
0020
0030
0002
0003
0020
0030
0002
0003
,
2000
3000
0020
0030
0200
0300
0002
0003
0200
0300
0002
0003
0020
0030
0200
0300
,
2000
3000
0020
0030
0200
0300
0002
0003
2000
3000
0200
0300
2000
3000
0200
0300
,
0020
0030
0002
0003
0002
0003
2000
3000
0200
0300
2000
3000
0020
0030
0200
0300
,
0001
0010
0100
1000
0100
1000
0100
1000
,
0001
0100
0010
1000
0010
1000
0100
0010
,
0001
1000
0010
0100
0010
0100
0010
0100
,
0001
0010
0100
0100
1000
0001
0100
0010
,
1000
0100
0010
0001
0010
0001
0010
0001
,
1000
0010
0100
0001
0100
0001
0010
0100
,
1000
0001
1000
0001
1000
0001
1000
0001
,
1000
0010
0100
0001
0010
0100
1000
0010
,
0100
0001
1000
0001
1000
0001
1000
0001
,
0010
0000
0100
0000
1000
0000
0001
0000
1000
0010
0100
0001
1000
0001
0010
0100
,
1000
0001
0100
0010
0100
0010
0100
0010
,
1000
0000
0100
0000
0010
0000
0010
0000
0001
1000
0010
0100
0001
1000
0001
1000
,
0100
0010
0001
0100
0001
0100
0001
0100
,
0010
0000
1000
0000
0100
0000
1000
0000
0001
0010
0100
1000
0001
0010
0001
1000
,
0100
0011
1001
0101
,
1100
0011
1002
0000
,
1003
0001
0010
0001
0100
0010
0100
0010
,
1000
0001
0010
0100
1000
0100
1000
0001
,
0100
0010
1000
0010
1000
0010
1000
0001
,
0010
0000
0100
0000
1000
0000
1000
0000
0001
0010
0001
1000
0010
0100
0001
1000
,
0001
0010
0100
1000
0100
1000
0100
1000
,
0001
0100
0010
1000
0010
1000
0100
0010
,
0001
0010
0100
1000
0001
0100
0001
0100
,
0010
1000
0010
0100
0001
1000
0010
0100
0010
1000
0001
0010
0100
1000
0010
0100
,
0001
1000
0100
0010
0100
0010
0100
0010
,
0001
1000
0010
0100
0010
0100
0001
0010
,
0100
1000
0010
1000
0010
1000
0010
0100
,
0001
0000
0000
0000
0000
0000
1000
0000
0000
0000
0000
0000
0100
0000
0000
0000
0000
0000
0100
0000
0000
0000
0000
0000
0010
0000
0000
0000
0000
0000
0001
0000
0000
1000
0000
0000
0001
0000
0000
0000
0000
0000
1000
0000
0010
0000
1000
0000
,
0010
0100
0001
0010
0001
0010
0001
0010
,
0100
1000
0001
1000
0001
1000
0010
0100
,
0101
0000
1010
0000
,
1001
0000
0000
0000
,
1000
0100
1000
0100
1000
0100
1000
0100
1000
0001
0100
0010
1000
0001
0100
0001
,
1000
0010
0100
0010
0110
0000
0110
0000
,
1000
0001
1000
0100
0010
0100
1000
0001
,
0010
0000
0000
0000
0000
0000
0001
0000
0000
0000
0000
0000
0100
0000
0000
0000
0000
0000
0001
0000
0000
0000
0000
0000
1000
0000
0000
0000
0000
0000
0001
0000
0000
0010
0000
0000
0001
0000
0000
0000
0000
0000
1000
0000
0010
0000
1000
0000
,
0010
0100
0001
0010
0001
1000
0100
0010
,
0001
0100
0010
1000
0100
1000
0001
0100
,
0010
1000
0010
1000
0010
0000
0100
0000
0001
1000
0001
1000
0001
0000
0100
0000
,
0220
0000
0330
0000
,
0000
000M
0000
0000
,
M000
0000
0000
0000
,
0000
00M0
0000
0000
,
0M00
0000
000M
0000
;
