#TITLE:Tetris (Techno Edit);
#SUBTITLE:;
#ARTIST:Unknown artist (Black Man Ed);
#TITLETRANSLIT:;
#SUBTITLETRANSLIT:;
#ARTISTTRANSLIT:;
#CREDIT:;
#BANNER:banner.jpg;
#BACKGROUND:Tetris BG.jpg;
#LYRICSPATH:;
#CDTITLE:cdtitle.png;
#MUSIC:Tetris - Techno Edit.mp3;
#OFFSET:-0.040;
#SAMPLESTART:48.000;
#SAMPLELENGTH:11.800;
#SELECTABLE:YES;
#BPMS:0.000=143.900;
#STOPS:;
#BGCHANGES:32.000=Tetris 01.jpg=1.000=1=0=1,
64.000=Tetris 03.jpg=1.000=1=0=1,
96.000=Tetris 04.jpg=1.000=1=0=1,
128.000=Tetris 05.jpg=1.000=1=0=1,
160.000=Tetris 06.jpg=1.000=1=0=1,
192.000=Tetris 07.jpg=1.000=1=0=1,
224.000=Tetris 08.jpg=1.000=1=0=1,
256.000=Tetris Last.jpg=1.000=1=0=1,
260.000=Tetris BG.jpg=1.000=0=0=1,
99999=-nosongbg-=1.000=0=0=0 // don't automatically add -songbackground-
;
// cache tags:
#FIRSTBEAT:0.000;
#LASTBEAT:260.500;
#SONGFILENAME:Songs/Keys of Flames/Tetris (Techno Edit) (skipsmusic)/Tetris - Techno Edit.sm;
#HASMUSIC:1;
#HASBANNER:1;
#MUSICLENGTH:110.915;
// end cache tags

//---------------dance-single - ----------------
#NOTES:
     dance-single:
     :
     Easy:
     5:
     0.424,0.527,0.712,0.180,0.000,230.000,79.000,20.000,0.000,0.000:
0000
0000
0000
0000
,
0000
0000
0000
0000
,
0000
0000
0000
0000
,
0000
0000
0000
0000
,
0110
0010
1000
0010
,
0100
0010
0010
0100
,
0010
0001
0001
1000
,
0010
0010
0010
0100
,
1001
1000
0100
0001
,
1000
1000
0001
1010
,
0010
0010
0100
0001
,
0010
0000
0010
0000
0100
0000
1000
0100
,
1000
1000
0010
0001
,
0010
0100
1000
0100
,
0001
1000
0010
0100
,
1000
0000
0001
0000
0010
0000
0010
0001
,
1000
0010
0100
0001
,
0010
0001
0001
1000
,
1000
1000
0011
0100
,
0010
0100
0010
0100
,
0101
1001
1010
0110
,
0100
0010
0100
0010
,
0001
0010
1000
0010
,
0100
0001
0010
0110
,
1001
1000
0110
1000
,
1001
0010
0001
0100
,
1001
0010
0100
0010
,
1001
0100
0011
0100
,
0110
1000
0011
1000
,
0110
0001
0001
0001
,
0110
1000
0110
0001
,
0001
1000
0001
0100
0001
0010
0001
0100
,
0001
1000
0100
0001
,
0010
1000
0100
0010
,
1000
0010
0001
0100
,
1000
0001
0100
1000
,
0001
0010
0100
0001
,
0010
0100
0001
1010
,
0110
0101
0011
1100
,
0110
0110
1001
0000
,
2001
0000
0000
3000
0120
0000
0000
0030
,
0012
0000
0000
0003
2010
0000
0000
3000
,
0012
0000
0000
0003
0120
0000
0000
0030
,
1001
0110
1001
0000
,
2010
0000
0000
3000
0210
0000
0000
0300
,
0021
0000
0000
0030
1200
0000
0000
0300
,
2010
0000
0000
3000
0102
0000
0000
0003
,
1001
0110
1010
0011
,
1010
0110
1010
1100
,
0110
0000
1001
0000
0110
0000
1000
0100
,
0010
0101
1010
0101
,
1010
0101
0110
1001
,
0110
1001
0011
1100
,
0101
1010
0110
1010
,
0011
0110
0101
1100
,
1001
0110
0202
0000
,
0300
2000
3000
1000
,
0010
0100
1000
0203
,
0010
0001
1000
0001
,
1000
1000
0010
0300
,
2001
0010
0100
0001
,
0100
3010
0010
0002
,
0010
1000
0010
0010
,
0010
0100
0103
1001
,
2002
0000
0000
0000
,
3003
0000
0000
0000
;

//---------------dance-single - ----------------
#NOTES:
     dance-single:
     :
     Medium:
     8:
     0.585,0.608,0.316,0.063,0.000,412.000,35.000,7.000,0.000,0.000:
0000
0000
0000
0000
,
0000
0000
0000
0000
,
0000
0000
0000
0000
,
0000
0000
0000
0000
,
1100
0000
1000
0100
1000
0000
0001
0010
,
0001
0000
0000
0010
0100
0000
1100
0000
,
1010
0000
0110
0000
1001
0000
0100
0010
,
0011
0000
0210
0000
0000
0000
0000
1300
,
0100
0000
0001
0010
0110
0000
0100
0100
,
0100
0000
0100
0010
0100
0000
0000
0001
,
0001
0000
1000
1000
1000
0010
0010
0000
,
1001
0000
0100
0010
0010
0001
0010
0000
,
0110
0000
0010
0100
1000
0000
1000
0100
,
0100
0000
0000
0100
1000
0000
0011
0010
,
0001
0000
0001
0001
0001
0000
0001
0010
,
0001
0100
0001
0100
0001
0000
1001
0001
,
1100
0000
1000
0100
0001
0010
1000
0010
,
0100
0010
0001
0010
1000
0100
0001
0100
,
0001
0010
0100
0010
0010
0010
0101
0000
,
0110
0000
0101
0000
0011
0000
0100
0100
,
0010
0010
0001
0001
0100
0100
0010
0010
,
1000
1000
0010
0010
0001
0001
0010
0010
,
0100
0100
1000
1000
0001
0001
0010
0010
,
0011
0101
1100
1010
,
2001
0000
0001
0001
0001
0000
0010
0010
,
0010
0000
0000
0100
0100
0001
0001
3000
,
0102
0000
0000
1000
1000
0000
0100
0000
,
0010
0000
0100
0000
0100
0000
0010
0013
,
0020
0001
0000
0001
0001
0000
0100
0100
,
0100
0000
1000
1000
1000
0000
1030
0001
,
0200
0010
0010
0010
0000
0001
0001
0001
,
0000
1000
1000
1000
0300
0010
0000
0001
,
0010
0001
0100
0010
0001
0001
0010
0100
,
0100
0001
1000
0010
0010
0001
1000
0100
,
0010
0100
0001
0100
1000
1000
0010
0100
,
0001
1000
0010
0001
0100
1000
0010
0100
,
1000
0010
0001
0010
0010
0100
0001
1000
,
0010
0010
0001
1000
0100
0100
0001
1000
,
0100
0010
0100
1000
0100
0100
0100
0010
,
0010
0001
0100
0010
1000
0001
0100
0000
,
1000
0100
1100
0100
1000
0100
0100
1000
,
0001
0010
0011
0010
0001
0100
0001
0001
,
0100
0100
1001
0001
0010
0100
0001
1000
,
0010
0100
1001
1000
0001
1000
0010
0001
,
1000
0100
1001
0001
1000
0100
0010
1000
,
0001
0100
1001
1000
0001
0100
0010
0001
,
0010
0100
1001
1001
1001
0100
0010
0001
,
0001
0100
1001
1000
0010
0100
0010
0100
,
1000
0011
0000
1000
0001
0100
0010
0001
,
1000
0100
0000
0011
0010
1000
0100
0010
,
0001
0100
0000
0100
1000
0001
1000
0100
,
0001
0010
0000
0100
0010
1000
0001
0001
,
1000
0001
0000
1000
0001
0100
1000
0100
,
0100
0010
0000
0010
0010
1000
0100
0001
,
0001
0010
0000
0100
0010
0001
1000
0100
,
0001
1000
0000
0001
1000
0100
0001
0100
,
1000
0100
0001
0100
1000
0100
0001
0010
,
1000
0010
0001
0010
1000
0010
0001
0010
,
1000
0100
0010
0001
1000
0010
0100
0001
,
1000
0001
0010
0001
1000
0010
0100
1000
,
0010
0100
1000
0100
1000
0010
0100
1000
,
0001
0100
0010
1000
0001
0010
0010
1000
,
1000
0010
0010
1000
1000
0010
0010
1000
,
1000
0100
0100
1000
0001
0100
0010
2000
,
0002
3003
0000
0000
;

//---------------dance-single - ----------------
#NOTES:
     dance-single:
     :
     Hard:
     11:
     0.815,0.967,1.000,0.198,0.316,467.000,142.000,22.000,0.000,31.000:
2012
0100
0010
0010
,
0203
0001
0001
0001
,
0302
0100
0010
0100
,
3113
0000
0110
0000
1001
0000
1100
0001
,
2021
0001
0001
0001
,
3232
1000
1000
1303
,
1000
0100
0010
0001
0100
1000
0010
0001
,
0110
0000
1001
1001
1001
0000
0000
0000
,
2010
0000
0001
0100
0001
0000
0100
0001
,
0100
0000
0000
0001
0100
0000
0001
0001
,
0100
0000
0001
0010
0100
0000
0001
0000
,
0001
0000
0100
0100
0010
0010
3101
0000
,
0102
0000
1000
0100
1000
0000
0100
0010
,
0100
0000
1000
0100
0010
0010
0100
0000
,
1000
0000
0010
0000
0100
0100
1000
0000
,
1000
0010
0010
0100
0100
0000
0113
0000
,
1100
0100
0110
0010
0011
0001
0101
0100
,
1100
0100
0101
0100
0110
0000
1001
0000
,
1001
0001
0011
0010
0110
0100
1100
0100
,
0110
1000
0110
0001
0110
0000
1001
0000
,
0101
0100
0110
0010
0011
0001
1001
1000
,
1100
0100
0110
0010
0011
0010
1001
0000
,
0110
0100
0101
0001
0011
0010
0110
0100
,
1100
1000
1001
0010
1001
0100
1001
0000
,
0110
0000
1000
0100
0011
0000
0011
0010
,
0110
0000
0000
1000
0001
0000
1000
0110
,
0001
0000
1100
0010
0101
1000
0101
0010
,
0101
1000
0101
0000
1001
0000
0110
0110
,
1001
0000
0001
0110
1000
0000
1000
0010
,
0101
0000
0000
0110
0001
0000
0011
0100
,
1010
0000
0000
0110
1001
0000
1001
0000
,
1000
0100
1000
0100
0010
0001
0010
0001
1000
0100
0010
0001
0100
1000
0100
0001
,
1001
0000
1000
0100
0011
0000
1001
0100
,
1001
0000
0000
0010
0101
0000
1100
0110
,
0011
0000
0000
0110
1001
0000
1100
0000
,
0110
0000
0000
0000
0011
0000
0000
0000
1001
0000
0000
0000
1000
0010
0100
0001
,
0000
0110
0000
1000
0101
0000
1000
0101
,
0010
0000
0000
0010
0101
0000
0101
0000
,
1001
0110
1001
0110
,
1001
1100
0011
0101
,
2010
0001
0000
0001
0001
0100
0100
0010
,
0010
0001
0001
0100
0100
0001
3000
0110
,
0002
1000
0010
0010
0100
0100
0010
0010
,
1000
1000
0000
1000
1000
0010
0003
0110
,
2001
3210
1320
0132
,
0213
2301
3012
0213
,
1310
0010
0011
0001
0101
0100
1100
1000
,
1010
0000
0000
0000
0101
0000
0000
0000
1000
0100
0001
0100
1000
0010
0001
0010
,
1000
0000
0100
0010
0100
0000
0001
0000
1000
0000
1000
0100
1000
0000
0110
0000
,
0011
0000
0000
0000
1000
0010
1000
0000
1000
0100
1000
0000
1000
0001
1000
0000
,
1000
0100
0010
0000
0100
0010
0001
0000
0010
0001
0100
0000
0100
1000
0010
0000
,
1001
0110
1001
0110
1001
0000
1100
0001
,
0110
0000
1000
0010
1000
0000
0010
0001
0010
0000
0010
0100
0010
0000
0100
1000
,
0001
0000
0010
1000
0010
0000
0010
0100
0010
0000
0010
0001
0010
0000
0010
0000
,
1000
0010
1000
0001
1000
0010
1000
0100
1000
0010
1000
0001
1000
0010
1000
0100
,
1000
0000
1100
0000
0110
0000
0011
0100
,
1000
0100
1000
0010
1000
0001
1000
0100
0010
0001
0010
0100
0010
0001
0010
1000
,
0100
0001
0100
0010
0100
1000
0100
0010
1000
0100
1000
0010
1000
0100
0010
0001
,
1000
0100
0010
0001
1000
0100
1000
0100
1000
0100
0010
0001
0010
0001
0010
0001
,
1000
0010
0001
0010
0100
0010
0001
0010
1000
0010
0001
0010
0001
0010
0100
0010
,
1000
0000
1001
1000
1100
0100
0110
0010
,
0011
0010
0110
0100
0101
0001
1001
0100
,
1001
1001
0110
1000
0110
0001
0110
1000
,
0110
0001
0101
1000
0101
0010
1010
0001
,
0220
0000
0000
0000
,
0330
0000
0000
0000
;

//---------------dance-single - Challenge----------------
#NOTES:
     dance-single:
     Challenge:
     Challenge:
     12:
     0.889,0.998,1.000,0.216,0.316,488.000,174.000,24.000,35.000,50.000:
2M12
0100
0010
0010
,
0203
0001
0301
0M02
,
0100
0103
0010
01M2
,
3113
0000
0110
0000
1001
0000
1100
0001
,
2021
0001
0001
0001
,
3232
1000
2303
3110
,
1000
0100
0010
0001
0100
1000
0010
0001
,
0110
0000
1001
1001
1001
0000
0000
0000
,
2M1M
0000
0001
0100
01M1
0000
0100
0011
,
0100
0000
0000
0001
0100
0000
0001
0001
,
0100
0000
0001
0011
0100
0000
0101
0010
,
0001
0000
0100
0100
0010
0010
31M1
0000
,
1102
0000
1100
0100
1010
0000
1100
0010
,
0100
0000
1000
0100
0010
1100
0100
0000
,
1000
0000
0010
0000
0100
1100
1000
0000
,
1100
0010
0010
0100
0100
0MM0
0113
0000
,
1100
0001
0110
1000
0011
1000
0101
0010
,
1100
0010
0101
1000
0110
0000
1001
0000
,
1001
0100
0011
1000
0110
0001
1100
0001
,
0110
1000
0110
0001
0110
0000
1001
0000
,
0101
1000
0110
1000
0011
0100
1001
0010
,
1100
0001
0110
1000
0011
0100
1001
0000
,
0110
1000
0101
1000
0011
1000
0110
0001
,
1100
0010
1001
0100
1001
0110
1001
0000
,
0110
0000
1001
0100
0011
0000
0010
1100
,
0010
0000
0011
1000
0101
0000
1000
0110
,
0001
0000
1100
0010
0101
1000
0011
0100
,
1001
0010
0101
0000
1001
0000
0110
0110
,
1001
0000
0001
0110
1000
0000
1000
0010
,
0101
0000
1001
0110
0001
0000
0011
0100
,
1010
0000
0000
0110
1001
0000
1001
0000
,
1000
0100
1000
0100
0010
0001
0010
0001
1000
0100
0010
0001
0100
1000
0100
0001
,
1001
0000
1000
0100
0011
0000
1001
0100
,
1001
0000
0000
0010
0101
0000
1100
0110
,
0011
0000
0000
0110
1001
0000
1100
0000
,
0110
0000
0000
0000
0011
0000
0000
0000
1001
0000
0000
0000
1000
0010
0100
0001
,
MMMM
0110
0000
1000
0101
0000
1000
0101
,
0010
0000
0000
0010
0101
0000
0101
1000
,
1001
0100
0110
0001
1001
0101
0110
1010
,
1001
0110
1100
0110
0011
1001
0101
0000
,
2011
0101
0000
0101
0001
0101
0100
0011
,
0010
0101
0001
0100
0100
0001
3000
0110
,
0002
1010
0100
1010
0100
0100
0110
0010
,
1000
0100
1010
0100
1003
0010
0000
0110
,
2001
0010
3210
0001
1320
1000
0132
1000
,
0213
0001
2301
0100
3012
1000
0213
0001
,
1310
0100
0011
1000
0101
0010
1100
0001
,
1010
0000
0110
0000
0101
0000
0000
0000
1000
0100
0001
0100
1000
0010
0001
0010
,
1000
0000
0100
0010
0100
0000
0001
0000
1000
0000
1000
0100
1000
0000
0110
0000
,
0011
0000
0000
0000
1000
0010
1000
0000
1000
0100
1000
0000
1000
0001
1000
0000
,
1000
0100
0010
0000
0100
0010
0001
0000
0010
0001
0100
0000
0100
1000
0010
0000
,
1MM1
M11M
1MM1
M11M
1MM1
0000
1100
0001
,
0110
0000
1000
0010
1000
0000
0010
0001
0010
0000
0010
0100
0010
0000
0100
1000
,
0001
0000
0010
1000
0010
0000
0010
0100
0010
0000
0010
0001
0010
0000
0010
0000
,
1000
0010
1000
0001
1000
0010
1000
0100
1000
0010
1000
0001
1000
0010
1000
0100
,
1000
0000
1100
MMMM
0110
MMMM
0011
0100
,
1000
0100
1000
0010
1000
0001
1000
0100
0010
0001
0010
0100
0010
0001
0010
1000
,
0100
0001
0100
0010
0100
1000
0100
0010
1000
0100
1000
0010
1000
0100
0010
0001
,
1000
0100
0010
0001
1000
0100
1000
0100
1000
0100
0010
0001
0010
0001
0010
0001
,
1000
0010
0001
0010
0100
0010
0001
0010
1000
0010
0001
0010
0001
0010
0100
0010
,
1000
0000
1001
0010
1100
0001
0110
1000
,
0011
1000
0110
1000
0101
0110
1001
0100
,
1010
0001
0110
1000
0110
0001
0110
1000
,
0110
0001
0101
1000
0101
0011
1010
0001
,
0220
0000
0000
0000
,
0330
MMMM
0000
0000
0000
0000
0000
0000
;

//---------------dance-single - Expert----------------
#NOTES:
     dance-single:
     Expert:
     Edit:
     13:
     0.887,0.997,1.000,0.216,0.320,488.000,173.000,24.000,195.000,50.000:
2M12
0100
0010
0100
,
02M3
0001
0301
0M02
,
0100
0103
0M1M
01M2
,
3113
0000
0110
0000
1001
0000
1100
0001
,
2021
0001
0001
0001
,
3232
M0M0
1000
0000
2303
0MMM
3110
0000
,
1000
0100
0010
0001
0100
1000
0010
0001
,
0110
0000
1001
1001
1001
0000
0000
0000
,
2M1M
0000
0001
0100
01M1
0000
0100
0011
,
0100
0000
0000
0001
0100
0000
0001
0001
,
0100
0000
0001
0011
01M0
0000
01M1
0010
,
0001
0000
0100
0100
0010
0010
31M1
MMMM
,
1102
0000
1100
0100
1M10
0000
1100
0010
,
0100
0000
1000
0100
0010
1100
0100
0000
,
1000
0000
0010
0000
0100
1100
1000
0000
,
1100
0010
0010
0100
0100
0MM0
0113
MMMM
,
1100
MMM1
0110
1MMM
MM11
1000
M1M1
0010
,
11MM
0010
M1M1
1000
M11M
0000
1MM1
0000
,
1001
0100
MM11
1000
M11M
0001
11MM
0001
,
M110
100M
M110
0001
M110
0000
1001
0000
,
M1M1
1000
M11M
1000
MM11
0100
1MM1
0010
,
11MM
0001
M11M
1000
MM11
0100
1MM1
0000
,
M11M
1000
M1M1
1000
MM11
1000
M11M
0001
,
11MM
0010
1MM1
0100
1MM1
0110
1001
0000
,
0110
0000
1MM1
0100
0011
0000
0010
1100
,
0010
0000
0011
1000
0101
0000
1000
0110
,
0001
0000
1100
0010
M1M1
1000
0011
0100
,
1MM1
0010
0101
0000
1001
0000
0110
0110
,
1001
0000
0001
0110
1000
0000
1000
0010
,
M1M1
0000
1001
0110
0001
0000
0011
0100
,
1M1M
0000
0000
0110
1001
0000
1001
0000
,
1000
0100
1000
0100
0010
0001
0010
0001
1000
0100
0010
0001
0100
1000
0100
0001
,
1001
0000
1000
M1M0
0011
0000
1001
01MM
,
1001
0000
0000
0010
M1M1
0000
1100
0110
,
0011
0000
0000
0110
1001
0000
1100
0000
,
0110
0000
0000
0000
0011
0000
0000
0000
1001
0000
0000
0000
1000
0010
0100
0001
,
MMMM
0110
0000
1000
0101
0000
1000
0101
,
0010
MMMM
MMMM
0010
0101
0000
0101
1000
,
1001
0100
0110
0001
1001
0101
0110
1010
,
1001
0110
1100
0110
0011
1001
0101
0000
,
2011
0101
0MMM
0101
0001
0101
0100
0011
,
0010
0101
0001
0100
0100
0001
3000
M11M
,
0002
1010
0100
1010
0100
0100
0110
0010
,
1000
0100
1010
0100
1003
0010
0000
0110
,
2001
0M1M
3210
M0M1
1320
1M0M
0132
1MM0
,
0213
M0M1
2301
01MM
3012
1MM0
0213
M0M1
,
1310
M1MM
0011
1000
0101
0010
1100
0001
,
1M1M
0000
0110
0000
M1M1
0000
0000
0000
1000
0100
0001
0100
1000
0010
0001
0010
,
1000
0000
0100
0010
0100
0000
0001
0000
1000
0000
1000
0100
1000
0000
0110
0000
,
0011
0000
MMMM
0000
1000
0010
1000
0000
1000
0100
1000
0000
1000
0001
1000
0000
,
1000
0100
0010
0000
0100
0010
0001
0000
0010
0001
0100
0000
0100
1000
0010
0000
,
1MM1
M11M
1MM1
M11M
1MM1
0000
1100
0001
,
0110
0000
1000
0010
1000
0000
0010
0001
0010
0000
0010
0100
0010
0000
0100
1000
,
0001
0000
0010
1000
0010
0000
0010
0100
0010
0000
0010
0001
0010
0000
0010
0000
,
1000
0010
1000
0001
1000
0010
1000
0100
1000
0010
1000
0001
1000
0010
1000
0100
,
1000
0000
1100
MMMM
0110
MMMM
0011
0100
,
1000
0100
1000
0010
1000
0001
1000
0100
0010
0001
0010
0100
0010
0001
0010
1000
,
0100
0001
0100
0010
0100
1000
0100
0010
1000
0100
1000
0010
1000
0100
0010
0001
,
1000
0100
0010
0001
1000
0100
1000
0100
1000
0100
0010
0001
0010
0001
0010
0001
,
1000
0010
0001
0010
0100
0010
0001
0010
1000
0010
0001
0010
0001
0010
0100
0010
,
1000
0000
1001
0010
1100
0MM1
0110
10MM
,
0011
1MM0
0110
10MM
0101
0110
1001
M10M
,
1M1M
0001
0110
10MM
0110
M0M1
0110
1MM0
,
0110
M0M1
0101
10MM
0101
MM10
1010
MMM1
,
0220
0000
0000
0000
,
0330
MMMM
0000
0000
0000
0000
0000
0000
0000
0000
0000
0000
0000
0000
0000
0000
;

//---------------dance-single - Beginner----------------
#NOTES:
     dance-single:
     Beginner:
     Beginner:
     4:
     0.225,0.322,0.316,0.162,0.000,122.000,35.000,18.000,0.000,0.000:
0000
0000
0000
0000
,
0000
0000
0000
0000
,
0000
0000
0000
0000
,
0000
0000
0000
0000
,
0010
0000
1000
0000
,
0100
0000
0010
0000
,
0100
0000
0001
0000
,
0010
0000
0010
0100
,
1000
0000
0100
0000
,
1000
0000
0001
0000
,
0010
0000
0100
0001
,
0010
0000
1000
0000
,
0100
0000
0100
0001
,
0010
0000
1000
0100
,
0001
0000
0010
0000
,
1000
0000
0010
0010
,
1000
0000
0100
0000
,
0010
0000
0001
1000
,
1000
0000
0011
0000
,
0010
0000
0010
0100
,
0100
0000
1010
0000
,
0110
0000
0100
0010
,
0001
0000
1100
0000
,
0100
0000
0010
0000
,
0010
0000
0010
0000
,
1000
0000
0001
0000
,
1001
0000
0100
0000
,
1001
0000
0011
0000
,
0110
0000
0011
0000
,
0110
0000
0001
0000
,
0110
0000
0110
0001
,
0001
0001
0001
0001
,
1001
0000
0100
0000
,
0010
0000
0100
0000
,
1000
0000
0001
0100
,
1000
0000
0100
0000
,
0001
0000
0100
0001
,
0100
0000
0100
0100
,
0100
0000
0110
0000
,
0110
0000
1001
0000
,
2000
3000
0020
0030
,
0002
0003
2000
3000
,
0002
0003
0020
0030
,
1001
0000
1001
0000
,
2000
3000
0200
0300
,
0020
0030
0200
0300
,
2000
3000
0002
0003
,
1001
0000
1010
0000
,
1010
0000
1010
0000
,
0110
0000
0110
0000
,
0010
0000
1010
0000
,
1010
0000
0110
0000
,
0110
0000
0011
0000
,
0101
0000
0110
0000
,
0011
0000
0101
0000
,
1001
0000
0002
0000
,
0000
0000
0000
0000
,
0000
0000
0003
0200
,
0000
0000
0000
0000
,
0000
0000
0000
0300
,
2000
0000
0000
0000
,
0000
3000
0000
0002
,
0000
0000
0000
0000
,
0000
0000
0003
0000
,
2002
0000
0000
0000
,
3003
0000
0000
0000
;
