#TITLE:Trial By Fire;
#SUBTITLE:The New  Order (1988);
#ARTIST:Testament;
#TITLETRANSLIT:;
#SUBTITLETRANSLIT:;
#ARTISTTRANSLIT:;
#CREDIT:Sloqx;
#BANNER:Trial By Fire-banner.png;
#BACKGROUND:Trial By Fire-bg.png;
#LYRICSPATH:;
#CDTITLE:!cdtitle.png;
#MUSIC:Testament - Trial By Fire.mp3;
#OFFSET:-5.617;
#SAMPLESTART:157.614;
#SAMPLELENGTH:24.420;
#SELECTABLE:YES;
#BPMS:0.000=117.400,8.000=120.640,12.000=122.280,16.000=121.760,20.000=120.800,24.000=121.000,28.000=123.690,31.500=121.040,35.500=120.920,39.500=126.360,43.500=118.200,47.500=119.360,51.500=122.160,55.500=124.080,59.500=124.160,63.500=121.000,67.500=119.080,71.500=121.520,75.500=124.760,79.500=125.400,83.500=119.200,87.500=117.480,91.500=154.440,95.500=167.840,99.500=177.880,103.500=183.200,107.500=182.240,111.500=186.920,115.500=175.600,119.500=178.640,123.500=184.960,127.500=186.560,131.500=194.840,135.500=189.360,139.500=185.440,143.500=188.360,147.500=186.440,151.500=185.480,155.500=188.040,159.500=191.240,163.500=203.240,167.500=180.600,168.500=190.120,172.500=190.960,176.500=194.440,180.500=188.840,184.500=190.680,188.500=192.760,192.500=191.800,196.500=204.520,200.500=211.790,201.500=185.600,205.500=184.920,209.500=186.920,213.500=187.320,217.500=188.480,221.500=184.360,225.500=187.920,229.500=204.280,233.500=191.880,237.500=189.560,241.500=190.960,245.500=191.000,249.500=190.880,253.500=190.360,257.500=196.120,261.500=202.760,265.500=169.240,269.500=181.960,273.500=186.240,277.500=185.760,285.500=176.520,289.500=174.680,293.500=181.040,297.500=189.800,301.500=194.000,305.500=192.800,309.500=188.040,313.500=191.160,317.500=191.840,321.500=193.720,325.500=189.920,329.500=195.640,333.500=204.960,337.500=193.880,341.500=187.040,345.500=188.840,349.500=186.880,353.500=190.240,357.500=187.000,361.500=192.760,365.500=205.520,369.500=174.480,373.500=179.000,377.500=185.680,381.500=184.560,385.500=186.200,389.500=184.840,393.500=168.000,397.500=183.360,401.500=187.160,405.500=189.520,409.500=198.520,413.500=200.880,417.500=201.360,421.500=197.920,425.500=189.800,429.500=185.320,433.500=187.480,437.500=184.000,441.500=173.700,443.500=181.040,447.500=162.020,449.500=168.080,453.500=177.480,457.500=174.000,461.500=176.680,465.500=175.480,469.500=183.400,473.500=173.320,477.500=183.240,481.500=175.160,485.500=185.880,489.500=177.760,493.500=189.160,497.500=183.960,501.500=199.040,505.500=191.360,509.500=205.960,513.500=192.520,517.500=199.960,521.500=194.440,525.500=206.040,529.500=198.520,533.500=197.720,537.500=197.840,541.500=197.360,545.500=197.240,549.500=197.320,553.500=200.680,557.500=210.480,561.500=190.800,565.500=193.200,569.500=197.040,573.500=194.960,577.500=196.720,581.500=196.280,585.500=196.920,589.500=208.240,593.500=204.590,594.500=193.280,598.500=192.120,602.500=192.320,606.500=192.880,610.500=194.400,614.500=193.200,618.500=196.560,622.500=215.760,626.500=189.560,630.500=190.480,634.500=191.880,638.500=189.160,642.500=193.320,646.500=191.320,650.500=196.040,654.500=211.040,658.500=176.480,662.500=183.880,666.500=190.160,670.500=184.520,674.500=191.120,678.500=188.400,682.500=169.000,686.500=187.640,690.500=186.480,694.500=196.560,698.500=199.840,702.500=190.840,706.500=198.080,710.500=192.600,714.500=195.480,718.500=191.560,722.500=193.280,726.500=209.240;
#STOPS:;
#BGCHANGES:;
// cache tags:
#FIRSTBEAT:0.000;
#LASTBEAT:729.833;
#SONGFILENAME:Songs/Astronomic Metal Collection/Trial By Fire - Sloqx/Testament - Trial By Fire.sm;
#HASMUSIC:1;
#HASBANNER:1;
#MUSICLENGTH:257.071;
// end cache tags

//---------------dance-single - ----------------
#NOTES:
     dance-single:
     :
     Challenge:
     10:
     1.000,1.000,1.000,0.319,0.519,1389.000,329.000,82.000,0.000,0.000:
1000
0010
0200
0000
0000
0000
0000
0000
,
0000
0000
0000
0000
0000
0000
0300
0001
,
1000
0100
1000
0001
0010
0001
1000
0010
,
1000
0001
0010
0001
0100
0010
0100
0101
,
1000
1010
0101
1000
1100
0011
0001
0011
,
1001
1000
0010
1000
0001
0010
0100
1000
,
0101
0001
1000
1100
0100
0010
0001
0101
,
0000
0000
0000
2020
0000
0000
3030
1000
,
0001
0000
0010
0000
0001
0000
1000
0000
0100
0010
0001
0100
0020
0000
0000
0030
,
0100
0001
1000
0100
0000
0000
0010
0000
0000
0100
0000
0000
1000
0000
0000
0001
0000
0000
0010
0000
0000
0100
0000
0000
,
0000
0010
0000
0000
0000
0100
0000
0000
0000
1000
0000
0000
0000
0100
0000
0000
0000
0010
0000
0000
0000
0002
0000
0000
,
0000
0000
0000
0000
0000
0000
0003
0000
0000
0100
0000
0000
0000
0010
0000
0000
0000
1000
0000
0000
0000
0200
0000
0000
,
0000
0000
0000
0000
0000
0300
0000
2000
,
0000
3010
0200
0000
0000
0000
0000
0301
,
1000
0100
0010
0001
1000
0100
0010
0001
0100
0010
1000
0001
0100
0001
1000
0100
,
0010
0001
0100
0010
1000
0001
0010
0100
1000
0100
0010
0001
1000
0100
0020
0000
,
0000
0000
0000
0000
0000
0000
0000
0000
0000
0031
0000
0000
0000
0100
0000
0000
0000
0010
0000
0000
0000
2000
0000
0000
,
0000
0000
3000
0202
0000
0000
0303
2000
,
0000
3100
0020
0000
0000
0000
0000
0030
,
0001
0100
0010
1000
0100
0010
0100
1000
0001
0100
0001
1000
0010
0100
0010
1000
,
0001
0010
0100
1000
0010
0100
0001
1000
0100
0010
0001
1000
0100
0010
0002
0000
,
0000
0000
0000
0000
0000
0000
0000
0000
0000
0103
0000
0000
0000
0010
0000
0000
0000
1000
0000
0000
0000
0002
0000
0000
,
0000
0000
0000
0000
,
0000
0000
0003
2200
0000
0000
3300
0101
,
0001
1000
0010
1000
0001
0010
0100
1100
,
0100
0010
0011
0001
0100
1010
0010
0100
,
1001
1000
0100
0011
0000
1100
0000
0202
,
0000
0000
0000
0303
1000
0100
0020
0000
,
0000
0000
0030
0000
0001
0000
0010
0100
1000
0000
0100
0010
0001
0000
1100
0000
,
1000
0001
0010
0100
1000
0010
0100
0101
,
1000
0100
1100
0001
0010
1001
0001
0100
,
1010
0010
0100
0101
0000
1010
0000
2002
,
0000
0000
0000
3003
0001
0010
0200
0000
,
0000
0000
0300
0000
1000
0000
0100
0010
0001
0000
1000
0010
0100
0000
0101
0000
,
1000
0100
0010
0001
0100
0010
0100
0001
,
1000
0000
0010
0000
0100
0000
0010
0000
1000
0000
0100
0000
0010
0000
0001
0010
,
0100
0010
0001
0000
1000
0000
0010
0000
0100
0000
0002
0000
2003
0000
3200
0000
,
0000
0000
0000
0000
0000
0000
0000
0000
0000
0000
2300
0000
0000
0000
3001
0010
,
0100
0010
0001
0000
1000
0000
0010
0000
1000
0000
0001
0000
0010
0000
0001
0000
,
0100
0000
0010
0000
1000
0000
0001
0000
0100
0000
0010
0000
1000
0000
0100
0010
,
0001
0100
0010
1000
0100
0010
0001
0100
0010
1000
0100
0010
0001
0100
1010
0000
,
0000
0101
0000
0000
0000
1001
0000
0000
0000
1100
0000
0000
0000
0011
0000
0000
0000
1100
0000
0000
0000
0000
0000
0000
,
0000
0000
1000
0000
0010
0000
0100
0001
0100
0000
0010
0000
1000
0000
0001
0000
,
0011
1100
1001
0001
1010
0101
0100
0110
,
0101
0000
1000
0000
0100
0000
0010
0001
0010
0000
0100
0000
1000
0000
0001
0000
,
0101
1010
1100
0001
0011
1100
0100
0011
,
1001
0000
1000
0000
0010
0000
0100
0001
1000
0000
0100
0000
0010
0000
0001
0000
,
1100
0011
1100
0100
1100
1001
0001
1010
,
0101
0000
1000
0000
0010
0000
0100
0010
0100
0000
0001
0000
1000
0000
0100
0000
,
1001
0000
0000
0101
0000
0000
0000
1010
0000
0000
0000
1100
0000
0000
0000
0011
0000
0000
0000
0110
0000
0000
0000
1100
,
0000
0000
0000
0001
0100
0010
0100
0001
,
1000
0100
0010
0100
1000
0001
0010
0001
,
0100
0010
1000
0001
0010
0001
1000
0010
,
0100
0001
1000
0100
1000
0010
0100
0001
,
1000
0100
0010
0001
0010
0100
0010
0001
,
1000
0010
0100
0010
1000
0001
0100
0001
,
0010
0200
0000
0000
0000
0000
0000
0000
,
2000
0000
0000
0000
0000
0000
3300
0000
0000
1010
0000
0000
0000
0101
0000
0000
0000
1001
0000
0000
0000
1100
0000
0000
,
0000
0000
0011
0000
0000
0000
0000
0000
0000
0000
1100
0000
0000
0000
0000
0000
0000
0000
0001
0000
0000
0000
0000
0000
0100
0000
0000
0000
0000
0000
0010
0000
0000
1000
0000
0000
0100
0000
0000
0000
0000
0000
0010
0000
0000
0000
0000
0000
,
0001
0100
0101
1010
0101
0100
1001
1100
,
0100
0000
0011
0000
1100
0000
0001
0000
0100
0000
0001
1000
0010
0000
0100
0000
,
0001
1000
1100
0110
0011
0001
1010
0101
,
0100
0000
0110
0000
1001
0000
0001
0000
0010
0000
0001
0100
0001
0000
1000
0000
,
0010
1000
1010
1001
0011
0001
1100
0011
,
0010
0000
1001
0000
0011
0000
0001
0000
0100
0000
0010
1000
0100
0000
1000
0000
,
0010
0000
0000
0100
0000
0000
0101
0000
0000
1001
0000
0000
0000
1010
0000
0000
0000
0101
0000
0000
0000
1001
0000
0000
,
0000
1100
0000
0000
0000
0011
0000
0000
0000
0101
0000
0000
0100
0000
0000
0010
0000
0000
0100
0000
0000
0001
0000
0000
,
0100
0010
0100
1001
1000
0010
0101
0100
,
0010
1001
0001
0010
1100
0001
0100
1010
,
0000
0101
0000
2002
0000
0000
0000
3003
,
1000
0000
0100
0000
0020
0000
0000
0000
0000
0000
0000
0000
0031
0000
0010
0100
,
1000
0000
0001
0100
0010
0000
1010
0000
1000
0000
0100
0000
0010
0000
0100
0000
,
1000
0100
0010
1001
1000
0100
0011
0010
,
0100
1100
1000
0001
0101
0100
0010
0101
,
0000
1010
0000
2002
0000
0000
0000
3003
,
0001
0000
1000
0000
0020
0000
0000
0000
0000
0000
0000
0000
0130
0000
0001
1000
,
0100
0000
0010
0100
1000
0000
0001
0000
0100
0000
0001
1000
0100
0000
0010
0000
,
0100
1000
1001
1010
0101
0100
1001
1100
,
0100
0000
0011
0000
1100
0000
0001
0000
0100
0000
0010
0100
0010
0000
1000
0000
,
0001
0010
1100
0011
0110
0001
0011
1100
,
0100
0000
1001
0000
0101
0000
1000
0000
0010
0000
1000
0100
0010
0000
0001
0000
,
0100
0010
0101
1010
1100
0100
0011
0110
,
0001
0000
1010
0000
0101
0000
1000
0000
0100
0000
0010
0100
1000
0000
0010
0000
,
0100
0000
0000
0001
0000
0000
1001
0000
0000
0101
0000
0000
0000
1010
0000
0000
0000
0101
0000
0000
0000
1001
0000
0000
,
0000
0000
1100
0000
0000
0000
0000
0000
0000
0000
0011
0000
0000
0000
0000
0000
0000
0000
1000
0000
0000
0000
0000
0000
0100
0000
0000
0000
0000
0000
0010
0000
0000
0001
0000
0000
0010
0000
0000
0000
0000
0000
0100
0000
0000
0000
0000
0000
,
1000
0010
0101
1010
1001
0001
0011
0110
,
0001
0000
1010
0000
1100
0000
0001
0000
0100
0000
0010
1000
0100
0000
0010
0000
,
0001
0100
1001
1100
1001
0001
0011
1100
,
0100
0000
1100
0000
0011
0000
1000
0000
0100
0000
1000
0010
0100
0000
0001
0000
,
0010
0100
1100
0011
1001
0001
1010
0101
,
0100
0000
1001
0000
1100
0000
0001
0000
0100
0000
0010
1000
0100
0000
0010
0000
,
0001
0000
0000
0100
0000
0000
1010
0000
0000
0101
0000
0000
0000
1001
0000
0000
0000
1100
0000
0000
0000
1001
0000
0000
,
0000
0101
0000
0000
0000
1010
0000
0000
0000
1001
0000
0000
0001
0000
0000
0010
0000
0000
0100
0000
0000
1000
0000
0000
,
0100
0010
0001
1010
0001
0100
1010
1000
,
0100
1100
1000
0001
0101
1000
0100
0011
,
0000
1100
0000
0022
0000
0000
0000
0033
,
0001
0000
1000
0000
0200
0000
0000
0000
0000
0000
0000
0000
0310
0000
0001
1000
,
0100
0000
0010
0100
1000
0000
0011
0000
0001
0000
0100
0000
0010
0000
0100
0000
,
0001
0100
0010
1001
1000
0100
0011
0001
,
0100
1001
0001
0100
1010
1000
0100
1001
,
0000
0011
0000
2200
0000
0000
0000
3300
,
0001
0000
0010
0000
0200
0000
0000
0000
0000
0000
0000
0000
1300
0000
0100
0010
,
0001
0000
1000
0100
0010
0000
0001
0000
0100
0000
0001
0000
1000
0000
0010
0000
,
0202
0303
0000
1000
0100
0010
0001
0010
,
2200
0000
3300
0001
0010
0100
1000
0010
,
0202
0303
0000
1000
0100
1000
0001
0100
,
2020
0000
3030
0001
0010
0001
1000
0010
,
0101
0000
1010
1000
0100
0010
0001
0010
,
1100
0000
0011
1000
0100
0010
0001
0100
,
1010
0000
0101
0001
0100
0010
1000
0100
,
0022
0000
0000
0000
0000
0000
0000
0000
0000
0000
0000
0000
0000
0000
0000
0000
0000
0000
0033
0000
0000
0001
0000
0100
,
0000
0010
0000
1000
0000
0100
0000
0010
0000
0001
0000
0010
0000
0100
0000
1000
0000
0001
0000
0100
0000
1010
0000
0000
,
0000
0101
0000
2001
0000
3010
0200
0000
,
0000
0000
0000
0000
0000
0000
0301
0000
1000
0010
1000
0001
0010
0100
1000
0001
,
0100
0010
1000
0001
0010
0001
0200
0000
0000
0000
0310
0000
2000
0000
0000
0000
,
0000
0000
0000
0000
0000
0000
0000
0000
0000
0000
0000
0000
3001
0000
0000
0000
0010
0000
0000
0000
0000
0000
0100
0000
0000
0000
0000
0000
1000
0000
0000
0100
,
0000
0000
0010
0000
0000
0001
0000
0000
0010
0000
0000
0000
0100
0000
0000
0000
0000
0000
1000
0000
0100
0000
1000
0000
0100
0000
0010
0000
0200
0000
0000
0000
,
0000
0000
0000
0000
0000
0000
0300
0000
2200
0000
3300
0000
0001
1000
0020
0000
,
0000
0000
0000
0000
0000
0000
0130
0000
0000
0001
0000
0100
0000
0010
0000
0100
0000
0001
0000
1000
0000
0100
0000
1000
,
0000
0001
0000
0010
0000
0001
0000
1000
0000
0020
0000
0000
0000
0000
0000
0130
0000
0001
0000
1000
0000
0200
0000
0000
,
0000
0000
0000
0000
0310
0000
0001
0000
0010
0000
0200
0000
0000
0000
0000
0300
,
0000
1000
0000
0100
0000
0010
0000
0001
0000
0100
0000
0010
0000
1000
0000
0001
0000
0100
0000
0001
0000
1000
0000
0100
,
0000
0010
0000
0001
0000
0010
0000
0100
0000
1000
0000
0100
0000
0010
0000
0100
0000
0010
0000
0001
0000
0010
0000
0100
,
0000
0010
0000
0100
0000
1000
0000
0001
0000
0010
0000
0100
0000
0010
0000
0001
0000
1000
0000
0100
0000
0020
0000
0000
,
0000
0000
0000
0000
0000
0000
0031
0000
0000
2000
0000
0000
0000
0000
0000
0000
0000
0000
3010
0000
0000
0100
0000
0001
,
0000
0100
0000
0001
0000
1000
0000
0001
0000
1000
0000
0100
0000
0010
0000
0002
0000
0000
0000
0000
0000
0000
0000
0000
,
0013
0100
1000
0020
0000
0130
0001
1000
,
0100
1000
0001
0010
0100
2000
0000
0000
,
0000
0000
0000
0000
0000
0000
3001
0100
0010
1000
0001
0010
0100
1000
0010
0100
,
0010
1000
0001
0010
0100
1000
0100
0010
0001
0100
0010
1000
0001
0100
0002
0000
,
0000
0000
0000
0000
1003
0000
0010
0100
0001
0010
0100
1000
0001
0100
0010
0100
,
0001
1000
0100
0010
0100
1000
0100
0010
0001
1000
0010
0100
0001
1000
0200
0000
,
0000
0000
0000
0320
0000
0000
0000
0000
,
0000
0000
0000
0032
0000
0000
0000
0000
,
0000
0000
0000
0000
0103
0000
0010
1000
0001
0100
0001
1000
0100
0010
0001
1000
,
0100
1000
0001
0010
0001
0100
0010
1000
0001
0100
0001
1000
0100
0010
0002
0000
,
0000
0000
0000
0000
0103
0000
0010
1000
0001
0100
0001
1000
0010
0100
0001
0010
,
0100
1000
0010
0100
0010
1000
0001
0010
0001
1000
0100
0010
0001
0100
0020
0000
,
0000
0000
0000
0000
0130
0001
1000
0100
0020
0000
0000
0000
0130
1000
0100
0010
,
0002
0000
0000
0000
0103
0010
1000
0100
0010
0001
1000
0100
0010
0001
0010
0100
,
1000
0100
0010
0001
0010
0100
1000
0000
0001
0000
0100
0010
0100
0000
0001
0000
,
1000
0100
0011
1100
0110
0001
0101
1010
,
0010
0000
1001
0000
0011
0000
1000
0000
0100
0000
1000
0001
0010
0000
0100
0000
,
1000
0001
0101
1010
1001
0001
1100
0110
,
0001
0000
0101
0000
1010
0000
0010
0000
0100
0000
0001
1000
0010
0000
0100
0000
,
0001
1000
1010
1100
0011
0010
1100
1001
,
0001
0000
1010
0000
0101
0000
1000
0000
0100
0000
0010
0001
0010
0000
0100
0000
,
1000
0000
0000
0001
0000
0000
0011
0000
0000
1100
0000
0000
0000
0011
0000
0000
0000
1100
0000
0000
0000
1001
0000
0000
,
0000
0000
0101
0000
0000
0000
0000
0000
0000
0000
1010
0000
0000
0000
0000
0000
0000
0000
0000
0000
0000
0000
0000
0000
0000
0000
0000
0000
0000
0000
1000
0000
0000
0000
0000
0000
0001
0000
0000
0000
0000
0000
0010
0000
0000
0100
0000
0000
,
0010
0001
1000
0010
0101
1010
1001
0001
,
1100
0000
0011
0000
0010
0000
1100
0000
1001
0000
0001
0000
0100
0000
0010
1000
,
0001
0010
0100
1000
1100
0011
0110
0001
,
1010
0000
0101
0000
0100
0000
1001
0000
1100
0000
0001
0000
0100
0000
0010
0100
,
0001
1000
0100
0010
1100
0011
0101
1000
,
0101
0000
1010
0000
0010
0000
1001
0000
0011
0000
1000
0000
0100
0000
0010
0100
,
1000
0000
0000
0001
0000
0000
0100
0000
0000
0010
0000
0000
1010
0000
0000
0101
0000
0000
0000
1010
0000
0000
0000
1100
,
0000
0000
0000
0000
0000
0000
0011
0000
0000
0000
0000
0000
0000
0000
1100
0000
0000
0000
0000
0000
0000
0000
1001
0000
0000
0000
0000
0000
0000
0000
0001
0000
0000
0000
0000
0000
1000
0000
0000
0000
0000
0000
0010
0000
0000
0100
0000
0000
,
0010
1000
0001
0010
1100
1001
0101
1000
,
0011
0000
1100
0000
0100
0000
0011
0000
1100
0000
0001
0000
0100
0000
0001
1000
,
0010
0100
0001
1000
1010
1100
0011
0010
,
1100
0000
0011
0000
0010
0000
0101
0000
1010
0000
0001
0000
0010
0000
0001
0100
,
0001
1000
0010
0100
0101
1001
1100
0100
,
0011
0000
1100
0000
0001
0000
1010
0000
0101
0000
0100
0000
0010
0000
1000
0001
,
0100
0000
0000
0010
0000
0000
1000
0000
0000
0001
0000
0000
0101
0000
0000
1010
0000
0000
0000
1100
0000
0000
0000
0011
,
0000
0000
0000
0101
0000
0000
0000
1010
0000
0000
0000
0101
0000
0000
0000
1001
0000
0000
1000
0000
0000
0010
0000
0000
,
1000
0001
0100
0001
1000
1010
1000
0001
,
0011
0010
0100
1001
0001
0100
1010
1000
,
0100
1001
0000
0101
0000
2020
0000
0000
,
0000
3030
0001
0010
0200
0000
0000
0000
,
1300
0000
0001
0010
0100
0000
0010
0100
1000
0000
0011
0000
0001
0000
0100
0000
,
0010
1000
0100
0010
0001
1100
0100
1000
,
0101
0100
0010
1001
0001
0010
1100
0100
,
0010
0101
0000
1010
0000
0022
0000
0000
,
0000
0033
0010
0100
2000
0000
0000
0000
,
3100
0000
0010
0001
1000
0000
0010
0100
0001
0000
1000
0000
0010
0000
0100
0001
,
0100
0010
1000
0001
0011
0110
1100
0001
,
1010
0000
0101
0000
0100
0000
1001
0000
1100
0000
0001
0000
0010
0000
0001
0100
,
0001
1000
0100
1000
1001
0101
1010
0001
,
1010
0000
1100
0000
0001
0000
0101
0000
1010
0000
0001
0000
0010
0000
0100
0010
,
0100
1000
0001
0100
0101
1001
1010
0001
,
1010
0000
0101
0000
0100
0000
1001
0000
1010
0000
0001
0000
0010
0000
0100
0010
,
0001
0000
0000
0100
0000
0000
0010
0000
0000
1000
0000
0000
1010
0000
0000
0101
0000
0000
0000
1001
0000
0000
0000
1100
,
0000
0000
0000
0011
0000
0000
0000
0110
0000
0000
0000
1001
0000
0000
0000
0000
0000
0000
0000
0000
0000
0000
0000
0000
;
