#TITLE:Los! Los! Los!;
#SUBTITLE:;
#ARTIST:Tanya Degurechaff;
#TITLETRANSLIT:;
#SUBTITLETRANSLIT:;
#ARTISTTRANSLIT:;
#CREDIT:;
#BANNER:../Banner.png;
#BACKGROUND:;
#LYRICSPATH:;
#CDTITLE:CDTitle.png;
#MUSIC:01. Los! Los! Los!.ogg;
#OFFSET:-0.410;
#SAMPLESTART:55.410;
#SAMPLELENGTH:16.000;
#SELECTABLE:YES;
#BPMS:0.000=240.000;
#STOPS:;
#BGCHANGES:;
// cache tags:
#FIRSTBEAT:4.000;
#LASTBEAT:365.500;
#SONGFILENAME:Songs/Owem's Simfiles 08 1.1/Los! Los! Los! - [Carmelo] v1.0.0/01._Los_Los_Los.sm;
#HASMUSIC:1;
#HASBANNER:1;
#MUSICLENGTH:92.531;
// end cache tags

//---------------dance-single - Carmelo----------------
#NOTES:
     dance-single:
     Carmelo:
     Challenge:
     18:
     1.000,1.000,0.000,0.086,1.000,954.000,0.000,8.000,0.000,0.000:
0000
0000
0000
0000
,
1000
0010
0100
0001
0010
0001
1000
0010
,
1000
0001
0100
0001
0010
0001
1000
0010
,
0100
0001
0010
0100
1000
0010
1000
0100
,
1000
0001
0100
0001
0010
0100
2000
0000
,
3001
0100
0010
0000
1000
0100
1000
0000
,
0010
0100
0010
0000
1000
0000
0000
0000
,
0001
0010
0001
0000
1000
0000
0010
0000
,
0100
0001
1000
0000
0100
0000
0000
0000
,
1000
0010
1000
0000
0001
0010
0001
0000
,
0100
0010
0100
0000
0001
0000
1000
0000
,
0100
0010
0100
1000
0001
0100
0001
0010
,
0100
0000
1000
0000
0010
0000
0100
0000
0001
1000
0100
0010
0001
0100
0010
1000
,
0001
0010
0001
1000
0010
0100
0001
1000
0100
0010
0100
1000
0001
0100
0010
1000
,
0001
0010
0001
1000
0010
0100
0001
1000
0100
0010
0001
0100
0010
1000
0001
1000
,
0100
0010
0100
1000
0001
0100
0010
1000
0001
0010
0001
1000
0010
0100
0010
1000
,
0100
0010
0001
1000
0010
0100
0001
1000
0001
0010
0100
1000
0001
0100
0001
1000
,
0100
0010
0100
1000
0010
0100
0001
0010
,
0001
1000
0010
1000
0100
0010
0001
0100
,
0001
1000
0100
0010
0001
0100
0010
1000
,
0001
0010
0001
0010
0100
1000
0001
1000
,
0010
0100
0001
0000
1000
0100
0010
0000
,
0001
0100
0001
0000
1000
0000
0000
0000
,
0010
0100
0010
1000
0001
0010
0100
1000
,
0001
0100
0010
1000
0001
0010
0001
0100
,
0010
0000
1000
0000
0001
0010
0001
0000
,
1000
0000
0010
0100
0000
0000
0001
0000
,
0010
0000
0100
0000
1000
0010
1000
0000
,
0001
0000
0010
0100
1000
0010
0100
0001
,
1000
0000
0100
0000
0010
0001
1000
0000
,
0010
0100
0000
0001
0000
0000
0010
0000
,
0001
0000
1000
0000
0010
0100
0001
1000
,
0100
0010
0001
0100
0010
1000
0001
0010
,
0001
0000
0100
0010
0100
0000
0001
0000
,
0010
0000
0100
0000
1000
0000
0001
0100
0001
0000
1000
0000
0100
0000
1000
0000
,
0010
0100
0010
1000
0001
0010
0100
1000
,
0001
0000
0100
0000
0010
0000
1000
0000
0100
0000
0010
0001
1000
0000
0010
0000
,
0100
0010
1000
0100
1000
0001
0100
0001
,
0010
0001
1000
0010
1000
0100
0010
0001
,
1000
0000
0001
0000
0100
0000
0010
0000
0100
0000
0001
0000
0010
0000
0001
1000
,
0010
0100
0001
0010
0100
1000
0001
0100
,
0001
1000
0100
1000
0010
0100
0001
1000
,
0001
0010
0100
1000
0010
0100
0001
1000
,
0100
0010
0100
1000
0001
0100
0001
0010
,
0100
1000
0010
0100
0010
1000
0100
1000
,
0001
0100
0001
0010
0001
1000
0010
1000
,
0100
1000
0010
0100
0010
1000
0001
0010
,
0001
0100
0010
1000
0100
0010
0001
1000
,
0001
0100
0001
0010
0001
1000
0010
0100
,
0001
0010
0100
0010
0001
0100
0010
0100
,
0001
1000
0100
1000
0010
1000
0001
0010
,
0002
0003
0200
0300
,
0020
0030
2000
3000
,
0200
0000
0000
0000
,
1000
0000
0000
0000
0000
0000
0000
0000
0310
0000
0001
1000
0010
0100
0001
1000
,
0001
0010
0100
1000
0001
0100
0001
1000
0100
0010
0100
1000
0010
0100
0001
1000
,
0001
0010
0001
1000
0010
0100
0010
1000
0001
0010
0100
1000
0001
0100
0010
1000
,
0001
0010
0001
1000
0010
0100
0001
1000
0100
1000
0001
0010
0001
0100
0001
1000
,
0100
0010
0100
1000
0001
0010
0100
1000
0001
0100
0001
1000
0100
0010
0100
1000
,
0001
0100
0001
1000
0010
0100
0001
1000
0100
0010
0001
1000
0010
1000
0001
0100
,
0001
1000
0100
0010
0100
1000
0001
0010
0001
0100
0001
1000
0100
0010
0001
1000
,
0010
0100
0010
1000
0100
1000
0001
0100
0010
1000
0001
0010
0100
1000
0010
0100
,
0001
1000
0100
0010
0001
0100
0010
1000
0001
0010
0100
1000
0010
0100
0001
1000
,
0001
0010
0001
1000
0010
0100
0010
1000
0001
0010
0100
1000
0001
0100
0010
1000
,
0001
0010
0001
1000
0010
0100
0001
1000
0100
0010
0100
1000
0001
0100
0001
1000
,
0100
0010
0001
1000
0010
1000
0100
1000
0001
0010
0001
1000
0010
0100
0001
1000
,
0001
0010
0100
1000
0001
0010
0100
0010
0001
0100
0010
1000
0100
0010
0001
1000
,
0010
0100
0010
1000
0001
0100
0010
1000
0001
0010
0001
1000
0010
0100
0001
1000
,
0001
0010
0100
1000
0001
0010
0001
1000
0010
0100
0001
1000
0100
0010
0100
1000
,
0001
0100
0010
1000
0100
0010
0001
1000
0010
1000
0001
0100
0001
1000
0100
1000
,
0001
0100
0010
1000
0001
0010
0001
1000
0010
0100
0010
1000
0100
0010
0001
1000
,
0001
0100
0010
1000
0001
0010
0001
1000
0010
0100
0001
1000
0100
0010
0001
1000
,
0010
0100
0010
1000
0001
0100
0010
1000
0001
0010
0100
0010
0001
1000
0100
1000
,
0010
0100
0010
1000
0001
0100
0001
1000
0100
1000
0010
1000
0001
0100
0010
1000
,
0001
0010
0100
1000
0001
0010
0001
1000
0010
0100
0010
1000
0100
0010
0001
1000
,
0010
0100
0001
1000
0001
0010
0001
1000
0010
0100
0010
1000
0001
0010
0100
1000
,
0001
0100
0010
1000
0001
0100
0001
1000
0100
0010
0100
1000
0001
0010
0001
0100
,
0010
1000
0001
0100
0001
1000
0010
1000
0100
0010
0001
1000
0100
0010
0100
1000
,
0001
0100
0010
1000
0001
0010
0100
1000
0001
0100
0010
1000
0100
0010
0100
1000
,
0001
0100
0010
1000
0100
0010
0001
1000
0010
0100
0010
1000
0001
0010
0100
1000
,
0010
0100
0001
0010
0100
1000
0010
0100
0002
0000
0000
0000
0000
0000
0000
0000
,
1003
0100
0010
0001
0100
0010
1000
0001
0010
0100
1000
0010
0100
0001
1000
0010
,
1000
0100
0010
0001
0100
0010
1000
0001
0010
0100
0010
0001
0100
0010
1000
0001
,
1000
0100
0010
0001
0100
0010
1000
0001
0010
0100
0010
0001
0100
0010
0100
0001
,
1000
0100
1000
0001
0100
0001
1000
0010
1000
0001
0010
0100
1000
0010
0100
0001
,
1000
0100
1000
0001
0100
0010
1000
0001
0010
0100
0010
0001
1000
0010
1000
0001
,
0010
0100
1000
0001
1000
0010
0100
0001
1000
0100
0010
0100
1000
0001
0010
0001
,
0100
0010
1000
0001
0010
0001
1000
0100
1000
0010
0100
0010
1000
0100
0010
0001
,
1000
0010
0100
0001
0010
0100
1000
0001
0100
0010
1000
0100
0010
0001
1000
0010
,
0100
0000
0000
0000
0000
0000
0000
0000
0001
0000
0000
0000
0000
0000
0000
0000
1000
0000
0000
0000
0000
0000
0000
0000
0100
0000
0000
0010
0000
0000
0002
0000
0000
0000
0000
0000
0000
0000
0000
0000
0000
0000
0000
0000
0000
0000
0000
0000
,
0103
0010
1000
0001
,
0010
0000
0100
1000
0000
0000
0000
0000
;
