#TITLE:Wiki Wiki;
#SUBTITLE:;
#ARTIST:Jowell;
#TITLETRANSLIT:;
#SUBTITLETRANSLIT:;
#ARTISTTRANSLIT:;
#CREDIT:;
#BANNER:banner.JPG;
#BACKGROUND:;
#LYRICSPATH:;
#CDTITLE:!tizaTitle.png;
#MUSIC:Jowell ''El Mas Suelto'' Ft Los Genios - Wiki Wiki (Official Remix) (Www.FlowHoT.NeT).ogg;
#OFFSET:-0.080;
#SAMPLESTART:61.101;
#SAMPLELENGTH:10.000;
#SELECTABLE:YES;
#BPMS:0.000=110.000;
#STOPS:;
#BGCHANGES:;
// cache tags:
#FIRSTBEAT:16.000;
#LASTBEAT:328.500;
#SONGFILENAME:Songs/Reggaeton and more/Wiki Wiki/Pollinosis.sm;
#HASMUSIC:1;
#HASBANNER:1;
#MUSICLENGTH:184.382;
// end cache tags

//---------------dance-single - ----------------
#NOTES:
     dance-single:
     :
     Challenge:
     10:
     0.573,0.646,0.597,0.163,0.683,592.000,110.000,30.000,170.000,18.000:

0000
0000
0000
0000
,
0000
0000
0000
0000
,
0000
0000
0000
0000
,
0000
0000
0000
0000
,
1000
0000
0000
MMM0
0000
0000
1010
0000
0000
0000
0000
MMMM
0000
0000
0000
0000
,
0100
0000
0000
0MMM
0000
0000
0101
0000
0000
MMMM
0000
0000
0001
0000
0000
0000
,
1001
0000
0000
MM0M
0000
0000
1100
0000
0000
0000
0000
MMMM
0000
0000
0000
0000
,
0110
0000
0000
MMMM
0000
0000
1001
0000
0000
0MM0
0000
0000
MMMM
0000
0000
0MM0
,
1001
0000
1000
0010
0100
0001
0010
0100
1000
0100
0010
0001
1000
0000
1001
0000
,
0001
0000
0100
0010
1000
0010
0100
0001
0000
0010
0000
0100
1000
0000
1001
0000
,
0000
0001
0010
0001
0010
0000
0001
0100
0010
0000
1000
0100
0010
0100
1000
0001
,
0000
1001
0000
1000
0100
0000
0100
0000
0010
0000
0100
0010
0001
1000
0000
0000
,
1001
0000
0001
0010
0100
0010
0001
0100
0010
1000
0010
0100
0001
0000
1001
0000
,
0110
0000
1000
0100
1000
0010
0100
0001
0000
1001
0000
1000
0100
0000
1100
0000
,
0000
0001
0010
0100
1000
0000
0010
0001
1000
0000
0100
0001
0010
0100
1000
0100
,
0000
0110
0000
0010
0001
0000
1001
0000
0110
0000
1000
0100
0010
0001
0011
0000
,
1001
0000
1100
0000
0000
0000
1000
0100
0010
0001
0010
0100
0010
0000
0001
0000
,
1001
0000
1000
0010
0100
0000
0100
0000
0101
0001
0010
0100
1000
0000
1001
0000
,
0000
1000
0100
0010
0010
0000
1001
0000
0001
0100
0010
1000
0000
0100
0000
0000
,
0000
0000
0000
1000
0000
0010
0000
0100
0000
0000
0000
0001
0000
0010
0000
0100
0000
0010
0000
0001
0000
0010
0000
0100
0000
0000
0000
1000
0000
0000
0000
0000
,
0000
1000
0010
0001
0100
1000
0000
0010
,
0001
1000
0100
0000
1100
0000
0011
0000
,
0000
1100
0010
0101
1000
0011
0100
1001
,
0000
1000
0010
0100
0001
0100
1010
0000
,
1000
0001
1000
0000
0000
0000
0000
1000
0010
0100
0010
1000
0001
0000
0100
0000
,
0000
0001
0100
0001
0100
0010
1000
0100
0010
0001
0010
0100
1000
0000
1001
0000
,
0000
0000
0000
0001
0000
0000
0100
0000
0000
0010
0000
0000
1000
0100
1000
0100
0000
0000
0010
0000
0000
1001
0000
0000
,
0100
0000
0110
0000
0000
0000
1000
0100
0010
0001
0010
0100
1001
0000
0000
0000
,
1000
0100
0001
1000
0010
0001
1000
0000
0001
0100
1000
0001
0010
1000
0001
0000
,
0000
1100
0101
0001
0010
0100
1100
1001
,
0001
0010
0100
1000
0100
0010
0001
0000
1000
0100
0010
0001
0010
0100
1000
0000
,
0000
1100
0011
0110
1001
1010
0101
2001
,
0MMM
0M02
00M0
0MM0
00M0
0M00
0MM0
3M03
,
11M0
MMM0
0000
1011
0000
0000
0000
0000
,
0110
0000
0000
1101
0000
0000
0111
0000
,
1110
0000
0000
0111
0000
0000
0000
0000
,
1011
0000
0000
1111
0000
0000
0000
0000
,
0000
1000
0010
0001
1000
0100
0001
2002
,
0000
0000
0000
3003
0000
0001
0010
0100
,
0200
0001
0010
1000
0000
1300
0100
0010
,
0002
0010
0100
1000
1000
1003
0010
0202
,
0000
1010
0000
0303
0000
0000
0000
0000
,
0000
0000
0000
0000
0000
1000
0200
0020
,
0000
0001
0330
0000
0000
0001
0200
0020
,
0000
0000
0000
0000
1000
0000
0000
0000
0330
0000
0000
0000
0000
0000
0000
1000
0000
0100
0000
0010
0000
0000
0000
0001
0000
0000
0000
1001
0000
0000
0000
0000
,
0000
1000
0010
0100
0001
0100
0010
2002
,
0000
0000
0000
3003
0000
1000
0010
0100
,
0101
0001
0010
0200
0000
1300
0010
0100
,
0101
0001
0100
0020
0000
0001
0130
2000
,
0000
0002
0000
0000
0000
3003
0000
0000
,
1000
0001
0000
0000
0000
1000
0100
2002
,
0000
0010
3003
0000
0000
0001
0100
0202
,
0000
0000
0000
0000
1000
0000
0000
0000
0303
0000
0000
0000
0000
0000
0000
1000
0000
0100
0000
0010
0000
0000
0000
0001
0000
0000
0000
1001
0000
0000
0000
0000
,
1000
0000
0001
0100
0010
1000
0001
0010
0100
1000
0100
0010
0001
0000
1001
0000
,
1000
0000
0001
0100
0010
1000
0100
0010
0000
0001
0000
0010
0100
0000
1000
0000
,
0000
0001
0100
0010
1000
0000
1000
0010
0101
0000
0001
0010
0100
1000
0100
0010
,
0000
1001
0000
0100
0010
0000
1010
0000
1001
0000
0001
0100
0010
1000
0000
0000
,
1001
0000
1000
0100
0010
0100
1000
0010
0001
1000
0100
0001
0010
0000
1001
0000
,
0110
0000
1000
0010
0100
1000
0001
0010
0000
1000
0000
0100
0010
0000
1001
0000
,
0000
1000
0100
1000
1100
0000
1000
0100
1100
0000
0100
1000
0010
0100
0001
0101
,
0000
1001
0000
1100
1000
0000
0010
0000
0101
0000
0001
0010
0001
0101
0000
0000
,
0001
0000
1000
0010
0100
0001
1000
0100
0010
0001
0010
0100
1000
0000
1001
0000
,
0001
0000
1000
0010
0100
0001
0010
0100
0000
1000
0000
0100
0010
0000
0001
0000
,
0000
1000
0010
0100
0001
0000
0001
0100
1010
0000
1000
0100
0010
0001
0010
0100
,
0000
1001
0000
0010
0100
0000
0101
0000
1001
0000
1000
0010
0100
0001
0000
0000
,
M000
0000
0000
0000
0M00
0000
0000
1000
000M
0000
0010
0000
0M00
0000
0000
0000
M000
0000
0000
0000
00M0
0000
0000
0000
0M00
0000
0000
0000
000M
0000
0000
0000
00M0
0000
0000
0000
1M01
0000
0000
0000
00M0
0000
0000
0000
000M
0000
0000
0000
,
M000
00M0
0M00
01M1
M000
0M00
00M0
0M00
M000
101M
00M0
0M00
,
00M0
000M
M000
1M01
00M0
000M
00M0
0M00
M000
011M
00M0
0M00
,
M000
0000
0000
0000
0M00
0000
0000
0000
00M0
0000
0000
0000
101M
0000
0000
0000
M000
0000
0000
0000
00M0
0000
0000
0000
0M00
0000
0000
0000
000M
0000
0000
0000
00M0
0001
0000
0000
0M10
0000
0000
0000
M000
0000
0100
0000
0M00
0000
0000
0000
,
10M0
000M
0M00
00M0
M011
0M00
00M0
0M00
M000
00M0
0M00
100M
01M0
0M00
M010
0M00
,
00M1
M000
0M00
00M0
101M
0M00
00M0
M000
000M
0M00
00M0
M001
01M0
000M
M010
0M00
,
100M
00M0
0M00
M000
011M
0M00
M000
00M0
1M00
010M
00M0
0M10
M001
0M00
10M0
000M
,
10M1
M000
0M00
000M
10M1
M000
0M00
000M
00M0
M000
0M00
M001
01M0
000M
0M01
M000
,
01M1
0100
0010
1010
1000
0100
0010
0100
,
1100
1000
0001
0101
0100
0010
0110
0100
,
0101
0001
0010
1100
1000
0100
0001
1000
,
0011
0001
0100
1010
1000
0100
0010
0001
,
1000
0100
1000
0010
0100
0010
1000
0000
0001
0010
1000
0001
0100
1000
0010
0000
,
1001
0000
1000
0100
0010
0001
0001
0010
0100
1000
1000
0100
0010
0000
1001
0000
,
1000
0100
0010
0001
1000
1000
1000
0000
0001
0010
0100
1000
0001
0001
0001
0000
,
0000
0000
2001
0000
0200
0000
0002
3000
2000
0300
0200
0003
0002
3000
2000
0300
,
0000
0200
0000
3303
0000
MMMM
000M
00M0
,
0M00
M000
0000
0000
0000
0000
0000
0000
;
