#TITLE:[1-2] Get With It;
#SUBTITLE:;
#ARTIST:Tantrum Desire;
#TITLETRANSLIT:;
#SUBTITLETRANSLIT:;
#ARTISTTRANSLIT:;
#CREDIT:;
#BANNER:../Beast 4 - bn.png;
#BACKGROUND:../Beast 4 - bg.png;
#LYRICSPATH:;
#CDTITLE:;
#MUSIC:Get With It.ogg;
#OFFSET:0.009;
#SAMPLESTART:106.960;
#SAMPLELENGTH:12.000;
#SELECTABLE:YES;
#DISPLAYBPM:175.000;
#BPMS:0.000=175.000;
#STOPS:;
#BGCHANGES:;
// cache tags:
#FIRSTBEAT:8.000;
#LASTBEAT:391.000;
#SONGFILENAME:Songs/Beast Aoreo BEAST! 4/Get With It - [Aoreo]/Get With It.sm;
#HASMUSIC:1;
#HASBANNER:1;
#MUSICLENGTH:137.826;
// end cache tags

//---------------dance-single - J. Nero----------------
#NOTES:
     dance-single:
     J. Nero:
     Challenge:
     14:
     1.000,1.000,0.152,0.160,1.000,1157.000,21.000,22.000,0.000,0.000:
0000
0000
0000
0000
,
0000
0000
0000
0000
,
1001
0000
0001
0000
1000
0100
1000
0001
,
0001
0000
0200
0300
0002
0000
0000
0000
,
1003
0000
1000
0000
0100
0010
0001
0100
,
0100
0000
0020
0030
0200
0300
0002
0003
,
1000
0000
1000
0000
0001
0100
0010
1000
,
1000
0000
0000
0000
0000
0000
0000
0000
0000
0000
0000
0000
0000
0000
0000
0000
0002
0000
0000
0000
0000
0000
0000
0000
0000
0000
0000
0000
0000
0000
0000
0000
0000
0000
0000
0000
0000
0000
0000
0000
0000
0000
0000
0000
0000
0000
0000
0000
0000
0000
0000
0000
0000
0000
0000
0000
0000
0000
0000
0000
0000
0000
0000
0003
,
1001
0000
1000
0000
1010
0000
0010
0100
,
0101
0001
1001
1000
,
1010
0000
0010
0000
0110
0100
0001
0010
,
0110
0100
1100
1000
,
0001
0100
0001
0100
0010
1000
0001
1000
,
0100
0010
0100
1000
0010
0100
0001
1000
,
0001
0100
0001
0100
0010
1000
0001
1000
0001
1000
0100
0010
0100
0010
0001
1000
,
0001
0100
0001
0100
0010
1000
0001
1000
0100
0010
0001
1000
0001
1000
0010
0100
,
0010
1000
0001
0010
0100
1000
0001
0100
0010
1000
0001
1000
0100
0010
0100
1000
,
0001
0100
0001
1000
0100
0010
0001
1000
0010
0100
0001
0100
0001
0000
0000
0000
,
1000
0000
0000
0000
0100
0000
1000
0001
0100
0001
1000
0000
0010
0100
0010
0100
,
0001
0000
1000
0000
0100
0000
1000
0000
0001
0000
0100
0001
1000
0100
0010
0100
,
1000
0010
1000
0001
0100
0001
0100
0010
1000
0001
1000
0001
0010
0100
1000
0001
,
1000
0001
0100
0001
1000
0010
1000
0010
0100
0001
0100
0010
1000
0001
1000
0001
,
1000
0100
0010
0100
1000
0010
0100
0001
1000
0100
0010
0100
1000
0010
0100
0001
,
1000
0001
0100
0001
0010
0100
1000
0001
0100
0010
0100
0001
0010
0001
1000
0100
,
0010
0001
1000
0010
0100
0001
1000
0001
0010
0100
0010
0100
1000
0001
1000
0010
,
0100
0001
0100
0010
1000
0010
0100
0001
1000
0001
1000
0100
0010
0100
0010
0001
,
1000
0100
0010
0100
1000
0010
0100
0001
1000
0100
0010
0100
1000
0010
0100
0001
,
1000
0010
0100
0001
0010
0100
1000
0001
2000
0000
0000
3000
1000
0001
0010
0100
,
1000
0001
0100
0010
0100
0001
1000
0001
1000
0010
0100
0001
0100
0010
1000
0001
,
1000
0001
0010
0100
1000
0001
1000
0100
1000
0001
0100
0001
1000
0010
0100
0001
,
1000
0010
0100
0001
0010
0100
1000
0001
1000
0010
0100
0001
0010
0100
1000
0001
,
1000
0100
0010
0100
1000
0010
0100
0001
1000
0100
0010
0100
1000
0010
1000
0001
,
0100
0001
0100
0010
1000
0001
1000
0100
1000
0001
0010
0100
1000
0001
1000
0001
,
0010
0100
0010
0001
1000
0100
0010
0001
1000
0001
0100
0010
0100
0001
1000
0010
,
1000
0001
0010
0100
1000
0010
0100
0001
1000
0001
0010
0100
1000
0010
0100
0001
,
1000
0100
0010
0001
0100
0001
1000
0100
0010
0001
0010
0001
0100
0010
1000
0001
,
1000
0001
0010
0100
1000
0010
0100
0001
0010
0100
1000
0010
0100
0001
0010
0100
,
1000
0010
1000
0010
0100
0001
0100
0001
1000
0100
1000
0100
0010
0001
0010
0001
,
1000
0100
1000
0001
0100
0001
1000
0010
1000
0010
0100
0001
0100
0010
1000
0010
,
0100
0001
1000
0001
1000
0010
0100
0010
1000
0001
1000
0100
0010
0100
0010
0001
,
1000
0001
0100
0001
0100
0010
1000
0010
0100
0001
0100
0010
1000
0001
1000
0100
,
1000
0001
0100
0001
0100
0010
1000
0001
1000
0010
0100
0001
1000
0001
1000
0001
,
1000
0000
0000
0000
1001
0000
0001
0100
0010
0100
0001
0000
1000
0100
1000
0100
,
0010
0000
0001
0000
0101
0000
0100
0000
0001
0100
0001
1000
0100
1000
0010
0100
,
0001
0100
0001
1000
0010
1000
0010
0100
0001
1000
0001
1000
0100
0010
0001
1000
,
0001
1000
0010
1000
0001
0100
0001
0100
0010
1000
0010
0100
0001
1000
0001
0100
,
0001
0010
0100
0010
0001
0100
0010
1000
0001
0010
0100
0010
0001
0100
0001
1000
,
0100
0010
0100
1000
0010
0100
0001
1000
0100
0010
0100
1000
0010
0100
0001
0100
,
0001
1000
0010
0100
0010
1000
0001
1000
0100
0010
0100
0010
0001
1000
0001
0100
,
0010
1000
0010
0100
0001
0100
0010
1000
0001
1000
0001
0010
0100
0010
0100
1000
,
0001
0100
0010
1000
0100
0010
0001
1000
0001
0010
0100
1000
0010
0100
0010
1000
,
0002
0000
0000
0000
2003
3000
2000
3000
,
0001
1000
0010
0100
0010
1000
0001
1000
0001
0100
0010
1000
0010
0100
0001
1000
,
0001
1000
0100
0010
0001
1000
0001
0010
0001
1000
0010
1000
0001
0100
0010
1000
,
0001
0010
0100
1000
0001
1000
0100
0010
0001
1000
0001
0010
0100
1000
0001
1000
,
0100
0010
0001
1000
0001
0010
0100
1000
0001
1000
0100
0010
0001
1000
0001
0100
,
0010
1000
0010
0100
0001
1000
0001
0010
0001
1000
0100
0010
0001
1000
0001
1000
,
0100
0010
0100
1000
0001
0010
0100
1000
0001
1000
0010
0100
0010
1000
0001
0100
,
0010
1000
0100
1000
0001
0010
0100
1000
0010
0100
0010
1000
0100
1000
0010
0100
,
0002
0000
0000
0000
0000
0000
0000
0003
,
1001
1000
0001
0100
0010
0100
0001
1000
,
1000
0100
1000
0001
0100
0001
1000
0100
,
1100
1000
0001
0100
0010
0100
0001
0010
,
0010
0100
1000
0001
0100
0010
0100
0001
,
2001
0000
0000
0000
,
3020
0000
0000
0000
0000
0000
1030
0100
0020
0000
0000
0000
0000
0000
0000
0000
,
0031
0100
0001
0100
0010
1000
0001
1000
,
1000
0100
0010
0100
1000
0001
0100
0010
,
1001
0000
1000
0000
0001
0100
0010
1000
,
1100
0000
0000
0000
0200
0300
0000
0000
2000
3000
0000
0000
0002
0003
0000
0000
,
0101
0000
0100
0000
0010
1000
0001
0100
,
0110
0000
0002
0003
2000
0000
0000
0000
,
3001
0100
0001
0010
0100
1000
0010
0100
,
0010
1000
0100
1000
0010
1000
0100
0010
,
0001
0100
0001
0100
0010
1000
0010
1000
0001
0100
0001
1000
0100
0010
0100
0010
,
0001
1000
0001
0100
0010
1000
0001
1000
0100
0010
0001
1000
0100
1000
0001
0100
,
0001
1000
0100
0010
0100
1000
0001
0010
0100
0010
0001
1000
0100
1000
0010
0100
,
0001
1000
0010
0100
0010
1000
0001
0100
0001
1000
0100
0010
0001
0000
0000
0000
,
1001
0000
0000
0000
1000
0000
0100
1000
0001
1000
0100
0000
1000
0010
1000
0010
,
0100
0000
0001
0000
0101
0000
0000
0000
0100
0000
0001
0010
0001
0010
0100
1000
,
0001
1000
0010
0100
0001
0100
0001
1000
0010
1000
0001
1000
0100
1000
0001
0010
,
0001
1000
0100
0010
0001
1000
0001
1000
0010
0100
0001
0100
0010
1000
0001
0100
,
0001
0010
0100
0010
0001
0100
0010
1000
0001
0010
0100
0010
0001
0100
0010
1000
,
0001
1000
0100
1000
0010
0100
0010
1000
0001
1000
0100
1000
0010
0100
0001
1000
,
0100
0010
0001
1000
0100
0010
0100
0010
0001
1000
0001
1000
0010
0100
0010
1000
,
0001
1000
0100
0010
0100
0010
0001
1000
0001
0100
0001
1000
0010
0100
0010
1000
,
0100
0010
0001
0100
0010
1000
0100
0010
0001
0100
0010
1000
0100
0010
0001
0100
,
0010
1000
0001
0010
0100
1000
0010
0100
0001
0010
0100
1000
0010
0100
0001
0010
,
0100
1000
0001
1000
0001
0100
0001
1000
0100
1000
0010
0100
0001
0100
0010
1000
,
0001
0010
0100
1000
0001
1000
0100
1000
0001
0010
0001
1000
0001
0010
0100
1000
,
0001
0010
0001
0100
0010
1000
0100
1000
0010
0100
0001
0010
0001
0100
0010
1000
,
0100
1000
0010
0100
0001
0010
0001
0100
0010
1000
0100
1000
0010
0100
0001
0010
,
0001
1000
0001
1000
0100
1000
0001
0010
0001
0100
0010
1000
0001
0100
0001
1000
,
0010
0100
0001
0100
0010
1000
0001
1000
0001
0010
0100
1000
0001
1000
0100
1000
,
0010
0100
0010
1000
0100
0010
0100
1000
0010
1000
0001
0010
0100
1000
0010
0100
,
0002
0000
0000
0000
0000
0000
0000
0003
,
2002
0000
0000
0000
,
0000
0000
0000
3003
;
