#TITLE:You Wanna Me;
#SUBTITLE:;
#ARTIST:Vospi;
#TITLETRANSLIT:;
#SUBTITLETRANSLIT:;
#ARTISTTRANSLIT:;
#CREDIT:;
#BANNER:youwanname.png;
#BACKGROUND:youwanname-bg.png;
#LYRICSPATH:;
#CDTITLE:vospi.png;
#MUSIC:Vospi - You Wanna Me.mp3;
#OFFSET:-0.069;
#SAMPLESTART:18.576;
#SAMPLELENGTH:21.500;
#SELECTABLE:YES;
#BPMS:0.000=98.000;
#STOPS:;
#BGCHANGES:;
// cache tags:
#FIRSTBEAT:0.000;
#LASTBEAT:168.000;
#SONGFILENAME:Songs/Keys of Flames/You Wanna Me (Vospi)/youwanname.sm;
#HASMUSIC:1;
#HASBANNER:1;
#MUSICLENGTH:112.754;
// end cache tags

//---------------dance-single - ----------------
#NOTES:
     dance-single:
     :
     Hard:
     10:
     0.698,0.875,0.656,0.426,0.843,429.000,74.000,48.000,0.000,0.000:
1000
0000
0000
0000
0000
0000
0000
0000
0010
0100
0000
0001
0000
0000
0000
0000
0000
0000
0000
0000
0100
0010
0000
0000
,
0010
0000
1000
0000
0000
0010
1000
0000
0000
0010
0000
1000
0000
0000
0000
0000
0000
0000
0000
0000
0100
1000
0100
0010
,
0001
0000
0000
0000
0000
0000
0000
0000
0010
0100
0000
1000
0000
0000
0000
0000
0000
0000
0000
0000
0100
0010
0000
0000
,
0010
0000
0001
0000
0000
0001
0000
0000
0000
1000
0000
0010
0000
0000
0000
0000
0000
0000
0000
0000
0100
1000
0100
0010
,
0001
0000
0000
0000
0000
0000
0000
0000
0010
0100
0000
0010
0100
0000
0000
0100
0000
0000
0000
0000
0010
1000
0000
0000
,
0100
0000
0010
0000
0000
0100
0010
0000
0000
0100
0000
0010
0100
0000
0000
0100
0000
0000
0000
0000
0100
1000
0100
0010
,
1001
0000
0000
0000
0000
0000
0000
0000
0000
0000
0000
0000
0000
0000
0000
0000
0010
0000
0100
0000
0000
0000
0010
0000
0100
0000
0000
0000
0000
0000
0100
0000
0000
0000
0000
0000
0000
0000
0000
0010
0001
0000
0000
0000
0000
0000
0110
0000
,
0000
0000
0000
0000
0000
0000
0000
0000
0000
0000
0000
0000
0000
0000
0000
2000
0000
0000
3001
0000
0100
1000
0100
0010
,
0101
0000
0000
0100
0000
0000
1001
0000
0010
0100
0000
0010
0001
0000
0000
0200
0000
0300
0011
0000
1000
0100
0000
0000
,
0110
0000
1000
0100
0000
0010
1100
0000
0000
0010
0000
1000
0011
0000
0000
0100
0000
0000
0110
0000
0100
1000
0100
0010
,
0101
0000
0000
0010
0000
0000
1010
0000
0010
0100
0000
0010
0001
0000
0000
0200
0000
0300
0011
0000
1000
0100
0000
0000
,
0110
0000
0001
0100
0000
0010
1001
0000
0000
0010
0000
1000
0011
0000
0000
0100
0000
0000
0110
0000
0100
1000
0100
0010
,
1100
0000
0000
0010
0000
0000
1001
0000
0100
1000
0000
0010
0100
0000
0000
0200
0000
0300
1010
0000
1000
0100
0000
0000
,
0110
0000
1000
0000
0000
0010
1100
0000
0000
0010
0000
1000
0011
0000
0000
0100
0000
0000
0110
0000
0100
1000
0100
0010
,
0101
0000
0000
0010
0000
0000
1010
0000
0010
0100
0000
0010
0001
0000
0000
0200
0000
0300
0011
0000
1000
0100
0000
0001
,
0110
0000
0000
0100
0000
0000
1001
0000
0000
0010
0000
1000
0011
0000
0000
2000
0000
3000
0110
0000
0000
0002
0003
0000
,
1000
0000
0100
0010
0000
0000
0011
0000
0000
0010
0000
0100
1010
0000
0000
2000
0000
3000
0110
0000
0010
0001
0000
0000
,
1000
0000
0100
0010
0000
0000
0011
0000
0000
0010
0000
0100
1010
0000
0100
2000
0000
3000
0110
0000
0000
0001
0000
0000
,
1000
0000
0100
0010
0000
0000
0011
0000
0000
0010
0000
0100
1010
0000
0000
2000
0000
3000
0110
0000
0000
0001
0000
0000
,
1000
0000
0100
0010
0000
0000
0011
0000
0000
0010
0000
0100
1010
0000
0000
2000
0000
3000
0110
0000
0000
0001
0000
1000
,
0011
0000
0100
0010
0000
0000
0110
0000
0000
0010
0000
0100
1010
0000
0000
2000
0000
3000
0011
0000
0010
0100
0000
0000
,
1000
0000
0100
0010
0000
0000
0011
0000
0000
0010
0000
0100
1010
0000
0100
2000
0000
3000
0110
0000
0000
0001
0000
0000
,
0110
0000
0100
0010
0000
0000
1010
0000
0000
0010
0000
0100
0011
0000
0000
2000
0000
3000
0011
0000
0000
0001
0000
0000
,
1000
0000
0100
0010
0000
0000
0011
0000
0000
0010
0000
0100
1010
0000
0000
2000
0000
3000
0110
0000
0000
0001
0000
0010
,
1000
0000
0000
0000
0000
0000
0000
0000
0000
2000
3200
0300
0002
0000
0000
0000
0000
0000
0000
0000
0000
0000
0000
0000
0000
0000
0000
0000
0000
0000
0000
0000
0000
0000
0000
0000
0000
0000
0000
0000
0003
0000
0002
0000
0000
0000
0003
0000
,
0020
0000
0000
0000
0030
2000
0000
0000
3000
0020
0030
0200
0000
0000
0000
0000
0000
0300
0000
0000
0000
0000
0000
0000
,
1000
0000
0000
0000
0000
0000
0000
0000
0000
2000
3200
0300
0020
0000
0000
0000
0000
0000
0000
0000
0000
0000
0000
0000
0000
0000
0000
0000
0000
0000
0000
0000
0000
0000
0000
0000
0030
0000
0000
0000
0000
0000
0002
0000
0000
0000
0003
0000
,
0200
0000
0000
0300
0000
2000
0000
0000
3000
0020
0030
0200
0000
0000
0000
0000
0000
0300
0000
0000
1000
0100
0000
0010
,
0001
0100
0010
0100
0001
0100
0010
0100
0001
0100
0010
0100
0001
0100
0010
0100
0001
0100
0010
1000
0100
0010
0100
0010
,
0001
0010
0100
1000
0001
0010
0100
1000
0001
1000
0001
1000
0001
1000
0010
0100
0001
0100
0010
0000
0100
0010
0001
0000
,
0010
0000
0100
0000
0000
0000
1000
0000
0100
0000
0000
0000
0011
0000
0220
0000
0000
0000
0000
0000
0000
0330
2020
0000
0000
0000
0000
0000
0000
0000
3030
0000
,
0001
0010
0100
0010
0100
1000
0001
0010
0100
0010
0100
1000
0101
0010
0001
1100
0010
0100
1001
0000
0000
0000
0000
0000
,
0101
0000
0010
0100
0000
0001
0010
0000
0100
0001
0000
0010
0101
0000
1000
0010
0100
0010
0001
0000
0000
0000
0000
0010
,
1000
0000
0100
0000
0010
0000
0001
0000
0100
0000
0010
0000
1000
0000
0010
0000
0100
0000
0001
0000
0010
0000
0100
0000
1000
0000
0000
0100
0000
0000
0000
0000
0000
0010
0000
0000
0000
0000
0000
0020
0000
0000
0000
0000
0000
0030
0000
0000
,
0001
0000
0000
0001
0000
0000
0010
0000
0100
1000
0000
0001
0000
0000
0001
0000
0000
0001
0010
0000
0100
1000
0000
0010
,
0200
0000
0000
0000
0000
0000
0000
0000
0000
0000
0000
0000
0000
0000
0000
0000
0300
0000
0000
0000
0000
0000
0000
0000
2000
0000
0000
0000
0000
0000
0000
0000
3000
0000
0000
0000
0000
0000
0000
0000
0020
0000
0000
0000
0000
0000
0000
0000
0000
0000
0000
0000
0000
0000
0000
0000
0030
0000
0000
0000
0000
0000
0000
0000
0100
0000
0000
0000
0000
0000
0000
0000
0000
0000
0000
0000
0000
0000
0000
0000
0000
0000
0000
0000
0000
0000
0000
0000
0020
0000
0000
0000
0000
0000
0000
0000
0030
0000
0000
0000
0000
0000
0000
0000
0000
0000
0000
0000
0000
0000
0000
0000
1000
0000
0000
0000
0000
0000
0000
0000
0000
0000
0000
0000
0000
0000
0000
0000
0000
0000
0000
0000
0000
0000
0000
0100
0020
0000
0000
0000
0000
0000
0000
0000
0000
0000
0000
0000
0000
0000
0000
0000
0000
0000
0000
0000
0000
0000
0000
0000
0000
0000
0000
0000
0000
0000
0000
0000
0030
0000
0000
0000
0000
0000
0000
0000
0000
0000
0000
0000
0000
0000
0000
0000
1000
0000
0000
0000
0000
0000
0000
0000
,
0002
0000
0000
0000
0000
0000
0000
0000
0000
0000
0000
0000
0000
0000
0000
0000
0000
0000
0003
0000
0010
0100
0000
0020
,
0030
0000
0100
1000
0000
0200
0000
0300
1000
0010
0000
2000
0000
3000
0000
1010
0000
0000
0110
0000
0000
0101
0000
0000
,
0012
0000
0000
0000
0000
0000
0000
0000
0000
0000
0000
0000
0000
0000
0000
0000
0000
0000
0000
0000
0000
0000
0000
0000
0000
0000
0000
0000
0000
0000
0000
0000
0000
0000
0000
0000
0000
0000
0000
0000
0000
0000
0000
0000
0000
0000
0000
0000
0000
0000
0000
0000
0000
0000
0000
0000
0000
0000
0000
0000
0000
0000
0000
0000
0000
0000
0000
0000
0000
0000
0000
0000
0000
0000
0000
0000
0000
0000
0000
0000
0000
0000
0000
0000
0000
0000
0000
0000
0000
0000
0000
0000
0000
0000
0000
0000
0000
0000
0000
0000
0000
0000
0000
0000
0000
0000
0000
0000
0000
0000
0000
0000
0000
0000
0000
0000
0000
0000
0000
0000
0000
0000
0000
0000
0000
0000
0000
0000
0000
0000
0000
0000
0000
0000
0000
0000
0000
0000
0000
0000
0000
0000
0000
0000
0003
0000
0000
0000
0000
0000
0000
0000
0000
0000
0000
0000
0000
0000
0000
1000
0020
0000
0000
0000
0000
0000
0000
0000
0000
0000
0000
0000
0000
0000
0000
0000
0000
0000
0000
0000
0000
0000
0000
0000
0000
0000
0000
0000
0000
0000
0000
0000
,
0000
0000
0030
0200
0000
0000
0000
0000
0000
0000
0000
0000
0000
0000
0000
0000
0000
0000
0000
0000
0000
0000
0300
0000
,
1100
0000
0000
1100
0000
0000
0001
0000
0000
0010
0000
0100
0100
0000
0000
0100
0000
0000
0001
0000
0100
0000
0000
0010
,
1100
0000
0000
1100
0000
0000
0001
0000
0000
0010
0000
0100
0100
0000
0000
0100
0000
0000
0000
0000
0100
0011
0000
0000
,
1001
0000
0000
0000
;
