#TITLE:HELL SCAPER;
#SUBTITLE:(Last Escape Remix);
#ARTIST:DJ TECHNORCH fw. GUHROOVY;
#TITLETRANSLIT:;
#SUBTITLETRANSLIT:;
#ARTISTTRANSLIT:;
#CREDIT:B. Abear;
#BANNER:Bn-Hell.png;
#BACKGROUND:Bg-Hell.png;
#LYRICSPATH:;
#CDTITLE:;
#MUSIC:13 - HELL SCRAPER -Last Escape Remix-.ogg;
#OFFSET:-0.208;
#SAMPLESTART:52.580;
#SAMPLELENGTH:21.000;
#SELECTABLE:YES;
#DISPLAYBPM:180.000;
#BPMS:0.000=180.000,129.000=360.000,133.000=180.000,137.000=360.000,141.000=180.000,145.000=360.000,149.000=180.000,153.000=360.000,155.000=180.000,220.000=360.000,221.000=180.000,404.000=360.000,405.000=180.000;
#STOPS:60.000=1.000
,129.000=0.083
,129.500=0.042
,129.750=0.042
,130.000=0.042
,130.250=0.042
,130.500=0.042
,130.750=0.042
,131.000=0.167
,132.000=0.167
,137.000=0.083
,137.500=0.042
,137.750=0.083
,138.250=0.083
,138.750=0.042
,139.000=0.167
,140.000=0.167
,145.000=0.042
,145.250=0.042
,145.500=0.042
,145.750=0.042
,146.000=0.083
,146.500=0.083
,147.000=0.167
,148.000=0.167
,153.000=0.042
,153.250=0.042
,153.500=0.042
,153.750=0.042
,154.000=0.042
,154.250=0.042
,154.500=0.042
,154.750=0.042
,220.000=0.083
,220.500=0.083
,404.000=0.167
;
#BGCHANGES:;
// cache tags:
#FIRSTBEAT:60.000;
#LASTBEAT:765.000;
#SONGFILENAME:Songs/SSSC Pack 2/HELL SCAPER (Last Escape Remix)/HELL SCAPER (Last Escape Remix).sm;
#HASMUSIC:1;
#HASBANNER:1;
#MUSICLENGTH:264.097;
// end cache tags

//---------------dance-single - B. Abear----------------
#NOTES:
     dance-single:
     B. Abear:
     Challenge:
     14:
     0.929,1.000,1.000,0.333,0.699,1356.000,268.000,88.000,120.000,7.000:

0000
0000
0000
0000
,
0000
0000
0000
0000
,
0000
0000
0000
0000
,
0000
0000
0000
0000
,
0000
0000
0000
0000
,
0000
0000
0000
0000
,
0000
0000
0000
0000
,
0000
0000
0000
0000
,
0000
0000
0000
0000
,
0000
0000
0000
0000
,
0000
0000
0000
0000
,
0000
0000
0000
0000
,
0000
0000
0000
0000
,
0000
0000
0000
0000
,
0000
0000
0000
0000
,
4MM4
3003
0000
0000
0011
0000
0000
0000
1100
0000
0000
0000
1001
0000
0000
0000
,
0101
0110
1010
1001
,
0011
1100
0101
1001
,
0110
1010
1001
0011
,
1100
1010
0101
1010
,
1001
0011
1100
1001
,
0110
0101
1010
0011
,
1100
0000
0000
0000
0000
0000
0011
0000
0000
0000
0000
0000
1001
0000
0000
0000
0000
0000
1100
0000
0000
1000
0001
1000
,
0200
0300
0020
0030
0011
0000
0000
0000
1010
0000
0000
0000
0110
0000
0000
0000
,
0101
1001
1100
0110
,
0011
1001
0101
0110
,
1010
1001
0011
1010
,
0101
0110
1010
0011
,
1100
0110
0011
0101
,
1001
1100
0011
1001
,
0101
0000
0000
0000
00M1
1000
0100
0010
0001
1000
0MMM
1000
0M2M
0000
0000
0000
,
M23M
0000
0000
0300
0101
0000
0000
0000
0110
0000
0000
0000
1010
0000
0000
0000
,
1001
0000
0000
0000
1000
0000
0001
0010
0100
1000
0100
1000
0001
0000
0000
0000
,
0100
1010
0101
1001
,
1100
0000
0000
0000
0100
0000
0010
0001
0000
0001
0000
0001
0100
0000
0000
0000
,
0010
1010
1001
0011
,
1100
0000
0000
0000
0100
0010
0001
1000
0001
0000
1000
0000
1000
0000
0000
0000
,
0001
1001
1100
0110
,
0011
0000
0000
0000
0001
0100
0010
1000
0001
0100
0010
1000
0002
0000
0000
0003
,
0020
0000
0000
0030
1100
0000
0100
0000
0011
0000
0010
0000
1001
0000
0001
0000
,
1010
0000
1000
0000
0001
0000
0001
0100
0010
0000
0010
0000
2000
0000
3002
0000
,
1003
0100
0021
0130
1100
1000
0101
0001
,
1010
0000
1000
0000
0001
0000
0100
0000
0010
1000
0100
0010
0001
1000
0100
0000
,
1000
1000
0012
1003
0101
0001
0110
0100
,
1001
0000
0001
0000
1000
0000
1000
0100
0010
0000
0010
0000
0002
0000
2003
0000
,
3001
0010
1100
1000
0101
0001
1010
1000
,
0011
1001
0000
0101
0000
1010
0000
1100
,
2002
0000
0020
3033
0101
0001
1010
1000
,
0011
0000
0010
0000
0001
0000
0001
1000
0100
0000
0100
0000
0020
0000
0032
0000
,
1003
0010
0101
0100
1010
0010
1100
1000
,
0011
0000
0001
0000
0001
0000
0001
1000
0010
0000
0100
0000
0002
0000
2003
0000
,
3001
0100
2010
3100
1001
1000
0101
0001
,
1100
0000
1000
0000
0100
0000
0100
0010
0001
0000
0010
0000
0200
0000
2300
0000
,
3001
0100
0201
0310
1001
1000
0011
0001
,
1100
1000
00M2
00M0
0MM0
0MM0
MMM0
MMM0
,
1M00
10M3
1010
0001
1000
0011
0001
1000
,
0101
0101
1000
0011
0001
1001
1100
0110
,
0011
1001
1000
0001
1000
0011
1000
0001
,
0101
0101
1000
0011
0001
1001
0010
0100
,
1100
1001
1000
0011
0001
1010
1000
0110
,
0010
0000
1001
0000
1000
0000
0011
0000
0001
0000
1000
0000
1001
0000
0000
0101
,
0000
0110
1010
1000
0100
0010
0001
1000
,
0001
0010
0200
0000
0002
0003
0020
0030
,
4000
0300
3101
0001
1000
0100
0110
0010
,
0001
0001
0101
0100
0010
1000
0100
0001
,
0100
1000
1001
0001
0100
0010
1010
1000
,
0100
0100
0110
0010
0001
1000
1001
0001
,
1000
0100
0011
0001
1000
0010
0110
0100
,
0001
0000
1000
0000
1100
0000
0100
0000
0010
0000
0001
0000
0011
0000
0000
1100
,
0000
1001
1010
0010
0100
0001
0011
0010
,
0100
1000
0002
0203
2300
3002
0023
2030
,
3002
0023
M130
M100
M100
M100
10M0
10M0
,
10M0
10M0
0M10
0M10
0M10
0M10
010M
010M
,
010M
010M
M001
M001
M001
M001
1M00
1M00
,
1M00
1M00
01M0
01M0
01M0
01M0
001M
001M
,
001M
0000
001M
0000
0001
0000
1000
0010
1000
0000
0001
0010
0001
0000
1000
0100
,
1000
0000
0001
0100
0001
0000
1000
0010
1000
0000
0001
0100
0001
0000
1000
0100
,
1000
0000
0001
0010
0001
1000
0100
0010
0001
1000
0001
0100
0010
1000
0001
0010
,
0100
1000
0100
1000
0001
0100
0001
0100
0010
1000
0010
1000
0001
1000
0001
1000
,
0100
0000
0000
0010
0000
0000
0001
0000
0000
1000
0000
0000
2M02
0000
0000
0000
0000
0000
0000
0000
00M0
0000
0000
0000
0000
0000
0000
0000
0000
0000
0M00
0000
0000
0000
00M0
0000
0000
0000
0000
0000
0000
0000
0000
0000
0M00
0000
0000
0000
,
0000
0000
0000
3000
0003
0000
0000
0000
M000
0000
000M
0000
0000
0000
0000
0000
0000
0000
0000
0000
0000
0000
0000
0000
0000
0000
0000
0000
0000
0000
0000
0000
,
0000
0000
0000
0000
,
0000
0000
0000
0000
,
0000
0000
0000
0000
M000
0000
0000
0000
0M0M
0000
0000
0M00
00M0
0000
0000
0000
,
0000
0000
0000
0000
0000
M000
0000
0000
0000
0000
0000
0000
000M
0000
0000
0000
0000
M000
0000
0000
0000
0000
000M
0000
0000
0000
0000
0000
0000
0000
0000
0000
,
0000
0000
0000
0000
,
0000
0000
0000
0000
,
0000
0000
0000
0000
,
0000
0000
0000
0000
,
0000
0000
0000
2000
,
0000
0000
0000
0000
0000
3200
0000
0000
,
0000
0320
0000
0000
0000
0000
0000
0000
,
0032
0000
0000
0000
0000
0000
2003
0000
0000
0000
0000
3002
0000
0000
0000
0000
,
0000
0000
0000
0000
0203
0000
0000
0000
0000
0000
0000
0000
0000
0000
0000
0320
,
0000
0000
2030
0000
0000
3002
0000
0000
,
0000
0000
0000
0000
0023
0000
0000
0000
0000
0000
0000
0000
0000
0230
0000
0000
,
0000
0000
2300
0000
0000
3002
0000
0000
,
0000
0000
0000
0000
2003
0000
0000
0000
0000
0000
0000
0000
0000
3002
0000
0000
,
0000
0000
0023
0000
0000
0230
0000
0000
,
0000
0000
0000
0000
2300
0000
0000
0000
0000
0000
0000
0000
0000
3002
0000
0000
,
0000
0403
0000
0000
,
M3MM
0000
0M00
0000
2002
0000
3000
0000
0023
0000
0030
0001
1000
0100
0000
1000
,
0020
0000
0130
0000
0001
0000
0001
0000
0001
0000
2000
0000
0000
3100
0000
0010
,
0002
0000
0000
0000
1003
0000
1000
0000
1000
0000
1000
0000
1000
0001
0000
0010
,
0200
0000
0310
0000
0001
0000
0001
0000
0001
0000
2000
0000
0000
3020
0000
0000
,
0230
0000
0000
0300
2MM1
0000
3001
0000
0010
0000
0010
0000
0100
1000
0000
0001
,
0020
0000
0130
0000
1000
0000
1000
0000
1000
0000
0020
0000
0000
0230
0000
0000
,
0302
0000
0000
0000
0013
0000
0010
0000
0010
0000
0010
0000
0010
0100
0000
1000
,
0020
0000
0130
0000
0001
0000
0001
0000
0001
0000
2000
0000
0000
3020
0000
0000
,
0230
0000
0000
0300
0101
0000
0001
0000
1000
0000
0100
0000
0010
0000
0001
0000
,
0010
0100
1000
0001
1000
0100
0010
0001
,
0100
0000
0010
0000
1000
0000
0001
0000
1000
0000
0100
0000
0010
0001
0000
0010
,
0001
0000
1000
0000
0001
0000
0001
0000
0001
0000
0100
0000
0000
0010
0000
0000
,
1000
0000
0001
0000
0010
0100
1000
0001
0100
0001
1000
0100
1000
0001
0010
0100
,
2000
0000
0000
0000
,
0000
0000
0000
0000
3001
0100
0010
1000
0001
1000
0001
0010
0100
1000
0001
0010
,
0001
0000
1000
0000
0010
0000
0100
0000
M002
0000
0000
0000
0000
00M0
0000
0000
0000
0000
M000
0000
0M00
0000
0000
0000
0000
0000
0000
0000
0000
0000
0000
0000
,
1013
0000
1001
0000
0011
0000
0010
0000
1100
0000
0100
0000
0010
0001
0000
1000
,
0001
0000
0100
0000
1010
0000
0010
0000
1010
0000
0100
0000
0000
0001
0000
0000
,
1000
0000
0100
0000
0011
0000
0010
0000
1001
0000
0001
0000
1000
0010
0000
0100
,
0010
0000
1000
0000
0011
0000
0001
0000
1100
0000
1000
0000
0000
0001
0000
0000
,
0010
0000
0100
0000
1100
0000
1000
0000
0110
0000
0010
0000
0100
0001
0000
1000
,
0100
0000
0010
0000
1100
0000
0100
0000
1001
0000
1000
0000
0000
0100
0000
0000
,
0010
0000
0001
0000
1010
0000
1000
0000
0101
0000
0001
0000
1000
0100
0000
0010
,
0100
0000
0000
0000
0000
0000
1000
0000
0000
0000
0000
0000
0101
0000
0000
0000
0000
0000
0001
0000
0000
0000
0000
0000
1010
0000
0000
0000
0000
0000
1000
0000
0000
0000
0000
0000
0001
0000
0000
1000
0000
0000
0001
0000
0100
0000
0001
0000
,
0200
0000
0000
0300
1010
0000
0010
0000
0101
0000
0100
0000
0001
1000
0000
0001
,
0010
0000
0100
0000
1001
0000
1000
0000
0011
0000
0001
0000
0000
1000
0000
0000
,
0100
0000
1000
0000
0101
0000
0001
0000
1010
0000
1000
0000
0001
0100
0000
0010
,
0100
0000
0001
0000
1100
0000
1000
0000
0011
0000
0001
0000
0000
0010
0000
0000
,
0100
0000
1000
0000
0101
0000
0001
0000
0110
0000
0100
0000
0010
1000
0000
0001
,
0010
0000
0100
0000
1001
0000
1000
0000
0101
0000
0001
0000
0000
0100
0000
0000
,
0010
0000
1000
0000
0101
0000
0001
0000
1100
0000
1000
0000
0001
0010
0000
0100
,
1000
0000
0000
0000
0000
0000
0001
0000
0000
0000
0000
0000
1000
0000
0000
0001
0000
0000
1000
0000
0000
0001
0000
0000
1000
0000
0000
0001
0000
0000
0100
0000
0000
0010
0000
0000
0100
0000
0000
0010
0000
0000
1000
0000
0001
0000
1000
0000
,
0002
0000
0000
0000
1003
0100
1000
0100
1000
0100
1000
0100
0010
0100
0010
0100
,
0010
0100
0010
0100
1000
0001
1000
0001
1000
0001
0100
0001
0100
0001
0100
0001
,
0100
0001
0100
0001
1000
0010
1000
0010
1000
0010
1000
0010
0100
0010
0100
0010
,
0100
0010
0100
0010
0100
0001
0100
0001
0100
0001
1000
0100
1000
0100
1000
0100
,
1000
0100
1000
0100
0010
0001
0010
0001
0010
0001
0010
0001
1000
0001
1000
0001
,
1000
0001
1000
0001
0100
0010
0100
0010
0100
0010
0100
0001
0100
0001
0100
0001
,
0100
0001
0100
0001
1000
0100
1000
0100
1000
0100
1000
0100
0010
0100
0010
0100
,
0010
0100
0010
0100
100M
0000
00M0
0000
0M00
0000
M000
0000
1MM1
0000
0000
1MM1
,
0000
0000
1MM1
0000
0001
0100
0001
0100
0001
0100
0001
0100
0010
0100
0010
0100
,
0010
0100
0010
0100
0010
1000
0010
1000
0010
1000
0001
0010
0001
0010
0001
0010
,
0001
0010
0001
0010
0001
1000
0001
1000
0001
1000
0001
1000
0010
1000
0010
1000
,
0010
1000
0010
1000
0001
0010
0001
0010
0001
0010
0100
1000
0100
1000
0100
1000
,
0100
1000
0100
1000
0001
0010
0001
0010
0001
0010
0001
0010
0001
1000
0001
1000
,
0001
1000
0001
1000
0010
0100
0010
0100
0010
0100
0001
0100
0001
0100
0001
0100
,
0001
0100
0001
0100
0010
1000
0001
0010
0001
1000
0100
0010
0001
1000
0010
0100
,
0001
1000
0001
1000
0200
0000
0000
0310
0001
1000
0001
1000
0002
0000
0000
0000
,
0103
M0M0
1010
1010
1010
1010
1010
0001
,
0000
1010
0001
1010
0001
0011
0011
0011
,
0011
0011
0011
0011
0011
0011
0011
1000
,
0011
0011
1000
0011
1000
0101
0101
0101
,
0101
0101
0101
0010
0200
0000
13M1
0010
,
0200
0000
0000
0000
0000
0000
0000
0000
0000
0000
0000
0000
13M1
0000
0000
0000
0000
0000
0010
0000
0000
0000
0000
0000
0010
0000
0000
0000
0000
0000
0010
0000
0000
0000
0000
0000
1000
0000
0000
0001
0000
0000
1000
0000
0001
0000
1000
0000
,
0002
0000
0000
0000
1013
0000
1000
0010
1000
0010
1000
0000
0001
0010
0001
0010
,
0100
1000
0100
0000
0010
0100
0010
0000
0011
0000
0001
0100
0001
0100
0010
1000
,
0010
0100
0001
0000
1001
0000
1000
0100
1000
0100
1000
0000
0010
0100
0010
0100
,
0001
1000
0001
0000
1000
0100
1000
0000
1100
0000
0100
0010
0100
0010
0001
0010
,
0001
1000
0001
0000
0101
0000
0100
0010
0100
0010
0100
0000
0010
1000
0010
0100
,
0001
0100
0001
0000
1000
0100
1000
0000
1001
0000
0001
0010
0001
1000
0100
1000
,
0100
0010
0001
0000
0011
0000
0010
0001
0010
0001
0010
0000
0001
0100
0001
1000
,
0010
0000
0000
1000
0000
0000
0010
0000
0000
0000
0000
0000
1000
0000
0000
0010
0000
0000
1000
0000
0000
0000
0000
0000
1010
0000
0000
0000
0000
0000
0010
0000
0000
0100
0000
0000
0010
0000
0000
1000
0000
0000
0001
0000
0100
0000
0001
0000
,
0200
0000
0000
0000
1301
0000
1000
0100
1000
0100
0010
0000
0001
0010
0001
0010
,
0100
1000
0001
0000
0100
0010
1000
0000
1010
0000
0010
0100
0001
0100
0001
1000
,
0100
1000
0001
0000
1001
0000
1000
0010
1000
0010
0100
0000
0001
0100
0001
0100
,
0010
1000
0001
0000
0010
0100
1000
0000
1100
0000
0100
0010
0100
0010
0001
1000
,
0010
0100
0010
0000
0100
0001
0100
0001
1000
0100
1000
0000
0001
0100
0001
0100
,
0010
1000
0001
0000
1000
0000
0100
0000
1000
0000
0001
0000
0010
0000
0100
0000
,
1000
0000
0001
0000
0100
0010
0100
0010
0100
0010
0100
0010
0100
0010
0100
0010
,
0100
0010
0100
0000
1MM1
0000
M00M
0000
0000
0000
0000
0000
0000
0001
2000
0000
,
0000
3000
M000
0000
1100
0000
1000
0000
0011
0000
0010
0000
0100
1000
0000
0001
,
1000
0000
0010
0000
0101
0000
0100
0000
0101
0000
0010
0000
0000
1000
0000
0000
,
0001
0000
0010
0000
1100
0000
0100
0000
1001
0000
1000
0000
0001
0100
0000
0010
,
0100
0000
0001
0000
1100
0000
1000
0000
0011
0000
0001
0000
0000
1000
0000
0000
,
0100
0000
0010
0000
0011
0000
0001
0000
0110
0000
0100
0000
0010
1000
0000
0001
,
0010
0000
0100
0000
0011
0000
0010
0000
1001
0000
0001
0000
0000
0010
0000
0000
,
0100
0000
1000
0000
0101
0000
0001
0000
1010
0000
1000
0000
0001
0010
0000
0100
,
0010
0000
0000
0000
0000
0000
0001
0000
0000
0000
0000
0000
1010
0000
0000
0000
0000
0000
1000
0000
0000
0000
0000
0000
0101
0000
0000
0000
0000
0000
0001
0000
0000
0000
0000
0000
1000
0000
0000
0001
0000
0000
1000
0000
0010
0000
1000
0000
,
0020
0000
0000
0030
0101
0000
0100
0000
1010
0000
0010
0000
1000
0001
0000
1000
,
0100
0000
0010
0000
1001
0000
0001
0000
1100
0000
1000
0000
0000
0001
0000
0000
,
0010
0000
0001
0000
1010
0000
1000
0000
0101
0000
0001
0000
1000
0010
0000
0100
,
0010
0000
1000
0000
0011
0000
0001
0000
1100
0000
1000
0000
0000
0100
0000
0000
,
0010
0000
0001
0000
1010
0000
1000
0000
0110
0000
0010
0000
0100
0001
0000
1000
,
0100
0000
0010
0000
1001
0000
0001
0000
1010
0000
1000
0000
0000
0010
0000
0000
,
0100
0000
0001
0000
1010
0000
0100
0000
0011
0000
0100
0000
1000
0001
0000
1000
,
0001
0000
1000
0001
1000
0000
1100
0000
0110
0000
0011
0000
0000
1001
0000
0000
,
0001
1000
0001
1000
0001
1000
0000
0000
0000
0000
0000
0000
M000
0000
0000
0000
0000
0000
000M
0000
0000
0000
M000
0000
,
0000
00M0
0000
0000
0000
0000
0000
000M
0000
0000
00M0
0000
0000
0000
0000
0000
M000
0M00
0000
0000
0000
0000
0000
000M
,
0000
0000
0000
M000
0000
00M0
0000
0000
0M00
0000
0000
000M
,
M000
0000
0000
0000
00M0
0000
0000
0000
0000
0000
0000
0000
0000
0M00
0000
000M
0000
0000
0000
M000
0000
0000
0000
00M0
,
0000
1111
0000
0000
;
