#TITLE:End of the Moonlight;
#SUBTITLE:DJMAX Portable O.S.T;
#ARTIST:Forte Escape;
#TITLETRANSLIT:;
#SUBTITLETRANSLIT:;
#ARTISTTRANSLIT:;
#CREDIT:ALICE_;
#BANNER:End of the Moonlight.png;
#BACKGROUND:End of the Moonlight.jpg;
#LYRICSPATH:;
#CDTITLE:cdtitle.png;
#MUSIC:End of the Moonlight.mp3;
#OFFSET:-0.380;
#SAMPLESTART:63.180;
#SAMPLELENGTH:17.940;
#SELECTABLE:YES;
#BPMS:0.000=155.010;
#STOPS:;
#BGCHANGES:;
// cache tags:
#FIRSTBEAT:0.000;
#LASTBEAT:280.000;
#SONGFILENAME:Songs/alice 4th complete step/End of the Moonlight/End of the Moonlight.sm;
#HASMUSIC:1;
#HASBANNER:1;
#MUSICLENGTH:113.879;
// end cache tags

//---------------dance-single - ----------------
#NOTES:
     dance-single:
     :
     Hard:
     13:
     0.990,1.000,0.790,0.123,1.000,683.000,90.000,14.000,0.000,12.000:
1000
0100
0100
1000
0100
0100
1000
0100
0100
1000
0100
0100
1000
0100
0100
1000
,
0010
0001
1000
0010
0001
1000
0100
0010
0100
0001
1000
0010
1000
0100
0010
0001
,
1000
0100
0100
1000
0100
0100
1000
0100
0100
1000
0100
0100
1000
0100
0100
1000
,
0010
0001
1000
0010
0001
1000
0100
0010
0100
0001
1000
0010
1000
0100
0010
0001
,
1000
0100
0100
1000
0100
0100
1000
0100
0100
1000
0100
0100
1000
0100
0100
1000
,
0010
0001
1000
0010
0001
1000
0100
0010
0100
0001
1000
0010
1000
0100
0010
0001
,
1000
0100
0100
1000
0100
0100
1000
0100
0100
1000
0100
0100
1000
0100
0100
1000
,
0001
0010
0100
1000
0001
0010
0100
1000
0010
0001
0010
0100
0001
0010
0100
2000
,
0002
0000
0000
0000
0000
0000
0000
3003
,
0100
0000
0000
0000
0100
0000
0000
0100
0000
0100
0000
0100
0100
0000
0000
0000
,
1001
0010
1100
0010
1000
0010
1100
0010
,
0001
0100
0011
0100
0001
0100
0011
0100
,
1000
0010
1100
0010
1000
0010
1100
0010
,
0001
0100
0011
0100
0001
0100
0011
0101
,
1001
0010
1100
0010
1000
0010
1100
0010
,
0001
0100
0011
0100
0001
0100
0011
0100
,
1000
0010
1100
0010
1000
1010
1100
1010
,
2002
0010
0000
0010
0000
0010
0000
3013
,
1000
0000
0010
0000
0101
0000
1000
0010
0000
0010
0100
0000
1001
0000
0010
0010
,
0000
0100
0010
0000
1001
0000
0100
0000
0010
0000
1000
0010
0101
0000
0010
0000
,
0100
0000
1000
0000
0110
0000
0001
0100
0000
0100
0010
0000
1001
0000
0100
0100
,
0000
0010
0100
0000
1001
0000
1000
0010
0000
0100
0100
0000
0011
0000
1100
0000
,
0110
0000
0001
0000
1001
0000
0100
0010
0000
0010
0100
0000
0101
0000
0100
0100
,
0000
0010
1000
0000
1010
0000
0100
0000
1010
0000
0100
0100
1001
0000
0010
0000
,
0101
0000
1000
0000
1001
0000
0010
0100
0000
0100
0010
0000
1010
0000
0001
0100
,
0001
0000
1001
0000
1001
0000
1001
0000
0001
0010
0001
0010
0001
0010
0001
0010
,
1001
0100
0000
1000
0100
0000
1000
0100
0010
0000
0110
0000
0101
0000
0110
0000
,
0100
0010
0000
0100
0010
0000
0100
0010
0001
0000
0011
0000
0101
0000
0011
0000
,
0001
0010
0000
0001
0010
0000
0001
0010
0100
0000
0110
0000
1010
0000
0110
0000
,
0010
0100
0000
0010
0100
0000
0010
0100
1000
0000
1100
0000
1010
0000
1100
0000
,
0100
1000
0000
0100
1000
0000
0100
1010
0100
0000
1010
0000
0110
0000
1010
0000
,
0100
0010
0000
0100
0010
0000
0100
0011
0100
0000
0011
0000
0101
0000
0011
0000
,
0100
0001
0000
0010
0001
0000
0010
0101
0010
0000
1001
0000
0110
0000
1001
0000
,
1100
0011
0000
1100
0011
0000
1100
0011
1000
0000
0001
0000
0001
0000
0001
0000
,
2200
0000
0010
0000
0010
0000
0001
0010
0001
0000
0011
0000
0000
3300
1111
0000
,
1001
0000
0010
0100
0010
0000
1000
0000
0000
0000
1000
0000
0000
0000
0010
0000
,
0000
0000
0001
0010
0001
0000
0100
0000
0010
0000
0010
0000
0010
0000
0000
0000
,
1000
0100
0100
1000
0100
0100
1000
0010
0010
1000
0010
0010
1000
0001
0001
1000
,
0100
0010
0001
0010
1000
0100
0001
0100
1000
0100
0010
0001
0100
0010
0001
0010
,
1001
0000
0100
0010
0100
0000
0001
0000
0000
0000
0001
0000
0000
0000
0100
0000
,
0000
0000
1000
0100
1000
0000
0010
0000
0100
0000
0100
0000
0100
0000
0000
0000
,
1000
1000
0001
0000
1000
0000
0001
1000
0000
1000
0001
0000
1000
0000
0001
0000
,
0001
0010
0100
0010
0001
0010
0100
0010
1000
0100
0010
0001
0010
0100
1000
0100
,
1002
0000
0010
0100
0010
0000
1103
0000
0000
0000
1100
0000
0000
0000
1001
0000
,
0000
0000
1000
0100
1000
0000
0010
0000
0100
0000
0100
0000
0100
0000
0000
0000
,
1000
0010
0010
1000
0010
0010
1000
0100
0100
1000
0100
0100
1000
0001
0001
1000
,
0100
0010
0001
0010
1000
0100
0001
0100
1000
0100
0010
0001
0100
0010
0001
0010
,
1001
0000
0100
0010
0110
0000
1001
0000
0000
0000
1001
0000
0000
0000
0110
0000
,
0000
0000
1000
0100
1000
0000
0010
0000
0100
0000
0100
0000
0100
0000
0000
0000
,
1000
1000
0001
0000
1000
0000
0001
1000
0000
1000
0001
0000
1000
0000
0001
0000
,
0001
0010
0100
0010
0001
0010
0100
0010
1000
0100
0010
0001
0010
0100
1000
0100
,
0002
0013
0000
0002
0013
0000
0002
0013
0000
0002
0013
0000
0110
0000
0110
0000
,
0001
0010
0100
1000
0000
0000
0000
0000
0000
0000
0000
0000
0000
0000
1000
0100
,
0010
0000
0000
0000
0000
0000
0010
0100
1000
0000
0000
0000
0100
0000
0000
0000
,
1000
0010
0100
0001
1000
0000
0000
0000
0000
0000
0000
0000
0000
0000
0000
0000
,
0000
0000
0000
0000
,
0001
0010
0100
1000
0000
0000
0000
0000
0000
0000
1000
0100
0010
0000
0010
0100
,
1000
0000
0000
0000
0000
0000
0000
0000
1001
0000
0000
0000
0010
0000
1000
0100
,
1000
0000
0000
0000
0000
0000
0010
0100
0001
0000
0000
0000
0000
0000
0001
0010
,
0200
0300
0000
0000
,
1000
0000
0001
0100
0000
0001
0100
0010
0100
0000
0001
0100
0000
0001
0100
0010
,
0100
0000
1000
0100
0000
1000
0100
0000
0010
0000
1000
0100
0000
0010
1000
0100
,
1000
0000
0001
0100
0000
0001
0010
0001
0100
0000
0001
0100
0000
0001
0010
0001
,
0100
0000
0010
0100
0000
0010
1000
0100
1000
0000
0010
0100
0001
0000
0001
0100
,
0010
0000
1000
0100
0000
0010
1000
0100
0010
0001
0000
0001
0100
0010
1000
0100
,
0001
0010
0000
0010
1000
0100
0001
0100
0010
1000
0000
1000
0100
0001
0010
0100
,
0001
0000
0010
0001
0000
0100
0010
0100
0001
0000
0010
0001
0000
0100
0010
0100
,
0001
0000
1000
0100
0000
0010
0100
1000
0010
0100
0001
0100
0001
0010
0100
1000
,
0202
0000
0000
0000
,
0000
0000
0000
0000
,
0303
0000
0000
0000
;

//---------------dance-single - ----------------
#NOTES:
     dance-single:
     :
     Challenge:
     17:
     1.000,1.000,1.000,0.623,1.000,780.000,262.000,71.000,0.000,27.000:
1100
0110
0011
1100
0110
0011
1100
0110
0011
1100
0110
0011
1100
0110
0011
1100
,
0101
0010
1000
0010
0100
1000
0110
1000
0011
0100
0001
0010
1100
0001
0100
0010
,
1100
0110
0011
1100
0110
0011
1100
0110
0011
1100
0110
0011
1100
0110
0011
1100
,
0101
0010
1000
0010
0100
1000
0110
1000
0011
0100
0001
0010
1100
0001
0100
0010
,
1100
0110
0011
1100
0110
0011
1100
0110
0011
1100
0110
0011
1100
0110
0011
1100
,
0101
0010
1000
0010
0100
1000
0110
1000
0011
0100
0001
0010
1100
0001
0100
0010
,
1100
0110
0011
1100
0110
0011
1100
0110
0011
1100
0110
0011
1100
0110
0011
1100
,
1000
0100
0010
0001
1000
0100
0010
0001
1000
0100
0010
0001
0010
0100
1000
0200
,
0020
0000
0000
0000
0000
0000
0000
0000
0000
0000
0000
0000
0000
0000
0300
0030
,
1000
0000
0000
0000
0001
0000
0000
1000
0000
0001
0000
1000
0001
0000
0000
0000
,
1100
0010
0001
0000
1010
0100
0001
0000
1100
0010
0001
0000
1010
0100
0001
0000
,
0011
0100
1000
0000
0101
0010
1000
0000
0011
0100
1000
0000
0101
0010
1000
0010
,
1100
0010
0001
0000
1010
0100
0001
0000
1100
0010
0001
0000
1010
0100
0001
0000
,
0011
0100
1000
0000
0101
0010
1000
0000
0011
0100
1000
0000
0101
0010
1001
0100
,
0110
1000
0001
0000
0011
0100
1000
0000
0110
1000
0001
0000
0011
0100
1000
0000
,
0110
0001
1000
0000
1100
0010
0001
0000
0110
0001
1000
0000
1100
0010
0001
0000
,
1010
0100
0001
0000
0101
0010
1000
0010
0101
0000
1011
0000
1101
0000
1011
0000
,
1200
0001
1010
0001
1000
0001
1010
0001
1000
0001
1010
0001
1000
0001
1010
0301
,
2000
0000
3010
0000
0101
0000
2000
3010
0000
0020
0130
0000
1001
0000
0010
0110
,
0000
0200
0310
0000
1002
0000
0103
0000
0210
0000
1300
0010
0102
0000
0013
0000
,
0200
0000
1300
0000
0120
0000
0032
0103
0000
0200
0310
0000
2001
0000
3100
0110
,
0000
0020
0130
0000
1002
0000
2003
3010
0000
0100
2100
0000
3021
0000
1130
0000
,
0210
0000
0301
0000
1002
0000
0203
0310
0000
0020
0130
0000
0102
0000
0103
0101
,
0000
0020
1030
0000
2010
0000
3100
0000
1020
0000
0130
0110
2001
0000
3010
0000
,
0201
0000
1300
0000
1002
0000
0023
0130
0000
0200
0310
0000
2010
0000
3002
0103
,
0101
0000
0101
0000
1100
0000
0101
0000
0011
0100
1000
0100
0110
0000
1001
0001
,
1100
1100
0000
1100
1100
0000
1100
0110
0012
0000
0100
0000
1110
0000
0103
0000
,
0101
0101
0000
0101
0101
0000
0101
0110
2010
0000
0100
0000
0111
0000
3100
0000
,
0011
0011
0000
0011
0011
0000
0011
0110
2100
0000
0010
0000
0111
0000
3010
0000
,
1010
1010
0000
1010
1010
0000
1010
0110
0102
0000
0010
0000
1110
0000
0013
0000
,
0000
1000
0101
1000
0000
1000
0101
1000
,
0000
0001
1010
0001
0000
0001
1010
0001
,
0000
0010
1001
0010
0000
0010
1001
0010
,
0100
0100
1001
0100
0000
0100
1001
0100
,
2002
0000
0110
0000
0110
0000
0010
0100
0010
0000
0110
0000
0000
3003
1111
0000
,
2001
0000
0001
0010
3100
0000
0110
0000
0000
0000
0110
0000
0000
0000
1001
0000
,
0000
0000
1000
0100
0010
0000
0200
0000
0010
0000
0010
0000
0310
0000
0000
0000
,
0011
0110
1100
0011
0110
1100
0011
0110
1100
0011
0110
1100
0011
0110
1100
0011
,
1010
0100
0001
0010
0100
0001
1010
0001
0100
0010
1000
0100
0001
1000
0010
0100
,
1002
0000
1000
0010
0103
0000
0110
0000
0000
0000
0110
0000
0000
0000
1001
0000
,
0000
0000
0001
0100
0010
0000
0200
0000
0010
0000
0010
0000
0310
0000
0000
0000
,
1000
1000
0010
0000
1100
0000
0010
0100
0000
0100
0010
0000
0101
0000
0010
0000
,
1001
0010
0100
0010
1001
0010
0100
0010
1000
0100
0010
0001
1001
0010
0100
1000
,
2001
0100
3100
0001
0110
0100
0001
0010
0010
0001
0010
0010
0001
1000
1000
0001
,
0010
0100
1000
0100
0001
0010
1000
0010
0001
0010
0100
1000
0010
0100
1000
0100
,
0011
0110
1100
0011
0110
1100
0011
0110
1100
0011
0110
1100
0011
0110
1100
0011
,
1010
0100
0010
0001
0010
0100
1001
0010
0100
0010
1000
0100
0001
0010
0100
0010
,
1001
0100
0100
1000
0110
0100
1000
0010
0010
1000
0010
0010
1000
0001
0001
1000
,
0100
0010
0001
0010
1000
0100
0001
0100
1000
0100
0010
0001
0100
0010
0001
0010
,
1000
0000
0001
0000
1100
0000
0001
0100
0000
0100
1001
0000
0110
0000
1001
0000
,
0101
0010
1100
0001
1010
0100
0011
1000
1100
0010
0100
0001
0011
0100
0001
0010
,
0100
0100
0000
0100
0100
0000
0100
0100
0000
0100
0100
0000
0110
0000
0110
0000
,
1000
0100
0010
0002
1000
0000
0100
0000
1010
0000
0000
0000
0100
0003
0010
0001
,
0200
0000
0010
0000
1000
0300
0001
0010
1002
0000
0010
0000
0203
0000
0010
0000
,
0301
1000
0100
0010
0200
0000
0001
0000
0012
0000
0000
0000
1003
0000
1000
0000
,
0000
0000
1000
0000
1010
0000
0000
0000
1002
0000
0000
0000
0013
0000
0010
0300
,
1000
0100
0010
0002
0100
0000
1000
0000
0010
0003
0100
0010
1200
0000
0310
0001
,
0200
0000
0010
0000
0010
0000
0000
0300
2002
0000
0000
3003
0200
0300
0010
0001
,
0020
0000
1000
0000
0100
0030
0100
0010
2000
0000
0010
0000
0001
3000
0100
1000
,
0020
0000
0100
0000
0100
0000
0000
0000
1001
0000
0000
0000
0100
0000
0100
0030
,
0010
0000
0100
1000
0100
0000
0020
0000
1000
0100
0001
0100
1030
0100
0010
0100
,
0001
0000
1000
0010
1000
0000
0200
0000
0001
0010
1000
0010
0301
0010
0100
0010
,
1000
0000
0001
0010
0001
0000
2000
0000
0100
0010
0001
0010
3100
1000
0010
0100
,
0010
0000
0100
0001
0100
0000
0020
0000
1000
0001
0100
0001
1030
0100
0010
0100
,
0001
0000
0010
0100
1000
0000
0020
0000
1000
0100
1000
0100
0001
0100
1000
0130
,
0001
0000
0100
0010
1000
0000
0200
0000
0001
0010
0001
0010
1000
0010
0001
0310
,
0100
0000
0001
1000
0001
0000
0020
0000
0100
0001
1000
0001
0100
1000
0001
0130
,
1000
0010
0100
0001
1000
0010
0100
0001
0010
0100
1000
0100
0010
0001
0100
0010
,
2020
0000
0000
0000
,
0000
0000
0000
0000
,
3030
0000
0000
0000
;
