#TITLE:Hand Maid May;
#SUBTITLE:- Jump Meippai Dakishimete!;
#ARTIST:P-Chicks;
#TITLETRANSLIT:;
#SUBTITLETRANSLIT:;
#ARTISTTRANSLIT:;
#CREDIT:;
#BANNER:MayLogo.png;
#BACKGROUND:MayBG.png;
#LYRICSPATH:;
#CDTITLE:;
#MUSIC:HandMaidMayIntro.mp3;
#OFFSET:0.485;
#SAMPLESTART:41.583;
#SAMPLELENGTH:12.000;
#SELECTABLE:YES;
#BPMS:0.000=142.600;
#STOPS:;
#BGCHANGES:11.500=May1.avi=1.000=0=0=1,
192.500=MayBG.png=1.000=0=0=1,
99999=-nosongbg-=1.000=0=0=0 // don't automatically add -songbackground-
;
// cache tags:
#FIRSTBEAT:6.750;
#LASTBEAT:200.500;
#SONGFILENAME:Songs/Anime Songs/HandMaidMay/HandMaidMay1.sm;
#HASMUSIC:1;
#HASBANNER:1;
#MUSICLENGTH:91.376;
// end cache tags

//---------------dance-single - BASIC----------------
#NOTES:
     dance-single:
     BASIC:
     Easy:
     3:
     0.225,0.219,0.131,0.000,0.000,132.000,12.000,0.000,0.000,0.000:




0000
0000
0000
0000
,
0000
0000
0000
0000
,
0000
0000
0000
0000
0000
0100
0000
0000
,
0000
0010
0000
0000
0000
0100
0000
0000
,
0000
1000
0000
0000
0000
0001
0000
0000
,
0000
1000
0000
0000
0000
0001
0000
0000
,
0000
0110
0000
0000
0000
0100
0000
0000
,
0000
1001
0000
0000
0000
0010
0000
0000
,
0000
0110
0000
0000
0000
1000
0000
1000
,
0000
1000
0000
1000
0000
0001
0000
0001
,
0000
0001
0000
0001
0000
0000
0000
1001
,
0000
0010
0000
1000
0000
0001
0000
0100
,
0000
0100
0000
0010
0000
0001
0000
1000
,
0000
0001
0000
0010
0000
1000
0000
0001
,
0000
1000
0000
0001
0000
1000
0000
0000
,
0000
1001
0000
0000
0000
0010
0000
0001
,
0000
1000
0000
0001
0000
0100
0000
0010
,
0000
1000
0000
0001
0000
0001
0000
0001
,
0000
1000
0000
1000
0000
1000
0000
0000
,
1001
0000
0000
0000
0000
1000
0000
1000
,
0000
0001
0000
0001
0000
0010
0000
0010
,
0000
0100
0000
0100
0000
1000
0000
0010
,
0000
0100
0000
0001
0000
1000
0000
0000
,
0000
0100
0000
0100
0000
0100
0000
0100
,
0000
0100
0000
0000
0000
1001
0000
0000
,
0000
0010
0000
0010
0000
0010
0000
0010
,
0000
0010
0000
0000
0000
0110
0000
0000
,
0000
0100
0000
0000
0000
0010
0000
0000
,
0000
0100
0000
0000
0000
0010
0000
0000
,
0000
0001
0000
0000
0000
1000
0000
0000
,
0000
0010
0000
0000
0000
0000
0000
0000
,
0000
1001
0000
0000
0000
0100
0000
0000
,
0000
0100
0000
0000
0000
1000
0000
0001
,
0000
1000
0000
0000
0000
0010
0000
0000
,
0000
0010
0000
0000
0000
1000
0000
0100
,
0000
1000
0000
0000
0000
0010
0000
0000
,
0000
1000
0000
0000
0000
0001
0000
0100
,
0000
0001
0000
0000
0000
1000
0000
0000
,
0000
0100
0000
0000
0000
0010
0000
0010
,
0000
0010
0000
0000
0000
0010
0000
0000
,
0000
0100
0000
0000
0000
0100
0000
0100
,
0000
0100
0000
0000
0000
0001
0000
0000
,
0000
1000
0000
0000
0000
0001
0000
0100
,
0000
1000
0000
0000
0000
0100
0000
0000
,
0000
0010
0000
0010
0000
0100
0000
0100
,
0000
0001
0000
0001
0000
1000
0000
1000
,
0000
0000
0000
0000
,
0000
0000
0000
0010
0000
1000
0000
0001
,
0000
0100
0000
0010
0000
0100
0000
0000
,
0000
0000
0000
0110
0000
0000
0110
0000
,
0000
1001
0000
0000
0000
0000
0000
0000;

//---------------dance-single - ANOTHER----------------
#NOTES:
     dance-single:
     ANOTHER:
     Medium:
     5:
     0.333,0.302,0.219,0.000,0.000,193.000,20.000,0.000,0.000,0.000:




0000
0000
0000
0000
,
0000
0000
0000
1001
,
0000
0000
1001
0000
0000
1000
0000
0100
,
0000
1000
0000
0010
0000
0001
0000
0010
,
0000
0100
0000
1000
0000
0001
0000
0100
,
0000
0001
0000
0010
0000
1000
0000
0100
,
0000
0001
0000
0001
0000
1000
0000
1000
,
0000
0100
0000
0010
0000
0010
0000
0100
,
0000
0001
0000
0000
0100
0100
0010
0100
,
0000
0110
0000
0100
0000
1000
0000
0010
,
0000
0001
0000
0100
0000
1000
0000
0100
,
0000
0010
0000
0001
0000
0001
0000
1000
,
0000
0100
0000
0010
0000
1000
0000
0001
,
0000
0100
0000
0001
0000
1000
0000
0001
,
0000
1000
0000
0100
0000
0010
0000
0100
,
0000
0101
0000
0001
0000
0010
0000
1000
,
0000
0100
0000
0001
0000
0100
0000
0001
,
0000
1000
0000
0001
0000
1000
0000
0010
,
0000
0001
0000
1000
0000
0000
1010
0000
,
1100
0000
0000
0010
0000
0001
0000
0001
,
0000
0001
0000
0001
0000
1000
0000
1000
,
0000
1000
0000
1000
0000
0010
0000
0010
,
0000
0000
0010
0000
1001
0000
0000
1000
,
0000
0001
0000
0100
0000
1000
0000
0001
,
0000
0100
0000
0010
0000
1000
0001
0000
,
0000
0010
0000
1000
0000
0001
0000
0100
,
0000
0100
0000
0010
0000
1000
0001
0000
,
0000
0001
0000
0100
0000
0101
0000
0100
,
0000
1000
0000
0100
0000
1100
0000
0010
,
0000
0001
0000
0010
0000
0011
0000
1000
,
0000
0010
0000
1000
0000
1010
0000
0010
,
0000
1001
0000
0001
0000
0010
0000
0100
,
0000
1000
0000
0001
0000
0010
0000
0001
,
0000
0100
0000
1000
0000
1000
0000
0001
,
0000
0001
0000
0010
0000
1000
0000
0100
,
0000
0010
0000
0001
0000
0010
0000
0010
,
0000
0100
0000
1000
0000
0001
0000
0010
,
0000
0001
0000
0001
0000
0010
0000
1000
,
0000
0010
0000
1000
0000
0001
0000
0001
,
0000
1000
0000
1000
0000
0100
0000
0010
,
0000
0001
0000
0100
0000
1000
0000
0001
,
0000
0010
0000
1000
0000
0100
0000
0001
,
0000
0010
0000
1000
0000
0100
0000
0100
,
0000
0110
0000
0100
0000
0010
0000
1000
,
0000
0001
0000
1001
0000
0001
0000
0010
,
0000
1000
0000
0100
0000
1001
0000
1000
,
0000
0100
0000
0010
0000
0001
0000
1001
,
0000
0010
0000
1001
0000
0100
0000
1001
,
0000
0010
0000
1001
0000
0100
0000
1001
,
0000
0000
1000
0001
0000
1000
0001
0000
,
0010
0100
0000
0000
0000
0000
0000
0000;

//---------------dance-single - MANIAC----------------
#NOTES:
     dance-single:
     MANIAC:
     Hard:
     7:
     0.417,0.411,0.416,0.186,0.022,212.000,38.000,17.000,0.000,0.000:

0000
0000
0000
0000
,
0000
0000
0000
0000
0000
0000
0000
0000
0000
0000
0000
0010
0000
0020
0000
0000
,
0000
0030
0220
0000
0330
1001
0000
0001
,
0000
0001
0001
0001
0000
1000
0000
1000
,
0000
1000
1000
1000
0000
0100
0000
0001
,
0000
0010
0000
1000
0000
0001
0000
0100
,
0100
0100
0000
0010
0000
1000
0000
0001
,
0000
0010
0000
0010
0010
0010
0000
0010
,
1000
0001
0100
0000
0010
1010
0011
0100
,
0000
1001
0000
0100
0000
0010
0000
0010
,
0000
1000
0000
1010
0000
1001
0000
0101
,
0000
0100
0000
0010
0000
0100
0000
0010
,
0000
0001
0000
0100
0000
0001
0000
1000
,
0000
0000
0010
0000
0000
0000
1000
0000
0000
0000
0000
0000
1000
2000
0000
0000
,
0000
0000
3000
0000
0001
0002
0000
0000
0000
0000
0003
0000
0000
0000
0000
0000
,
0000
0110
0000
1001
0000
0010
0000
0001
,
0000
1000
0000
0100
0000
0010
0000
1000
,
0000
1000
0000
0100
0000
0001
0000
0010
,
0000
0000
1000
0001
1000
0000
2002
3003
,
2002
3003
0000
0100
0000
0100
0000
0001
,
0000
0001
0000
0010
0000
0010
0000
1000
,
0000
1000
0000
0010
0000
0100
0000
1000
,
0001
0000
1001
0000
0110
0000
0000
0010
,
0000
0100
0000
0010
0000
0101
0000
0001
,
0001
0000
2000
0000
3000
0110
1001
0000
,
0000
0010
0000
1000
0000
1100
0000
0001
,
0001
0000
0200
0000
0300
1001
0110
0000
,
0000
0010
0000
2000
0000
0000
3000
0002
,
0000
0000
0003
0020
0000
0000
0030
0002
,
0000
0000
0003
1000
0001
0000
0001
0010
,
0000
1000
1000
0000
0001
0001
0000
0110
,
0000
1001
0000
0001
0001
1000
0000
0100
,
0000
1000
1000
0000
0100
0000
1000
0000
,
0001
1000
0001
1000
0100
0001
0010
0001
,
0000
1000
0001
1000
0001
0000
1000
0000
,
0001
1000
1000
0000
0000
1000
0000
1000
,
0000
0001
0000
0220
0000
0000
0000
0330
,
0100
0100
0100
0100
0000
0010
0000
0010
,
0000
0100
0000
0110
0000
0001
0000
1000
,
0000
0101
0000
1000
0001
1000
0000
0100
,
0000
0001
1000
0000
0001
0000
0010
0000
,
1000
0001
0001
0100
0010
0100
1000
0001
,
0000
1000
1000
0001
1000
0000
0001
0000
,
0001
0010
0100
0000
0000
0100
0000
0100
,
0000
0100
0000
1001
0000
0010
0000
0100
,
0000
0010
0000
0100
0000
1001
0000
1000
,
0000
0001
0000
1000
0000
0001
0000
0110
,
0000
0110
0000
1001
0000
0100
0000
1100
,
0000
0101
0000
1100
0000
0101
0000
1001
,
0000
0000
0010
1001
0000
0100
1001
0000
,
1000
0101
0000
0000
0000
0000
0000
0000;
