#TITLE:Agony is My Name;
#SUBTITLE:;
#ARTIST:Rhapsody;
#TITLETRANSLIT:;
#SUBTITLETRANSLIT:;
#ARTISTTRANSLIT:;
#CREDIT:Arvin;
#BANNER:../bn-Rhapsody.png;
#BACKGROUND:../Rhapsody-bg.png;
#LYRICSPATH:;
#CDTITLE:;
#MUSIC:06 - Rhapsody - Agony Is My Name.ogg;
#OFFSET:-0.282;
#SAMPLESTART:37.500;
#SAMPLELENGTH:10.000;
#SELECTABLE:YES;
#BPMS:0.000=185.000;
#STOPS:;
#BGCHANGES:;
// cache tags:
#FIRSTBEAT:0.000;
#LASTBEAT:894.000;
#SONGFILENAME:Songs/Rhapsody of Fire/Agony is My Name - [Arvin]/agony.sm;
#HASMUSIC:1;
#HASBANNER:1;
#MUSICLENGTH:298.448;
// end cache tags

//---------------dance-single - ----------------
#NOTES:
     dance-single:
     :
     Challenge:
     15:
     1.000,1.000,0.251,0.251,1.000,2670.000,75.000,75.000,148.000,0.000:

1MM1
0000
0000
0000
,
1MM1
0000
0000
0000
,
1000
0001
1000
0010
1000
0100
1000
0010
,
1000
0001
1000
0100
1000
0010
1000
0001
,
1MM1
0000
0000
0000
,
1MM1
0000
0000
0000
,
0001
0010
0001
0100
0001
1000
0001
0100
,
0001
0000
0010
0000
0001
0000
0100
0000
0001
0000
1000
0001
1000
0001
0100
0010
,
1000
0100
0010
0001
1000
0100
1000
0010
0100
0001
0010
0001
1000
0100
0010
0100
,
1000
0001
0010
0100
1000
0001
0100
0001
1000
0010
0100
0001
0100
0010
1000
0100
,
0010
0001
0010
0100
1000
0010
0100
0001
0010
0100
1000
0001
0100
0001
1000
0010
,
0100
0001
0010
0100
1000
0001
0010
0100
0010
0001
1000
0100
0010
0001
1000
0010
,
1000
0100
0010
0001
1000
0100
1000
0010
0100
0001
0010
0001
1000
0100
0010
0100
,
1000
0001
0010
0100
1000
0001
0100
0001
1000
0010
0100
0001
0100
0010
1000
0100
,
0010
0001
0010
0100
1000
0010
0100
0001
0010
0100
1000
0001
0100
0001
1000
0010
,
0100
0001
0010
0100
1000
0001
0010
0100
0010
0001
1000
0100
0010
0001
1000
0010
,
100M
0100
0010
0001
0010
0100
10M0
0001
0100
0010
1000
0010
,
M100
0001
1000
001M
0100
0001
M010
0100
1000
0001
0100
0001
,
10M0
0100
0010
0001
0010
0100
10M0
0001
0100
0010
1000
0010
,
M100
0001
1000
001M
0100
0001
M010
0100
1000
00M1
0100
0001
,
1M01
1M1M
M1M1
MM11
,
M001
0010
0100
1000
0100
0010
M001
0100
0010
1000
0100
0010
,
M002
0000
0000
1003
0020
0000
0000
0130
,
0001
0010
0100
0010
0001
1000
0100
0010
0001
0010
0100
1000
,
0001
0010
0100
1000
0001
1000
0010
0100
0001
0010
0100
1000
0010
1000
0001
0100
,
0010
1000
0001
0100
0001
1000
0010
0100
0001
1000
0100
0010
0001
0010
0100
1000
,
0010
0100
0001
0010
0100
1000
0010
0100
0010
1000
0001
0100
0010
1000
0001
0100
,
0001
1000
0010
0100
0001
1000
0100
0010
0001
1000
0010
1000
0001
0100
0010
1000
,
0001
0010
0100
1000
0001
1000
0010
0100
0001
0010
0100
1000
0010
1000
0001
0100
,
0010
1000
0001
0100
0001
1000
0010
0100
0001
1000
0100
0010
0001
0010
0100
1000
,
0010
0100
0001
0010
0100
1000
0010
0100
0010
1000
0001
0100
0010
1000
0001
0100
,
0001
1000
0010
0100
0001
1000
0100
0010
0001
1000
0010
1000
0001
0100
0010
1000
,
0001
0010
0001
0010
0100
1000
0001
0010
0001
0010
0100
1000
0001
0100
0010
1000
,
0001
0100
0001
0100
0010
1000
0001
1000
0010
0100
0001
0010
0100
1000
0100
1000
,
0100
1000
1000
1000
0010
1000
1000
1000
,
0001
1000
1000
1000
0010
1000
1000
1000
,
0001
0010
0100
1000
0100
0010
0001
1000
,
0010
0100
0001
1000
1M1M
0000
M11M
0000
,
M1M1
1MM1
22MM
0000
,
0000
0000
0000
0000
0000
0000
0000
0000
0000
0000
0000
0000
0000
0000
0000
0000
0000
0000
0000
0000
0000
0000
0000
0000
3300
0000
0000
0000
0000
0000
0000
0000
0000
0000
0000
0000
0000
0000
0000
0000
0000
0000
0000
0000
0000
0000
0000
0000
1000
0000
0000
0000
0000
0000
0000
0000
0000
0000
0000
0000
0000
0000
0000
0000
0000
0000
0000
0000
0000
0000
0000
0000
0100
0000
0000
0000
0000
0000
0000
0000
0000
0000
0000
0000
0000
0000
0000
0000
0000
0000
0000
0000
0000
0000
0000
0000
0010
0000
0000
0000
0000
0000
0000
0000
0000
0000
0000
0000
0000
0000
0000
0000
0000
0000
0000
0000
0000
0000
0000
0000
0000
0000
0000
0000
0000
0000
0000
0000
0000
0000
0000
0000
0000
0000
0000
0000
0000
0000
0000
0000
0000
0000
0000
0000
0002
0003
0000
0000
0000
0000
0000
0000
0000
0000
0000
0000
0000
0000
0000
0000
0000
0000
0000
0000
0000
0000
0000
0000
0200
0300
0000
0000
0000
0000
0000
0000
0000
0000
0000
0000
0000
0000
0000
0000
0000
0000
0000
0000
0000
0000
0000
0000
,
0020
0030
0000
0000
0000
0000
0000
0000
0000
0000
0000
0000
0000
0000
0000
0000
0000
0000
0000
0000
0000
0000
0000
0000
0000
0000
0000
0000
0000
0000
0000
0000
0000
0000
0000
0000
0000
0000
0000
0000
0000
0000
0000
0000
0000
0000
0000
0000
1000
0000
0000
0000
0000
0000
0000
0000
0000
0000
0000
0000
0000
0000
0000
0000
0000
0000
0000
0000
0000
0000
0000
0000
0010
0000
0000
0000
0000
0000
0000
0000
0000
0000
0000
0000
0000
0000
0000
0000
0000
0000
0000
0000
0000
0000
0000
0000
0100
0000
0000
0000
0000
0000
0000
0000
0000
0000
0000
0000
0000
0000
0000
0000
0000
0000
0000
0000
0000
0000
0000
0000
0000
0000
0000
0000
0000
0000
0000
0000
0000
0000
0000
0000
0000
0000
0000
0000
0000
0000
0000
0000
0000
0000
0000
0000
0002
0003
0000
0000
0000
0000
0000
0000
0000
0000
0000
0000
0000
0000
0000
0000
0000
0000
0000
0000
0000
0000
0000
0000
0200
0300
0000
0000
0000
0000
0000
0000
0000
0000
0000
0000
0000
0000
0000
0000
0000
0000
0000
0000
0000
0000
0000
0000
,
0020
0030
0000
0000
0000
0000
0000
0000
0000
0000
0000
0000
0000
0000
0000
0000
0000
0000
0000
0000
0000
0000
0000
0000
0000
0000
0000
0000
0000
0000
0000
0000
0000
0000
0000
0000
0000
0000
0000
0000
0000
0000
0000
0000
0000
0000
0000
0000
1000
0000
0000
0000
0000
0000
0000
0000
0000
0000
0000
0000
0000
0000
0000
0000
0000
0000
0000
0000
0000
0000
0000
0000
0100
0000
0000
0000
0000
0000
0000
0000
0000
0000
0000
0000
0000
0000
0000
0000
0000
0000
0000
0000
0000
0000
0000
0000
0010
0000
0000
0000
0000
0000
0000
0000
0000
0000
0000
0000
0000
0000
0000
0000
0000
0000
0000
0000
0000
0000
0000
0000
0001
0000
0000
0000
0000
0000
0000
0000
0000
0000
0000
0000
0000
0000
0000
0000
0000
0000
0000
0000
0000
0000
0000
0000
0010
0000
0000
0000
0000
0000
0000
0000
0000
0000
0000
0000
0000
0000
0000
0000
0000
0000
0000
0000
0000
0000
0000
0000
0001
0000
0000
0000
0000
0000
0000
0000
0000
0000
0000
0000
0000
0000
0000
0000
0000
0000
0000
0000
0000
0000
0000
0000
,
1000
0001
1000
0010
1000
0010
0100
0010
,
0100
0001
0100
0001
1000
0001
1000
0010
,
1000
0010
0100
0001
1000
0000
MMMM
0000
,
1000
0100
1000
0100
0010
0001
1000
0010
1000
0100
0010
0001
1000
0001
0100
0010
,
1000
0100
0010
0001
0100
0001
1000
0010
0100
0001
1000
0010
1000
0001
0100
0010
,
1000
0001
0010
0100
1000
0100
0010
0001
0100
0010
1000
0100
0010
0001
0100
0010
,
0100
0001
1000
0010
0100
0001
1000
0010
1000
0001
0100
0010
1000
0001
0010
0100
,
1000
0001
0100
0001
1000
0010
0100
0001
1000
0100
0010
0001
1000
0001
0100
0010
,
1000
0100
0010
0001
0100
0001
1000
0010
0100
0001
1000
0010
1000
0001
0100
0010
,
1000
0001
0010
0100
1000
0100
0010
0001
0100
0010
1000
0100
0010
0001
0100
0010
,
0100
0001
1000
0010
0100
0001
1000
0010
1000
0001
0100
0010
1000
0001
0010
0100
,
1000
0001
0100
0001
1000
0010
0100
0001
1000
0100
1000
0100
0010
0001
1000
0100
,
1000
0100
0010
0001
1000
0010
0100
0001
1000
0010
1000
0010
0100
0001
1000
0001
,
0100
0010
1000
0100
0010
0001
0010
0001
0010
0000
0001
0000
0001
0000
0001
0000
,
0100
0001
0001
0001
1000
0001
0001
0001
,
0100
0001
0001
0001
1000
0100
0010
0001
,
0010
0100
1000
0001
0100
0010
1000
0001
,
M1M1
M11M
1M1M
1MM1
,
M022
0000
0000
0000
0000
0000
0000
0000
0033
0000
0001
0010
0001
0010
0100
1000
,
0001
0100
0010
0100
0001
1000
0100
0010
0100
1000
0001
0010
0100
1000
0001
1000
,
0010
0100
0001
0100
0010
1000
0100
0010
0001
1000
0010
1000
0001
0100
0010
1000
,
0100
0010
0001
0010
0100
1000
0001
0010
0001
1000
0010
0100
0001
0100
0010
1000
,
0100
0010
0001
0010
0100
1000
0010
0100
0010
1000
0100
0010
0001
1000
0010
1000
,
0001
0100
0010
0100
0001
1000
0100
0010
0100
1000
0001
0010
0100
1000
0001
1000
,
0010
0100
0001
0100
0010
1000
0100
0010
0001
1000
0010
1000
0001
0100
0010
1000
,
0100
0010
0001
0010
0100
1000
0001
0010
0001
1000
0010
0100
0001
0100
0010
1000
,
0100
0010
0001
0010
0100
1000
0010
0100
0010
1000
0100
0010
0001
1000
0010
1000
,
0M01
1MM1
MM11
M1M1
,
1M1M
11MM
1MM1
M1M1
,
2002
0000
0000
3003
1000
0000
0001
0000
,
0202
0000
0000
0000
0000
0000
0303
0000
0000
0000
0001
1000
0001
0100
0010
1000
,
0001
0010
0100
1000
0001
0010
0001
0100
0010
1000
0100
1000
0001
0010
0100
0010
,
0001
1000
0100
0010
0001
1000
0010
1000
0001
0100
0010
1000
0010
0100
0001
0010
,
0100
1000
0100
0010
0001
0100
0010
1000
0100
0010
0001
1000
0010
1000
0001
0100
,
0010
1000
0100
0010
0001
1000
0100
0010
0100
1000
0001
0010
0100
1000
0001
0100
,
0001
0010
0100
1000
0001
0010
0001
0100
0010
1000
0100
1000
0001
0010
0100
0010
,
0001
1000
0100
0010
0001
1000
0010
1000
0001
0100
0010
1000
0010
0100
0001
0010
,
0100
1000
0100
0010
0001
0100
0010
1000
0100
0010
0001
1000
0010
1000
0001
0100
,
0010
1000
0100
0010
0001
1000
0100
0010
0100
1000
0001
0010
0100
1000
0001
0100
,
M001
0010
0100
1000
0100
0010
0M01
1000
0010
0100
0001
0100
,
001M
1000
0001
M100
0010
1000
010M
0010
0001
1M00
0010
1000
,
0M01
0010
0100
1000
0100
0010
0M01
1000
0010
0100
0001
0100
,
001M
1000
0001
M100
0010
1000
010M
0010
0001
1M00
0010
1000
,
10M1
M1M1
1M1M
11MM
,
100M
0100
0010
0001
0010
0100
100M
0010
0100
0001
0010
0100
,
200M
0000
0000
3001
0200
0000
0000
0310
,
1000
0100
0010
0100
1000
0001
0010
0100
1000
0100
0010
0001
,
1000
0100
0010
0001
1000
0001
0100
0010
1000
0100
0010
0001
0100
0001
1000
0010
,
0100
0001
1000
0010
1000
0001
0100
0010
1000
0001
0010
0100
1000
0100
0010
0001
,
0100
0010
1000
0100
0010
0001
0100
0010
0100
0001
1000
0010
0100
0001
1000
0010
,
1000
0001
0100
0010
1000
0001
0010
0100
1000
0001
0100
0001
1000
0010
0100
0001
,
1000
0100
0010
0001
1000
0001
0100
0010
1000
0100
0010
0001
0100
0001
1000
0010
,
0100
0001
1000
0010
1000
0001
0100
0010
1000
0001
0010
0100
1000
0100
0010
0001
,
0100
0010
1000
0100
0010
0001
0100
0010
0100
0001
1000
0010
0100
0001
1000
0010
,
1000
0001
0100
0010
1000
0001
0010
0100
1000
0001
0100
0001
1000
0010
0100
0001
,
1000
0100
1000
0100
0010
0001
1000
0100
1000
0100
0010
0001
1000
0010
0100
0001
,
1000
0010
1000
0010
0100
0001
1000
0001
0100
0010
1000
0100
0010
0001
0010
0001
,
0010
0001
0001
0001
0100
0001
0001
0001
,
1000
0001
0001
0001
0100
0001
0001
0001
,
1000
0100
0010
0001
0010
0100
1000
0001
,
0100
0010
1000
0001
M1M1
0000
M11M
0000
,
1M1M
0000
1MM1
0000
MM22
0000
0000
0033
,
0001
1000
0001
0010
0001
0010
0100
1000
0001
0100
0010
0100
0001
1000
0100
0010
,
0100
1000
0001
0010
0100
1000
0001
1000
0010
0100
0001
0100
0010
1000
0100
0010
,
0001
1000
0010
1000
0001
0100
0010
1000
0100
0010
0001
0010
0100
1000
0001
0010
,
0001
1000
0010
0100
0001
0100
0010
1000
0100
0010
0001
0010
0100
1000
0010
0100
,
0010
1000
0100
0010
0001
1000
0010
1000
0001
0100
0010
0100
0001
1000
0100
0010
,
0100
1000
0001
0010
0100
1000
0001
1000
0010
0100
0001
0100
0010
1000
0100
0010
,
0001
1000
0010
1000
0001
0100
0010
1000
0100
0010
0001
0010
0100
1000
0001
0010
,
0001
1000
0010
0100
0001
0100
0010
1000
0100
0010
0001
0010
0100
1000
0010
0100
,
0010
1000
0100
0010
0001
1000
0010
1000
0M01
0000
0000
0000
1MM1
0000
0000
0000
,
MM11
M1M1
1M1M
11MM
,
1MM1
0000
M1M1
0000
2002
0000
0000
3003
,
1000
0000
0001
0000
0202
0000
0000
0303
,
0001
1000
0010
0100
0001
0100
0010
1000
0001
0010
0100
1000
0001
0010
0001
0100
,
0010
1000
0100
1000
0001
0010
0100
0010
0001
1000
0100
0010
0001
1000
0010
1000
,
0001
0100
0010
1000
0010
0100
0001
0010
0100
1000
0100
0010
0001
0100
0010
1000
,
0100
0010
0001
1000
0010
1000
0001
0100
0010
1000
0100
0010
0001
1000
0100
0010
,
0100
1000
0001
0010
0100
1000
0001
0100
0001
0010
0100
1000
0001
0010
0001
0100
,
0010
1000
0100
1000
0001
0010
0100
0010
0001
1000
0100
0010
0001
1000
0010
1000
,
0001
0100
0010
1000
0010
0100
0001
0010
0100
1000
0100
0010
0001
0100
0010
1000
,
0100
0010
0001
1000
0010
1000
0001
0100
0010
1000
0100
0010
0001
1000
0100
0010
,
0100
1000
0001
0010
0100
1000
0001
0100
M001
0000
0100
0000
0010
0000
0100
0000
,
0001
1000
0100
0010
0011
0001
1000
0010
,
1000
0010
0100
0001
0101
0100
0010
0100
,
0001
1000
0100
0010
0011
0001
0010
0001
,
1000
0010
0100
0001
1000
0010
1000
0001
,
0010
0100
1000
0100
0010
0001
1000
0010
,
0100
0001
0100
0010
1000
0100
1000
0001
,
0010
0100
1000
0001
0011
0010
0100
1000
,
0100
0010
0001
1000
1100
0100
0010
0001
,
0010
0100
1000
0001
0011
0010
0001
1000
,
0001
0100
0010
1000
1001
0001
1000
0001
,
1000
0010
0100
0001
1000
0100
0010
0100
,
1000
0001
0100
0010
1000
0010
0100
0001
,
1000
0100
0010
0100
1000
0010
0100
0001
,
0010
0100
1000
0010
0100
0001
1000
0100
,
0010
0001
0010
0100
1000
0001
0100
0010
,
1000
0010
0100
0001
1000
0100
1000
0001
,
0010
0100
1000
0100
1100
1000
0100
0010
,
0001
0010
0100
1000
0001
0100
0010
0100
,
0001
1000
0100
0010
0011
0001
0010
0001
,
1000
0000
0100
0000
0010
0000
0001
0000
1000
0000
1000
0001
1000
0001
1000
0001
,
0200
0000
0310
1000
0010
0100
0001
1000
0100
0010
0100
0010
0001
1000
0010
1000
,
0002
0203
0320
2030
,
3001
0010
0100
1000
0001
0100
0001
0100
0010
1000
0001
0100
0010
1000
0001
1000
,
0020
0230
0302
2003
,
3100
0010
0001
1000
0010
0100
0010
0100
0001
1000
0100
0010
0001
1000
0010
1000
,
0002
0023
0230
2300
,
3001
0100
0010
1000
0001
0100
0010
1000
0001
0010
0100
1000
0001
0010
0100
1000
,
0002
0023
0230
0000
2300
3020
0230
0000
,
0301
0010
0100
0010
0100
1000
0001
1000
0010
0000
0100
0000
0001
0000
1000
0000
,
0200
0000
0000
0000
0000
0000
0300
0000
1100
0000
1000
0100
0010
0001
0010
0100
,
1000
0001
1000
0001
1000
0010
1000
0010
0100
0010
0100
0001
0100
0001
1000
0001
,
1000
0010
1000
0010
0100
0010
0100
0010
0100
0001
0100
0001
1000
0001
1000
0001
,
1000
0100
1000
0100
0010
0100
0010
0100
0010
0001
0010
0001
1000
0001
1000
0001
,
1000
0010
1000
0010
0100
0001
0100
0001
1000
0100
1000
0100
0010
0001
0010
0001
,
2000
3200
0320
0032
,
0203
0320
2030
3002
,
2003
3020
0230
0302
,
0023
0000
0000
0000
0230
0000
0000
0000
2300
0000
0000
0000
3001
1000
0001
1000
,
0010
0100
0001
1000
0001
0100
0010
1000
0001
0010
0100
1000
0010
0100
0001
0010
,
0100
1000
0100
0010
0001
0100
0010
1000
0100
0010
0001
0010
0100
1000
0001
0010
,
0001
1000
0010
1000
0001
0100
0010
0100
0001
1000
0100
0010
0100
1000
0001
0010
,
0100
1000
0010
0100
0010
1000
0100
0010
0001
1000
0001
0100
0010
1000
0001
0100
,
0001
0000
1MM1
0000
,
1M1M
11MM
MM22
0000
,
0033
0000
0000
0000
0001
0010
0100
1000
0010
0100
0001
0010
0001
1000
0001
0100
,
0001
1000
0001
0010
0100
1000
0001
0100
0010
1000
0010
0100
0010
1000
0010
0100
,
0010
1000
0010
0100
0001
1000
0100
0010
0001
1000
0001
1000
0010
1000
0010
0100
,
0010
0100
0001
0100
0001
1000
0001
1000
0010
1000
0010
1000
0001
1000
0001
1000
,
0001
0100
0001
0100
0010
1000
0010
1000
0010
1000
0020
0000
1030
0100
0010
0001
,
0100
0010
1000
0100
1000
0001
1000
0010
1000
0001
1000
0100
0010
0001
1000
0010
,
0100
0001
0100
0010
0100
0001
0100
0010
0100
0001
0100
0010
1000
0001
0010
0100
,
1000
0001
1000
0001
0100
0001
0100
0010
0100
0010
1000
0010
1000
0001
1000
0001
,
0100
0001
0100
0001
1000
0001
1000
0001
1000
0010
1000
0010
0100
0001
0100
0001
,
1000
0100
0010
0100
1000
0001
0010
0100
1000
0001
1000
0010
0100
0001
0100
0010
,
1000
0100
0010
0001
0010
0100
1000
0001
0100
0001
1000
0010
0100
0001
1000
0100
,
0020
0000
0000
0000
0000
0000
0031
1000
0200
0000
0000
0000
0000
0000
0000
0000
,
0310
0001
0010
0100
1000
0001
1000
0010
0100
0001
1000
0100
0010
0001
0010
0100
,
1000
0010
0100
0001
1000
0010
0100
0001
1000
0100
0010
0001
1000
0100
0010
0001
,
1000
0100
0010
0100
1000
0001
0010
0100
1000
0001
0010
0100
0010
0001
1000
0100
,
1000
0010
0100
0001
1000
0010
0100
0001
1000
0100
0010
0001
0100
0010
1000
0001
,
0100
0010
0100
0001
1000
0100
0010
0100
1000
0001
0010
0100
1000
0001
0100
0001
,
1000
0000
0000
0000
0100
0000
0000
0000
1000
0000
0000
0000
0010
0000
0000
0000
0100
0000
0000
0000
0001
0000
0000
0000
0100
0000
0000
0010
0000
0000
1000
0000
0000
0001
0000
0000
0100
0000
0000
0001
0000
0000
1000
0000
0000
0010
0000
0000
,
0200
0000
0000
0000
0000
0000
0000
0000
0000
0000
0000
0000
0301
0100
0010
1000
0001
1000
0010
0100
0001
1000
0001
0100
,
0010
1000
1000
1000
0010
1000
1000
1000
,
0001
1000
1000
1000
0010
1000
1000
1000
,
0001
0010
0100
1000
0100
0010
0001
1000
,
0010
0100
0001
1000
1M1M
0000
M11M
0000
,
M1M1
0000
0000
0000
1MM1
0000
0000
0000
22MM
0000
0000
3300
1000
0100
1000
0100
,
0010
0001
1000
0001
1000
0100
0010
0001
1000
0010
0100
0010
1000
0001
0010
0100
,
0010
0001
1000
0100
0010
0001
1000
0001
0100
0010
1000
0010
0100
0001
0010
0100
,
1000
0001
0100
0001
1000
0010
0100
0001
0010
0100
1000
0100
0010
0001
1000
0100
,
1000
0001
0100
0010
1000
0010
0100
0001
0010
0100
1000
0100
0010
0001
0100
0010
,
0100
0001
0010
0100
1000
0001
0100
0001
1000
0010
0100
0010
1000
0001
0010
0100
,
0010
0001
1000
0100
0010
0001
1000
0001
0100
0010
1000
0010
0100
0001
0010
0100
,
1000
0001
0100
0001
1000
0010
0100
0001
0010
0100
1000
0100
0010
0001
1000
0100
,
1000
0001
0100
0010
1000
0010
0100
0001
0010
0100
1000
0100
0010
0001
0100
0010
,
0100
0001
0010
0100
1000
0001
0100
0001
1000
0010
0100
0010
1000
0001
0010
0100
,
0010
0001
1000
0100
0010
0001
1000
0001
0100
0010
1000
0010
0100
0001
0010
0100
,
1000
0001
0100
0001
1000
0010
0100
0001
0010
0100
1000
0100
0010
0001
1000
0100
,
1000
0001
0100
0010
1000
0010
0100
0001
0010
0100
1000
0100
0010
0001
0100
0010
,
0100
0001
0010
0100
1000
0001
0100
0001
1000
0010
0100
0010
1000
0001
0010
0100
,
0010
0001
1000
0100
0010
0001
1000
0001
0100
0010
1000
0010
0100
0001
0010
0100
,
1000
0001
0100
0001
1000
0010
0100
0001
0010
0100
1000
0100
0010
0001
1000
0100
,
1000
0001
0100
0010
1000
0010
0100
0001
0010
0100
1000
0100
0010
0001
0100
0010
,
0100
0001
0010
0100
1000
0001
0100
0001
10M0
0000
0000
0000
1MM1
0000
0000
0000
,
11MM
1M1M
M1M1
MM11
,
1MM1
0000
1M1M
0000
2002
0000
0000
3003
,
0001
1000
2020
0000
,
0000
3030
1000
0000
2002
0000
0000
3003
,
0001
1000
2020
0000
,
0000
0000
3030
0000
1000
0100
0010
0001
1000
0100
1000
0100
0010
0001
0010
0001
,
1000
0010
1000
0010
0100
0001
0100
0001
1000
0100
1000
0100
0010
0100
0010
0100
,
1000
0100
1000
0100
1000
0010
1000
0010
0100
0001
0100
0001
1000
0100
1000
0100
,
0010
0001
0010
0001
1000
0001
1000
0001
1000
0010
1000
0010
1000
0100
1000
0100
,
1000
0010
1000
0010
1000
0001
1000
0001
1000
0001
0100
0001
0100
0010
1000
0010
,
1000
0001
1000
0001
1000
0100
1000
0100
0010
0001
0010
0001
1000
0010
1000
0010
,
0100
0001
0100
0001
1000
0100
1000
0100
0010
0100
0010
0100
0010
0001
0010
0001
,
0010
0100
0010
0100
1000
0100
1000
0100
1000
0001
1000
0001
0010
0001
0010
0001
,
0010
0100
0010
0100
0010
0001
1000
0100
0010
0000
0000
0000
0000
0000
0000
0000
;
