#TITLE:to Luv me, I *** for u.;
#SUBTITLE:(reprise);
#ARTIST:t+pazolite;
#TITLETRANSLIT:;
#SUBTITLETRANSLIT:;
#ARTISTTRANSLIT:;
#CREDIT:;
#BANNER:to luv me bn.png;
#BACKGROUND:to luv me bg.png;
#LYRICSPATH:;
#CDTITLE:;
#MUSIC:song.ogg;
#OFFSET:-0.335;
#SAMPLESTART:154.165;
#SAMPLELENGTH:8.727;
#SELECTABLE:YES;
#DISPLAYBPM:220.000;
#BPMS:0.000=220.000,224.000=110.000,225.000=220.000,291.000=200.001,291.500=185.002,292.000=172.501,292.500=150.001,293.000=140.001,293.500=130.001,294.000=125.000,294.500=120.000,295.000=115.000,295.500=100.001,296.000=110.000,326.000=220.000,386.000=999999.000,392.000=220.000;
#STOPS:;
#BGCHANGES:;
// cache tags:
#FIRSTBEAT:28.000;
#LASTBEAT:676.000;
#SONGFILENAME:Songs/Speedcore Rejects/To Luv Me (Reprise) - [Tyler]/to luv me reprise.sm;
#HASMUSIC:1;
#HASBANNER:1;
#MUSICLENGTH:193.364;
// end cache tags

//---------------dance-single - T. Moore----------------
#NOTES:
     dance-single:
     T. Moore:
     Challenge:
     13:
     1.000,1.000,0.403,0.455,0.843,1374.000,78.000,88.000,58.000,0.000:
0000
0000
0000
0000
,
0000
0000
0000
0000
,
0000
0000
0000
0000
,
0000
0000
0000
0000
,
0000
0000
0000
0000
,
0000
0000
0000
0000
,
0000
0000
0000
0000
,
1010
0000
0000
0000
0101
0000
0000
0000
1001
0000
1000
0100
0010
0000
0001
0000
,
0100
0100
1000
0001
0100
0100
1000
0001
,
0100
0010
1000
0001
0010
0001
1000
0010
,
0100
0100
1000
0001
0100
0100
1000
0001
,
0100
0001
0010
0100
1000
0010
1000
0001
,
0100
0100
1000
0001
0100
0100
1000
0001
,
0100
0001
1000
0100
0010
0100
0010
0001
,
0100
0100
1000
0001
0100
0100
1000
0001
,
0010
0010
1000
0100
0010
0100
0010
0001
,
0100
0100
0010
0001
0100
0100
0010
0001
,
1000
0010
0100
0001
1000
0100
1000
0010
,
0100
0100
1000
0001
0100
0100
1000
0001
,
0100
0001
0010
0100
1000
0010
1000
0001
,
0100
0100
1000
0001
0100
0100
1000
0001
,
0010
0001
1000
0010
0100
0001
1000
0010
,
0100
0100
1000
0001
0100
0100
1000
0001
,
0010
0010
1000
0001
0010
0001
0010
0100
,
1000
0000
0001
0100
0001
1000
0100
0010
0001
1000
0010
0000
0100
0001
4000
0000
,
3100
0100
0001
1000
0100
0100
0001
1000
,
0010
0000
0100
0000
0001
0000
1000
0000
0100
0000
1000
0000
0001
1000
0001
0010
,
0100
0100
0001
1000
0100
0100
0001
1000
,
0100
0010
0004
0000
0103
0000
0010
1000
0100
0010
0001
1000
0010
1000
0004
0000
,
0103
0100
1000
0001
0100
0100
1000
0001
,
0010
0000
0001
0000
1000
0000
0010
0000
0101
0000
0000
1001
0000
0000
0021
0000
,
0130
0100
0001
1000
0100
0100
0001
1000
,
0100
0000
0010
0001
0010
0001
1000
0010
0100
0001
0100
0010
1000
0001
0040
0000
,
0130
0100
0001
1000
0100
0100
0001
1000
,
0100
0000
0010
0000
0001
0000
1000
0000
0010
0000
0100
0000
0001
1000
0010
1000
,
0100
0100
0001
1000
0100
0100
0001
1000
,
0100
0010
0004
0000
1003
0000
0100
1000
0010
0100
0001
0100
0010
1000
0004
0000
,
0103
0100
1000
0001
0100
0100
1000
0001
,
0010
0000
0100
0000
1000
0000
0001
0000
0101
0000
0000
0110
0000
0000
0010
1000
,
0100
0100
0001
1000
0100
0100
0001
1000
,
1001
0000
0000
0000
0001
0010
0100
1000
0010
0100
0001
0100
0010
1000
0004
0000
,
1003
0000
0001
0000
1000
0100
0000
1000
0010
0000
1000
0001
0000
1000
0100
0000
,
0010
0000
0001
0000
0010
0001
0000
0010
0100
0000
0010
0001
0000
1000
0010
0000
,
0100
0000
0010
0000
1000
0001
0000
1000
0010
0000
1000
0001
0000
1000
0100
0000
,
0010
0000
0001
0000
0010
0001
0000
0010
0100
0000
1000
0001
0000
1000
0010
0000
,
0100
0000
0001
0000
0100
0010
0000
1000
0001
0000
1000
0010
0000
0100
0001
0000
,
1000
0000
0100
0000
1000
0100
0000
0010
0001
0000
0010
0100
0000
1000
0001
0000
,
0100
0000
0001
0000
1000
0010
0000
1000
0100
0000
1000
0001
0000
0100
0001
0000
,
1000
0000
0010
0000
1000
0100
0000
0010
0001
0000
1000
0001
0000
0100
0010
0000
,
2MM0
0000
3001
0000
2000
0100
3000
0010
0002
0000
1003
0010
0200
0000
0301
0000
,
2000
0000
3100
0000
0020
0001
0030
0010
0200
0000
0310
0001
2000
0000
3010
0000
,
0200
0000
0301
0000
2000
0010
3000
1000
0002
0000
1003
0100
0020
0000
0031
0000
,
2000
0000
3010
0000
0200
0001
0300
1000
0002
0000
0013
0100
2000
0000
3001
0000
,
0200
0000
0310
0000
2000
0001
3000
1000
0200
0000
0310
0001
2000
0000
3001
0000
,
0200
0000
0310
0000
2000
0001
3000
1000
0200
0000
0310
0001
2000
0000
3010
0000
,
0200
0000
0301
0000
2000
0010
3000
0100
0002
0000
1003
0001
0020
0000
0130
0000
,
1000
0000
2002
3003
2002
3003
1001
1000
,
0010
0010
0100
0100
0001
0001
1000
1000
,
0100
0000
0100
0000
0010
0000
0010
0000
0001
0010
0100
1000
00M1
0000
0001
0100
,
0000
0100
0010
0000
100M
0000
1000
0001
0000
0001
0010
0000
010M
1000
0004
0000
,
0103
0000
0010
1000
0002
0000
0003
0000
2002
0000
3003
0000
1001
0000
0001
0000
,
0010
0010
0100
0100
1000
1000
0001
0001
,
0100
0000
0100
0000
0010
0000
0010
0000
1000
0001
0010
0100
100M
0000
1000
0001
,
0000
0001
0100
0000
001M
0000
0010
1000
0000
1000
0001
0000
10M0
0100
0040
0000
,
0031
0000
0010
0100
1000
0001
1000
0010
0100
0001
0040
0130
1000
0000
1000
0000
,
0001
0001
0100
0100
0010
0010
1000
1000
,
0100
0000
0100
0000
0010
0000
0010
0000
0001
0010
0100
1000
00M1
0000
0001
0100
,
0000
0100
0010
0000
100M
0000
1000
0010
0000
0010
0100
0000
00M1
1000
0400
0000
,
0310
0000
0001
1000
0002
0000
0003
0000
2002
0000
3003
0000
1001
0000
1000
0000
,
0010
0010
0100
0100
0001
0001
1000
1000
,
0100
0000
0100
0000
0010
0000
0010
0000
0001
0010
0100
1000
00M1
0000
0001
0100
,
0000
0100
0010
0000
100M
0000
1000
0001
0000
0001
0010
0000
0100
0000
4000
0000
,
3100
0010
0001
0010
0100
1000
0001
1000
0010
0100
0001
1000
0200
0000
0000
0000
,
0000
0000
0000
0000
,
0310
0000
0000
0000
0000
0000
0000
0000
0001
0000
0000
0000
0000
0010
0000
0000
0200
0000
0000
0000
0300
0000
0000
0000
1000
0000
0000
0000
0000
0000
0000
0000
0001
0000
0000
0000
0000
1000
0000
0000
0010
0000
0000
0000
0000
0100
0000
0000
0002
0000
0000
0000
0003
0000
0000
0000
1000
0000
0000
0000
0000
0000
0000
0000
,
0001
0000
0000
0000
0000
0000
0000
0000
0100
0000
0000
0000
0000
0010
0000
0000
2000
0000
0000
0000
3000
0000
0000
0000
0001
0000
0000
0000
0000
0000
0000
0000
1000
0000
0000
0000
0000
0100
0000
0000
0010
0000
0000
0000
0000
0001
0000
0000
2000
0000
0000
0000
3000
0000
0000
0000
0010
0000
0000
0000
0000
0000
0000
0000
,
0100
0000
0000
0000
0000
0000
0000
0000
0001
0000
0000
0000
0000
0100
0000
0000
0020
0000
0000
0000
0030
0000
0000
0000
1000
0000
0000
0000
0000
0000
0000
0000
0001
0000
0000
0000
0000
1000
0000
0000
0100
0000
0000
0000
0000
0010
0000
0000
0002
0000
0000
0000
0003
0000
0000
0000
1000
0000
0000
0000
0000
0000
0000
0000
,
0001
0000
0000
0000
0000
0000
0000
0000
0100
0000
0000
0000
0000
0010
0000
0000
2000
0000
0000
0000
3000
0000
0000
0000
0001
0000
0000
0000
0000
0000
0000
0000
1000
0000
0000
0000
0000
0100
0000
0000
0010
0000
0000
0000
0000
0001
0000
0000
2000
0000
0000
0000
3000
0000
0000
0000
0010
0000
0000
0000
0000
0000
0000
0000
,
0101
0000
0000
0000
0000
0000
0000
0000
0001
0000
0000
0000
0000
1000
0000
0000
0020
0000
0000
0000
0030
0000
0000
0000
1000
0000
0000
0000
0000
0000
0000
0000
0001
0000
0000
0000
0000
1000
0000
0000
0100
0000
0000
0000
0000
0010
0000
0000
0002
0000
0000
0000
0003
0000
0000
0000
1000
0000
0000
0000
0000
0000
0000
0000
,
0010
0000
0000
0000
0000
0000
0000
0000
0100
0000
0000
0000
0000
0001
0000
0000
2000
0000
0000
0000
3000
0000
0000
0000
0100
0000
0000
0000
0000
0000
0000
0000
1000
0000
0000
0000
0000
0001
0000
0000
0010
0000
0000
0000
0000
0100
0000
0000
2000
0000
0000
0000
3000
0000
0000
0000
0001
0000
0000
0000
0000
0000
0000
0000
,
0100
0000
0000
0000
0000
0000
0000
0000
0001
0000
0000
0000
0000
1000
0000
0000
0020
0000
0000
0000
0030
0000
0000
0000
1000
0000
0000
0000
0000
0000
0000
0000
0100
0000
0000
0000
0000
1000
0000
0000
0001
0000
0000
0000
0000
1000
0000
0000
0020
0000
0000
0000
0030
0000
0000
0000
0100
0000
0000
0000
0000
0000
0000
0000
,
0001
0000
0000
0000
0000
0000
0000
0000
0100
0000
0000
0000
0000
0001
0000
0000
2000
0000
0000
0000
3000
0000
0000
0000
0100
0000
0000
0000
0010
0000
0001
0000
1000
0000
0000
0000
0000
0000
0000
0000
0001
0000
0000
0000
1000
0000
0000
0000
0001
0000
0000
0000
0000
0000
0000
0000
1000
0000
0000
0000
0001
0000
0000
0000
,
0100
0010
1000
0001
1000
0000
0400
0000
0310
0000
0010
0000
0001
0000
1000
0001
,
0100
0010
1000
0000
1000
0000
0001
0010
0100
0000
0100
0000
1000
0000
0001
0100
,
0010
0000
1000
0000
0004
0000
1003
0000
0100
0000
0100
0010
0001
0000
1000
0001
,
0100
0000
0040
0000
0130
0000
0001
0000
1000
0001
1000
0001
1000
0100
0010
0001
,
1000
0010
1000
0010
0100
0000
0004
0000
1003
0000
1000
0000
0100
0000
0010
0001
,
1000
0010
0100
0001
1000
0001
1000
0000
0100
0010
0001
0010
0001
0000
1000
0001
,
1000
0000
0010
0000
0400
0000
0301
0000
1000
0001
0000
0000
1000
0001
0000
0000
,
1000
0001
0000
0000
1000
0001
0000
0000
0010
0001
0010
0001
0010
0100
1000
0001
,
0000
1000
0001
0100
0040
0000
0000
0030
1010
0000
1000
0000
0001
0000
1000
0100
,
1000
0100
0010
0000
0001
0000
1000
0001
0100
0000
0100
0000
0010
0000
0100
0010
,
1000
0000
0001
0000
0040
0000
0031
0010
0100
1000
0100
0000
0010
0000
0001
1000
,
0001
0000
0040
0000
0130
0000
1000
0000
0001
0100
0001
0100
0010
1000
0001
0010
,
0100
1000
0100
1000
0001
0000
4000
0000
3010
0000
0010
0000
0100
0000
0010
1000
,
0001
0010
0100
1000
0001
0000
0100
0000
0010
1000
0010
1000
0001
0000
1000
0100
,
1000
0001
0040
0031
0000
0000
0000
0000
,
0000
0000
0000
0000
,
0000
0000
0000
0000
M000
0000
00M0
0000
0000
0000
0M00
0000
00M0
0000
M000
0000
0000
0000
0M0M
0000
0000
0000
M000
0000
00M0
0000
0M00
0000
0000
0000
M00M
0000
0000
00M0
0000
0000
0M00
0000
0000
000M
0000
0000
M0M0
0000
0000
0000
0000
0000
,
1001
0000
0101
0000
1010
0000
1001
0001
,
0010
0100
0010
0001
0100
0010
1000
0001
,
1000
0100
0010
0001
0100
0000
2M2M
3030
,
0001
1000
0010
0100
0001
1000
0100
0010
,
0001
0000
0001
0000
2MMM
0000
3000
0000
0010
0000
1000
0000
0001
0000
0010
0100
,
1000
0100
1000
0100
0010
0001
1000
0010
,
0100
0001
0010
0100
1000
0000
MM22
0033
,
0001
1000
0010
0100
0001
1000
0100
0010
,
0001
0000
0020
0000
0031
0000
0020
0000
0130
0000
2000
3000
0020
0030
0200
0300
,
0101
0000
0000
0000
0002
0000
0000
0000
2003
0000
0000
0000
0200
3000
0000
0000
,
0020
0000
0000
0000
0300
0000
0000
0000
0002
0000
0000
0000
0000
0000
0030
0000
0200
0000
0000
0000
0000
0000
0003
0300
0110
0000
0000
0000
0000
0000
0000
0000
,
0110
0000
0000
0000
0020
0000
0000
0000
2030
0000
0000
0000
0002
3000
0000
0000
,
0020
0000
0000
0000
0003
0000
0000
0000
0200
0000
0000
0000
0000
0000
0030
0000
2000
0000
0000
0000
0000
0000
0300
3000
1001
0000
0000
0000
0000
0000
0000
0000
,
1001
0000
MM2M
0030
1001
0000
M2MM
0300
,
1010
0000
MMM2
0003
1010
0000
2MMM
3000
,
1001
0000
0000
0001
0100
0000
0010
1000
0001
0000
1000
0100
0010
0000
0001
1000
,
0010
0000
0100
0001
1000
0000
0100
0010
0001
0000
1000
0010
0100
0000
0001
0010
,
0100
1000
0001
1000
0001
0010
0001
1000
0010
0100
0001
0010
0001
0100
0010
1000
,
0100
0100
0001
1000
0100
0100
0001
1000
,
0100
0010
0001
1000
0010
1000
0001
0010
,
0100
0100
0001
1000
0100
0100
0001
1000
,
0100
1000
0010
0100
0001
0010
0001
1000
,
0100
0100
0001
1000
0100
0100
0001
1000
,
0100
1000
0001
0100
0010
0100
0010
1000
,
0100
0100
0001
1000
0100
0100
0001
1000
,
0010
0010
0001
0100
0010
0100
0010
1000
,
0100
0100
0001
1000
0100
0100
0001
1000
,
0100
0010
0001
1000
0001
0100
0001
0010
,
0100
0100
0001
1000
0100
0100
0001
1000
,
0100
1000
0010
0100
0001
0010
0001
1000
,
0100
0100
0001
1000
0100
0100
0001
1000
,
0010
1000
0001
0010
0100
1000
0001
0010
,
0100
0100
0001
1000
0100
0100
0001
1000
,
0010
0010
0001
1000
0010
1000
0010
0100
,
0001
0000
1000
0100
1000
0001
0100
0010
1000
0100
1000
0001
0100
0010
1000
0001
,
0100
0100
1000
0001
0100
0100
1000
0001
,
0010
0000
0100
0000
1000
0000
0001
0000
0100
0000
0001
0000
1000
0100
0010
0001
,
0100
0100
1000
0001
0100
0100
1000
0001
,
0100
0010
4000
0000
3001
0000
1000
0100
0010
0001
1000
0001
0100
0010
4000
0000
,
3100
0100
0001
1000
0100
0100
0001
1000
,
0100
0000
0010
0000
0001
0000
1000
0000
1001
0000
0000
0101
0000
0000
1010
0000
,
1001
0001
0010
0001
0100
0100
0010
0001
,
0100
0000
0010
1000
0010
1000
0001
0010
0100
1000
0100
0010
0001
1000
0040
0000
,
0130
0100
1000
0001
0100
0100
1000
0001
,
0010
0000
0001
0000
1000
0000
0100
0000
0010
0000
0100
0000
1000
0001
0010
0001
,
0100
0100
1000
0001
0100
0100
1000
0001
,
0100
0010
4000
0000
3001
0000
1000
0100
0010
0001
0100
0010
1000
0001
0040
0000
,
0130
0100
0001
1000
0100
0100
0001
1000
,
0100
0000
1000
0000
0001
0000
0100
0000
0110
0000
0000
1010
0000
0000
1000
0001
,
0100
0100
1000
0001
0100
0100
1000
0001
,
0101
0000
0000
0000
0010
1000
0001
1000
0100
0010
0001
0010
0100
1000
0010
0100
,
0001
0000
0000
1000
1100
0000
0000
0001
,
0101
1010
1001
0000
,
0011
0000
0000
1000
1010
0000
0000
0001
,
0101
0100
0110
0000
1001
0000
0000
0000
,
1100
0000
0000
0000
M020
0000
0030
0001
1000
0000
0000
0000
002M
0000
0030
0100
,
0001
0000
0200
0301
1000
0000
0200
1300
0001
0000
0000
0000
M200
0000
0300
0010
,
1000
0000
0000
0000
00M2
0000
0003
1000
0100
0000
0000
0000
M020
0000
0030
0001
,
1000
0000
0010
0100
0001
0000
1000
0001
0010
0000
0100
0010
0001
1000
0040
0000
,
0130
0100
1000
0010
0100
0100
1000
0010
,
0001
0000
0010
0000
0100
0000
0001
0000
1000
0000
0100
0000
1000
0001
0010
0001
,
0100
0100
1000
0001
0100
0100
1000
0001
,
0010
0100
1000
0001
0100
0000
0010
1000
0001
0010
0100
1000
0001
0000
0100
0000
,
0010
1000
0010
1000
0001
0010
0100
1000
0010
1000
0010
1000
0001
0010
0100
1000
,
0010
0100
0001
0100
0010
1000
0001
1000
0100
0010
0001
0010
0100
1000
0010
0100
,
0004
0003
0000
0000
0040
0030
0000
0000
0400
0300
0000
0000
4000
3000
0000
0000
0040
0030
0000
0000
0400
0300
0000
0000
0004
0003
0000
0000
4000
3000
0000
0000
0400
0300
0000
0000
0040
0030
0000
0000
0004
0003
0000
0000
0400
0300
0000
0000
0040
0030
0000
0000
4000
3000
0000
0000
0400
0300
0000
0000
0040
0030
0000
0000
,
0004
0003
0040
0030
0004
0003
0400
0300
0040
0030
0400
0300
0004
0003
0040
0030
0400
0000
4300
0000
3040
0000
4030
0000
3400
0000
0340
0000
0430
0000
4300
0000
,
30M1
0000
0000
0000
,
0M00
0000
0000
0000
,
M000
0000
0000
0000
,
000M
0000
0000
0000
;
