#TITLE:Digital Splitter;
#SUBTITLE:;
#ARTIST:Dustboxxxx;
#TITLETRANSLIT:;
#SUBTITLETRANSLIT:;
#ARTISTTRANSLIT:;
#CREDIT:owenviau1;
#BANNER:../BN.png;
#BACKGROUND:;
#LYRICSPATH:;
#CDTITLE:;
#MUSIC:Digital Splitter.ogg;
#OFFSET:-0.643;
#SAMPLESTART:62.539;
#SAMPLELENGTH:29.999;
#SELECTABLE:YES;
#DISPLAYBPM:210.000;
#BPMS:0.000=210.012,61.000=420.024,62.000=1680.096,154.000=210.012,630.000=106.580,638.000=105.012,654.000=210.012,822.000=105.006,826.000=210.012;
#STOPS:691.000=0.080
;
#BGCHANGES:;
// cache tags:
#FIRSTBEAT:24.000;
#LASTBEAT:898.000;
#SONGFILENAME:Songs/owenviau1 Simfiles 07_final/Digital Splitter - [Braeden47 + owenviau1] v1.0.1/Digital Splitter.sm;
#HASMUSIC:1;
#HASBANNER:1;
#MUSICLENGTH:262.112;
// end cache tags

//---------------dance-single - ----------------
#NOTES:
     dance-single:
     :
     Challenge:
     19:
     1.000,1.000,0.195,0.076,1.000,1979.000,51.000,20.000,76.000,0.000:

0000
0000
0000
0000
,
0000
0000
0000
0000
,
0000
0000
0000
0000
,
0000
0000
0000
0000
,
0000
0000
0000
0000
,
0000
0000
0000
0000
,
M000
0M00
00M0
000M
00M0
0M00
M000
000M
,
0M00
00M0
M000
0M00
00M0
0M00
M000
000M
,
0M00
0000
0000
0000
,
MMMM
M000
MMM0
M000
M000
M000
0000
0000
,
0000
0000
0000
0000
,
0000
0000
0000
0000
,
0000
0000
0000
0000
,
0000
0000
0000
0000
,
0000
0000
0000
0000
,
4000
3002
0203
0000
,
0000
0000
0000
0000
,
0000
0000
0000
0000
,
0000
0000
0000
0000
,
0000
0000
0000
0000
,
0000
0000
0000
0000
,
0000
0000
0000
0000
,
0000
0000
0000
0000
,
0000
0000
0000
0000
,
0000
0000
0000
0000
,
0000
0000
0000
0000
,
0000
0000
0000
0000
,
0000
0000
0000
0000
,
0000
0000
0000
0000
,
0000
0000
0000
0000
,
0000
0000
0000
0000
,
0000
0000
0000
0000
,
0000
0000
0000
0000
,
0000
0000
0000
0000
,
0000
0000
0000
0000
,
0000
0000
0000
0000
,
0000
0000
0000
0000
,
0000
0000
0000
0000
,
0000
0000
0300
0000
,
0000
0000
4000
0000
,
0000
0000
3000
0000
,
0000
0000
0000
0000
,
0000
0000
0000
0000
,
0000
0000
0004
0000
,
0000
0000
1003
0010
,
0100
0000
0001
0000
1001
1000
0001
0000
,
0000
0000
0000
0000
0001
0100
0010
1000
,
0000
0000
0010
0040
0030
0000
0100
0400
,
0300
0000
0001
0010
0001
0010
0000
0000
,
0100
4000
0000
0000
3001
0400
0000
0000
,
0301
0000
1000
0000
,
1001
0004
0000
0000
1013
0000
0M00
000M
,
0M00
00M0
M000
00M0
0M00
000M
M000
0M00
,
00M0
000M
00M0
0M00
M000
000M
0M00
00M0
,
M000
MM00
0000
0000
,
0000
0000
0000
0000
,
0000
00MM
0000
1001
,
M000
0M00
00M0
000M
M000
0M00
00M0
000M
,
0000
0000
0000
0000
F000
0001
1000
0001
1000
0010
0100
0001
1000
0100
0010
0001
,
0010
0100
1000
0001
0100
0010
1000
0100
0010
0100
1000
0001
0010
0100
1000
0100
,
0010
0001
0100
0010
0100
0001
0010
0100
1000
0001
0010
0001
1000
0100
0010
0100
,
1000
0001
0100
0010
1000
0100
0010
0100
1000
0001
0100
0010
1000
0001
0010
0100
,
1000
0100
0010
0001
0100
0010
0100
0001
0010
0100
1000
0001
0100
0010
0100
0001
,
0010
0100
1000
0001
0100
0010
1000
0100
0010
0001
0100
0010
0100
0001
0010
0100
,
1000
0001
0100
0001
1000
0100
0010
0100
1000
0001
0010
0100
1000
0100
0010
0001
,
0100
0010
0100
0001
0010
0100
1000
0100
0010
0100
0010
0100
1000
0001
0100
0010
,
1000
0100
0010
0001
0100
0010
1000
0100
0010
0001
0100
0010
1000
0100
0010
0001
,
0100
0010
1000
0001
0010
0100
1000
0100
0010
0001
0100
0010
1000
0100
0010
0001
,
0100
0010
1000
0100
0010
0100
1000
0001
0100
0010
1000
0100
0010
0001
0100
0010
,
0100
0001
0010
0100
1000
0001
0100
0010
1000
0001
0010
0100
1000
0001
0010
0001
,
1000
0100
0010
0001
0100
0010
0100
0001
0010
0100
1000
0100
0010
0100
1000
0001
,
0100
0010
1000
0100
0010
0001
0010
0100
1000
0001
0100
0010
1000
0100
0010
0001
,
0100
0010
0100
0001
0010
0100
1000
0100
0010
0001
0100
0010
1000
0100
0010
0001
,
0010
0100
1000
0001
0100
0010
1000
0100
0020
0000
0000
0000
0030
0000
0000
0000
,
0001
1000
0001
1000
0010
0100
0010
0100
0001
0100
0010
1000
0100
0010
0001
0010
,
0100
1000
0001
0100
0001
1000
0010
1000
0001
0010
0001
1000
0100
1000
0001
0010
,
0100
1000
0001
0010
0001
0100
0010
0100
0001
0010
0100
1000
0100
0010
0001
0100
,
0010
1000
0001
0100
0010
1000
0100
0010
0001
0010
0100
1000
0001
0100
0010
0100
,
0001
0010
0100
1000
0100
0010
0001
0100
0010
0100
0001
0010
0100
1000
0001
0100
,
0010
0100
0001
0010
0100
1000
0100
0010
0100
0010
0100
1000
0001
0100
0004
0000
,
0000
4003
3010
0100
,
0004
0000
0000
0000
0103
0000
0000
0000
0010
1000
0010
1000
0001
0100
0001
0100
,
0040
0000
4030
0000
3010
0000
0100
0000
0001
1000
0001
0010
0100
1000
0100
1000
,
0001
0100
0010
1000
0001
0010
0100
1000
0001
0100
0010
1000
0100
1000
0001
1000
,
0100
0010
0100
1000
0001
0100
0010
0100
0001
0010
0100
1000
0001
0100
0010
1000
,
0001
0010
0001
1000
0010
0100
0001
1000
0100
0010
0001
0010
0100
1000
0001
0100
,
0010
1000
0100
0010
0001
0010
0100
1000
0001
0000
0000
0000
0M00
0000
0000
0000
,
00M0
0000
0M00
0000
2001
0000
0000
3001
,
0000
0100
0010
0100
0110
0000
1100
0000
,
0011
0000
1000
0002
0103
0010
1000
0100
,
0010
0001
0010
0001
1000
0100
1000
0100
0020
0000
0000
0000
0000
0000
0000
0000
,
0030
0000
0004
0000
,
2003
0000
0000
0000
0000
0000
0000
0000
3010
0100
0001
1000
0100
0010
0100
1000
,
0001
0100
0010
1000
0100
0010
0001
0010
0100
1000
0001
0100
0010
1000
0001
0010
,
0100
1000
0001
0100
0001
1000
0100
0010
0100
1000
0001
0100
0010
1000
0100
0010
,
0100
1000
0001
0100
0010
1000
0001
0010
0400
0000
0000
0000
4300
0000
0000
0000
,
3010
1000
0100
0010
0004
0000
0000
0000
1003
0100
0010
0001
0010
0100
1000
0001
,
0100
0010
1000
0100
0010
0001
0010
0100
1000
0001
0100
0010
1000
0001
0100
0010
,
1000
0100
0010
0001
4000
0000
0000
0000
3001
0100
0010
1000
0100
0010
0100
1000
,
0001
0100
0010
1000
0100
0010
0001
0010
0400
0000
0000
0000
4300
0000
0000
0000
,
3004
0000
0000
0000
0103
0000
0010
0000
1010
0000
0000
0000
0100
0001
0100
0001
,
0100
0010
1000
0100
0010
0100
1000
0001
0100
0010
1000
0100
0010
0001
0010
0100
,
1000
0001
0100
0010
1000
0100
0010
0001
0010
0100
1000
0001
0100
0010
1000
0100
,
0010
0001
0100
0010
1000
0100
0010
0001
0200
0000
0320
0000
2030
0000
3200
0000
,
0340
0000
0031
1000
0040
0000
0000
0000
0130
0001
0100
0001
1000
0010
1000
0010
,
0100
0001
0100
0001
0100
0010
0100
0010
1000
0000
0010
0000
0100
0001
0100
0000
,
0010
0000
0000
1000
0000
0000
0010
0000
0000
1000
0000
0000
0001
0000
0100
0000
0001
0000
0100
0000
0001
0000
0100
0000
0001
0000
0000
0000
0000
0000
0100
0000
0000
0000
0000
0000
0010
0000
0000
0000
0000
0000
1000
0000
0000
0000
0000
0000
,
0100
0010
0001
0100
0040
0000
0000
0000
,
0000
0000
0000
0000
0000
0000
0000
0000
1030
0001
0100
0010
1000
0100
0010
0000
,
0001
0000
0000
0010
0000
0000
0100
0000
0000
1000
0000
0000
0001
0000
0000
0100
0000
0000
0010
0000
0000
0000
0000
0000
1000
0000
0001
0000
1000
0000
0001
0000
1000
0000
0001
0000
1000
0000
0000
0010
0000
0000
0100
0000
0000
0000
0000
0000
,
0001
0000
0100
0000
0001
0000
0100
0000
0001
0000
0100
0000
0001
0000
0000
0100
0000
0000
0010
0000
0000
0000
0000
0000
1000
0000
0000
0001
0000
0000
0100
0000
0000
0010
0000
0000
1000
0000
0000
0100
0000
0000
0010
0000
0000
0000
0000
0000
,
0001
0100
0010
1000
0100
0010
0100
0010
0001
0000
0400
0000
0310
0000
4000
0000
,
3010
0000
0100
0000
0101
0000
0000
0000
0010
1000
0100
1000
0001
1000
0100
0000
,
0010
0000
0000
0001
0000
0000
0010
0000
0000
0001
0000
0000
1000
0000
0000
0001
0000
0000
1000
0000
0000
0000
0000
0000
0001
0000
0100
0000
0001
0000
0100
0000
0001
0000
0100
0000
0010
0000
0000
1000
0000
0000
0010
0000
0000
0000
0000
0000
,
0100
0000
0001
0000
0100
0000
0001
0000
0100
0000
0001
0000
1000
0000
0000
0010
0000
0000
0100
0000
0000
0000
0000
0000
0001
0000
0000
0010
0000
0000
0100
0000
0000
1000
0000
0000
0100
0000
0000
0010
0000
0000
0001
0000
0000
0000
0000
0000
,
0100
0010
1000
0100
0010
0001
0100
0000
0040
0000
0000
0000
4030
0000
0000
0000
,
0000
0000
0000
0000
0000
0000
3000
0000
1000
0001
0100
0010
1000
0100
0010
0100
,
1000
0001
0100
0010
1000
0100
1000
0001
0100
0010
1000
0100
0010
0100
0010
0001
,
0100
0010
1000
0100
0010
0001
0010
0100
1000
0001
0100
0010
1000
0100
0010
0001
,
0010
0100
1000
0010
1000
0010
0100
0001
0100
0000
0000
0000
0000
0000
0000
0000
,
0004
0000
0000
0000
0403
0000
0000
0000
0310
1000
0001
1000
0100
0010
0100
1000
,
0001
0100
0010
1000
0100
0010
0100
1000
0001
0100
0010
1000
0100
0010
0100
1000
,
0001
0100
0010
1000
0100
0010
0001
0100
0020
0000
0000
0000
0031
0000
0200
0000
,
0000
0301
0010
0100
1000
0000
0000
0000
,
0000
0000
0000
0000
0000
0000
0000
0000
0001
0100
0010
1000
0100
1000
0100
1000
,
0001
0100
0010
1000
0001
0010
0100
1000
0100
0010
0001
0100
0010
1000
0100
0010
,
0100
1000
0001
0100
0010
0100
0001
0010
0100
1000
0100
0010
0100
1000
0001
0100
,
0010
0000
0000
1000
0000
0000
0100
0000
0000
0010
0000
0000
0001
0000
0000
0100
0000
0000
0010
0000
0100
0000
0001
0000
0010
0000
0000
0000
0000
0000
0000
0000
0000
0000
0000
0000
0200
0000
0000
0000
0000
0000
0000
0000
0000
0000
0000
0000
,
1300
0001
1000
0001
1000
0001
1000
0001
1000
0010
0100
0001
1000
0100
0010
0100
,
1000
0001
0100
0010
0100
0001
0010
0100
1000
0100
0010
0001
0100
0010
0100
0001
,
0010
0100
1000
0100
1000
0010
0100
0001
0100
0000
0000
0000
0000
0000
0000
0000
,
0000
0000
0000
0000
,
0000
0000
0000
0000
0000
0000
0000
0000
1000
0001
1000
0010
1000
0100
0010
0001
,
0010
0100
1000
0001
0100
0010
0100
0001
0010
0100
1000
0001
0100
0010
1000
0100
,
0010
0001
0100
0010
1000
0001
0010
0100
1000
0100
0010
0001
0100
0010
0100
0001
,
0010
0100
1000
0001
0100
0010
1000
0100
0010
0100
1000
0001
0010
0100
1000
0001
,
0010
0001
1000
0100
0010
0100
1000
0001
0100
0010
1000
0100
0010
0001
0010
0100
,
1000
0001
0100
0010
1000
0100
0010
0001
0010
0100
1000
0001
0100
0010
1000
0100
,
0010
0001
0010
0100
1000
0001
0100
0010
0100
0000
0000
0000
1000
0000
0000
0000
,
0010
0000
0100
0001
0100
0000
0010
0000
,
1000
0001
1000
0000
0010
0000
0100
0000
0001
0010
0100
1000
0001
0100
0010
1000
,
0100
0010
0001
0010
0100
1000
0001
0100
0010
0100
0001
0010
0100
1000
0100
0010
,
0001
0100
0010
0100
0001
0010
0100
1000
0100
0010
0001
0100
0010
0100
0001
0010
,
0100
1000
0001
0100
0010
1000
0100
0010
0100
1000
0001
0100
0010
1000
0100
0010
,
0001
0100
0010
1000
0001
0010
0100
1000
0001
0010
0001
1000
0100
1000
0001
0100
,
0010
1000
0001
0100
0001
1000
0010
1000
0001
0010
0100
1000
0001
0100
0010
1000
,
0100
0010
0001
0010
0100
1000
0001
0100
0010
0100
0001
0010
0100
1000
0001
0100
,
0010
1000
0100
0010
0001
0010
0100
1000
0001
0100
0010
0100
0001
1000
0010
0100
,
0001
1000
0100
0010
0100
1000
0001
0100
0010
0000
0010
0000
0010
0000
0010
0000
,
1000
0000
1000
0000
0001
0000
0001
0100
0010
0000
0010
0000
1000
0000
1000
0000
,
0100
0000
0100
0000
0010
0001
0010
0001
0100
0000
0100
0000
1000
0000
1000
0000
,
0010
0000
0010
0000
0100
0000
0001
0100
0010
0000
0010
0000
1000
0000
1000
0000
,
0001
0000
0100
0000
0010
0000
1000
0000
0001
0100
0001
0100
0010
0100
0010
0100
,
0001
0100
0001
0100
0010
1000
0010
1000
0010
0100
0010
0100
0010
1000
0010
1000
,
0400
0000
0000
0000
0000
0000
0000
0000
0310
0001
1000
0010
1000
0100
0010
0100
,
1000
0001
0010
0100
1000
0001
0100
0010
1000
0100
0010
0100
1000
0001
0100
0010
,
1000
0000
4004
0000
,
0000
0000
0000
0000
3003
M000
00M0
0M00
,
000M
M000
0M00
00M0
0M00
M000
000M
0M00
,
00M0
0000
M000
0000
0M00
0000
0000
0000
0001
0010
0100
1000
0001
0010
0100
1000
,
0010
0100
0001
0100
0010
1000
0100
0010
0001
0100
0010
1000
0010
0100
0001
0100
,
0010
1000
0100
0010
0001
0010
0100
1000
0010
0100
0001
1000
0100
0010
0001
0100
,
0010
1000
0100
0010
0001
0100
0010
1000
0010
0100
0001
1000
0010
0100
0001
0100
,
0010
1000
0100
0010
0001
0100
0001
0010
0001
0000
0100
0000
0010
0000
1000
0000
,
0001
0010
0100
1000
0001
0100
0010
1000
,
1000
0100
0010
0001
0100
0010
1000
0100
,
0010
0001
0010
0100
1000
0001
0100
0010
,
0100
0001
0010
0100
1000
0100
0010
0001
,
0100
0100
0010
1000
0100
0010
0100
1000
,
0001
0001
0100
0010
1000
0100
0010
0001
,
0100
0100
0010
1000
0100
0010
0100
1000
,
0001
0001
0100
0100
1010
0000
0000
0000
,
0000
0000
2002
0000
,
0000
0000
0000
0000
,
0000
0000
0000
0000
,
0000
0000
3003
0000
0000
0000
0000
0000
1000
0001
0100
0010
1000
0001
0010
0100
,
1000
0100
0010
0001
0100
0001
1000
0010
0100
0001
1000
0100
0010
0100
1000
0001
,
0100
0010
1000
0001
0010
0100
1000
0001
0010
0001
1000
0100
0010
0100
1000
0001
,
0100
0010
1000
0010
0100
0010
1000
0010
1000
0000
0100
0000
1000
0000
0010
0000
,
0100
0000
0001
0000
0100
0000
0010
0000
1000
0100
0010
0001
0010
0100
1000
0001
,
0100
0010
0100
0001
0010
0100
1000
0001
0100
0010
1000
0100
0010
0100
1000
0001
,
0100
0010
1000
0100
0010
0100
1000
0001
0010
0100
1000
0001
0100
0010
0100
0001
,
0010
0100
1000
0100
0010
0001
0100
0010
1000
0000
0010
0000
1000
0000
0010
0000
,
1000
0000
0000
0000
1010
0000
0000
0000
0001
0100
0010
1000
0100
0010
0100
1000
,
0001
0100
0010
1000
0100
0010
0001
0010
0100
1000
0001
0100
0010
1000
0001
0010
,
0100
1000
0100
0010
0001
0100
0010
0100
0001
0010
0100
1000
0100
0010
0100
1000
,
0001
0100
0010
1000
0100
0010
0001
0100
0010
0000
1000
0000
0010
0000
1000
0000
,
0100
0000
0010
0000
0001
0000
0000
0000
1000
0001
0010
0100
1000
0100
0010
0001
,
0100
0010
0100
0001
0100
0010
1000
0100
0010
0001
0010
0100
1000
0001
0100
0010
,
1000
0100
0010
0100
1000
0010
0100
0001
1000
0100
0010
0100
1000
0001
0010
0100
,
1000
0100
0010
0100
0010
0100
1000
0100
0010
0000
0100
0000
1000
0000
0010
0000
,
0100
0000
0101
0000
0010
1000
0010
0400
,
0301
0400
0310
4000
3010
0400
0301
0400
,
0310
0000
0010
0000
0010
0000
1000
0001
0100
0000
0010
0000
1000
0000
0040
0000
,
0130
0000
0004
0000
0103
0000
0040
0000
1030
0000
0001
0000
0100
0010
0100
0010
,
0100
0000
0010
0000
1000
0000
0001
0000
0100
0010
1000
0100
0010
0100
1000
0001
,
0100
0000
0000
0010
0000
0000
1000
0000
0000
0100
0000
0000
0010
0000
0001
0000
0100
0000
0010
0000
0000
1000
0000
0000
0010
0000
0000
0100
0000
0000
0001
0000
0000
1000
0000
0000
0100
0000
0000
0010
0000
0000
0100
0000
0000
1000
0000
0000
,
0001
0100
0010
1000
0100
0010
0100
1000
0001
0100
0010
1000
0100
0010
0100
1000
,
0001
0000
0000
0100
0000
0000
0010
0000
0000
1000
0000
0000
0001
0000
0100
0000
0001
0000
1000
0000
0000
0010
0000
0000
0100
0000
0000
0001
0000
0000
1000
0000
0000
0100
0000
0000
0010
0000
0000
0100
0000
0000
1000
0000
0000
0001
0000
0000
,
0100
0010
1000
0010
0400
0000
0000
0000
0301
0000
0010
0000
0100
0000
4000
0000
,
3010
0400
0301
0400
0310
4000
3010
0400
,
0301
0000
1000
0000
0010
0000
0100
0001
0100
0000
0010
0000
1000
0000
0100
0000
,
0010
0000
0001
0000
0010
0000
0100
0000
1000
0000
0001
0000
0100
0010
1000
0010
,
0100
0000
0001
0000
0100
0000
0000
0000
0010
1000
0010
0100
0001
1000
0100
0010
,
0100
1000
0001
0100
0010
1000
0100
0010
0100
1000
0001
0100
0010
1000
0100
0010
,
0100
1000
0001
0100
0010
1000
0100
0010
0100
0000
0000
0000
0000
0000
0000
0000
,
0000
0000
0000
0000
0000
0000
0000
0000
1000
0100
0010
0100
1000
0001
0100
0010
,
1000
0000
0000
0100
0000
0000
0010
0000
0000
0100
0000
0000
1000
0000
0000
0010
0000
0000
0100
0000
0001
0000
0100
0000
0010
0000
0000
1000
0000
0000
0010
0000
0000
1000
0000
0000
0010
0000
0000
0000
0000
0000
0200
0000
0000
0000
0000
0000
,
0301
0100
0010
1000
0200
0000
0320
0000
0031
0010
0100
1000
0100
0010
0001
0010
,
0100
0000
0000
1000
0000
0000
0001
0000
0000
0100
0000
0000
0010
0000
0000
0100
0000
0000
0001
0000
0100
0000
0010
0000
0100
0000
0000
0010
0000
0000
1000
0000
0000
0100
0000
0000
0010
0000
0000
0001
0000
0000
0100
0000
0000
0010
0000
0000
,
1000
0000
0000
0100
0000
0000
0010
0000
0000
0001
0000
0000
1000
0000
0001
0000
1000
0000
0001
0000
1000
0000
0001
0000
1000
0000
0000
0100
0000
0000
0010
0000
0000
0100
0000
0000
1000
0000
0000
0001
0000
0000
0100
0000
0000
0010
0000
0000
,
1000
0000
0000
0100
0000
0000
0010
0000
0000
0100
0000
0000
1000
0000
0000
0001
0000
0000
0100
0000
0010
0000
1000
0000
0100
0000
0000
0010
0000
0000
0001
0000
0000
0100
0000
0000
0010
0000
0000
1000
0000
0000
0100
0000
0000
0000
0000
0000
,
0010
0001
0010
0001
0100
0000
0010
0000
1000
0010
0100
0001
1000
0100
0010
0100
,
1000
0000
0000
0001
0000
0000
0100
0000
0000
0010
0000
0000
1000
0000
0000
0010
0000
0000
0100
0000
0001
0000
0100
0000
0004
0000
0000
0000
0000
0000
0000
0000
0000
0000
0000
0000
0000
0000
0000
0000
0000
0000
0000
0000
0000
0000
0000
0000
,
0000
0000
0000
0000
0000
0000
0000
0000
1003
0100
0010
0001
0010
0100
1000
0001
,
0100
0000
0000
0010
0000
0000
1000
0000
0000
0100
0000
0000
0010
0000
0000
0001
0000
0000
0100
0000
0001
0000
0010
0000
0100
0000
0000
1000
0000
0000
0100
0000
0000
0010
0000
0000
0001
0000
0000
0100
0000
0000
0010
0000
0000
1000
0000
0000
,
0100
0010
0100
1000
0001
0100
0001
0100
0010
1000
0010
1000
0001
0010
0001
0010
,
0100
1000
0100
0010
0001
0100
0010
1000
0100
0000
0010
0000
0004
0000
0000
0000
,
0000
0000
0000
0000
0000
0000
0000
0000
0103
0010
1000
0100
0010
0100
1000
0001
,
0100
0000
0000
0010
0000
0000
1000
0000
0000
0100
0000
0000
0010
0000
0000
0001
0000
0000
1000
0000
0010
0000
1000
0000
0010
0000
0000
0100
0000
0000
0001
0000
0000
0100
0000
0000
0010
0000
0000
0000
0000
0000
1000
0000
0000
0100
0000
0000
,
0010
0000
0000
0001
0000
0000
0100
0000
0000
0010
0000
0000
1000
0000
0010
0000
1000
0000
0010
0000
1000
0000
0010
0000
1000
0000
0000
0001
0000
0000
0100
0000
0000
0010
0000
0000
1000
0000
0000
0100
0000
0000
0010
0000
0000
0100
0000
0000
,
1000
0000
0000
0001
0000
0000
0100
0000
0000
0010
0000
0000
1000
0000
0000
0010
0000
0000
1000
0000
0010
0000
1000
0000
0001
0000
0000
0100
0000
0000
0010
0000
0000
1000
0000
0000
0100
0000
0000
0000
0000
0000
0010
0000
0000
0001
0000
0000
,
0100
0010
1000
0100
0020
0000
0034
0000
0000
0000
0000
0000
0000
0000
0000
0000
,
0000
0000
0000
0003
0000
0000
0000
0000
,
0000
0000
1001
0000
;
