#TITLE:CCG Title Remix;
#SUBTITLE:Steps by StepmaniaFreak;
#ARTIST:Bill Brown;
#TITLETRANSLIT:;
#SUBTITLETRANSLIT:;
#ARTISTTRANSLIT:;
#CREDIT:;
#BANNER:CCG Title Remix_bn.png;
#BACKGROUND:CCG Title Remix_bg.png;
#LYRICSPATH:;
#CDTITLE:!StepmaniaFreak Title.png;
#MUSIC:CCG Title Remix.mp3;
#OFFSET:-1.080;
#SAMPLESTART:19.600;
#SAMPLELENGTH:13.000;
#SELECTABLE:YES;
#BPMS:0.000=45.000,2.000=90.000,6.000=45.000,8.000=90.000,12.000=45.000,14.000=90.000;
#STOPS:;
#BGCHANGES:;
// cache tags:
#FIRSTBEAT:0.000;
#LASTBEAT:115.750;
#SONGFILENAME:Songs/StepmaniaFreak's Favorites/CCG Title Remix/CCG Title Remix.sm;
#HASMUSIC:1;
#HASBANNER:1;
#MUSICLENGTH:86.630;
// end cache tags

//---------------dance-single - ----------------
#NOTES:
     dance-single:
     :
     Challenge:
     12:
     0.955,0.818,1.000,0.208,1.000,380.000,156.000,18.000,0.000,25.000:
1001
0000
0000
0000
0000
0000
0000
0000
0000
0000
0000
0000
0001
0000
0000
0000
0000
0000
0000
0000
0000
0000
0000
0000
0102
0000
0000
0000
0000
0000
0000
0000
0000
0000
0000
0000
0003
0000
0000
0000
0000
0000
0020
0000
0000
0000
0000
0000
0000
0000
0000
0000
0000
0000
0030
0000
0000
0000
0000
0000
2000
0000
0000
0000
0000
0000
0000
0000
0000
0000
0000
0000
3000
0000
0000
0000
0000
0000
0000
0000
0002
0000
0000
0000
0000
0000
0000
0000
0000
0000
0000
0000
0003
0000
0000
0000
1000
0000
0000
0000
0000
0000
0000
0000
0000
0000
0000
0000
0001
0000
0000
0000
0000
0000
0000
0000
0000
0000
0000
0000
0100
0000
0000
0000
0000
0000
0000
0000
0000
0000
0000
0000
0010
0000
0000
0000
0000
0000
0000
0000
0000
0000
0000
0000
1000
0000
0000
0000
0000
0000
0000
0000
0000
0000
0000
0000
0000
0000
0000
0000
0000
0000
0000
0000
0000
0000
0000
0000
1000
0000
0000
0000
0000
0000
0000
0000
0000
0000
0000
0000
0001
0000
0000
0000
0000
0000
0000
0000
0000
0000
0000
0000
,
0000
0000
0000
0000
0000
0000
0000
0000
0000
0000
0000
0000
1000
0000
0000
0000
0000
0000
0000
0000
0000
0000
0000
0000
0001
0000
0000
0000
0000
0000
0000
0000
0000
0000
0000
0000
0100
0000
0000
0000
0000
0000
0000
0000
0000
0000
0000
0000
0010
0000
0000
0000
0000
0000
0000
0000
0000
0000
0000
0000
1000
0000
0000
0000
0000
0000
0000
0000
0000
0000
0000
0000
0000
0000
0000
0000
0000
0000
0000
0000
0000
0000
0000
0000
0000
0000
0000
0000
0000
0000
0000
0000
0000
0000
0000
0000
1010
0000
0000
0000
0000
0000
0000
0000
0000
0000
0000
0000
1000
0000
0000
0000
0000
0000
0000
0000
0000
0000
0000
0000
1002
0000
0000
0000
0000
0000
0000
0000
0000
0000
0000
0000
0003
0000
0000
0000
0000
0000
0200
0000
0000
0000
0000
0000
0000
0000
0000
0000
0000
0000
0300
0000
0000
0000
0000
0000
0020
0000
0000
0000
0000
0000
0000
0000
0000
0000
0000
0000
0030
0000
0000
0000
0000
0000
0000
0000
2000
0000
0000
0000
0000
0000
0000
0000
0000
0000
0000
0000
3000
0000
0000
0000
,
0010
0100
1000
0100
0010
0000
0010
1000
0100
0010
0100
0000
1000
0100
0010
0001
,
1001
0000
0000
0000
0000
0000
0000
0000
0000
0000
0000
0000
0001
0000
0000
0000
0000
0000
0000
0000
0000
0000
0000
0000
0201
0000
0000
0000
0000
0000
0000
0000
0000
0000
0000
0000
0300
0000
0000
0000
0000
0000
0020
0000
0000
0000
0000
0000
0000
0000
0000
0000
0000
0000
0030
0000
0000
0000
0000
0000
2000
0000
0000
0000
0000
0000
0000
0000
0000
0000
0000
0000
3000
0000
0000
0000
0000
0000
0000
0000
0002
0000
0000
0000
0000
0000
0000
0000
0000
0000
0000
0000
0003
0000
0000
0000
1100
0000
0000
0000
0000
0000
0000
0000
0000
0000
0000
0000
1100
0000
0000
0000
0000
0000
0000
0000
0000
0000
0000
0000
0010
0000
0000
0000
0000
0000
0000
0000
0000
0000
0000
0000
0100
0000
0000
0000
0000
0000
0000
0000
0000
0000
0000
0000
1010
0000
0000
0000
0000
0000
0000
0000
0000
0000
0000
0000
1000
0000
0000
0000
0000
0000
0000
0000
0000
0000
0000
0000
0001
0000
0000
0000
0000
0000
0000
0000
0000
0000
0000
0000
0101
0000
0000
0000
0000
0000
0000
0000
0000
0000
0000
0000
,
0010
1010
0100
1100
0101
1010
0101
1000
0101
0001
1000
0101
1010
0001
0110
1001
,
0100
0011
1000
0110
1001
0101
1010
0001
1001
1000
0001
0100
1011
0000
0100
0010
,
0000
0100
1011
0100
0010
0010
1101
0000
0101
0010
0001
0010
1110
0000
1000
0001
,
0000
1000
0111
1000
0011
1000
0111
1000
1100
0010
0100
0001
1110
0000
0001
1000
,
0000
0001
1110
1000
0010
0100
1011
0000
1000
0010
0100
0010
1101
0000
1000
0010
,
0000
0001
1110
0001
1100
0010
1000
0001
1110
0001
0100
0010
1101
0000
1001
0101
,
0000
0101
1001
0000
1010
0110
0000
1100
0010
0100
0010
1000
0011
0000
0011
1000
,
0100
1100
0010
0100
1100
0000
1100
0000
1010
0001
0100
0010
1100
0000
1001
0101
,
0000
0101
0110
0000
0110
1010
0000
0010
1010
0100
1000
0100
0011
0000
1100
0010
,
0000
0110
1000
0100
0110
0000
0110
0000
1001
0100
0010
0100
1001
0000
1001
1100
,
0000
1001
1010
0000
1001
0010
1100
0000
1001
0010
0101
0010
1100
0000
1100
0110
,
0001
1100
0110
0001
1100
0011
1000
0000
0101
0010
1000
0010
0101
0000
0101
1001
,
0000
0101
1100
0000
0101
0010
1100
0000
1010
0100
1010
0001
1100
0000
0011
0110
,
1000
0011
0110
1000
0011
1100
0001
0000
1010
0010
1000
0100
0021
0000
0030
0002
,
0003
0000
2000
0000
3000
0020
0000
0030
0101
0101
1000
0001
1100
0100
0010
0011
,
1000
1100
0001
0101
0011
1100
0011
0100
0011
0010
0100
0011
1100
0010
1001
0110
,
0001
1010
0100
1001
0110
0011
1100
0010
0110
0100
0010
0001
1110
0000
0001
1000
,
0000
0001
1110
0001
1000
1000
0111
0000
0011
1000
0010
1000
1101
0000
0100
0010
,
0000
0100
1011
0100
1010
0100
1011
0100
0101
1000
0001
0010
1101
0000
0010
0100
,
0000
0010
1101
0100
1000
0001
1110
0000
0100
1000
0001
1000
0111
0000
0100
1000
,
0000
0010
1101
0010
0101
1000
0100
0010
1101
1000
0001
0100
0011
0000
1000
0010
,
0000
0010
0100
0010
0001
1000
0000
1000
0100
0010
0001
0010
1100
0000
0100
1000
,
0000
1010
0100
0001
1010
0000
1100
0000
0011
1000
0100
0010
1001
0000
0001
1000
,
0000
1000
0001
1000
0011
0100
0000
0100
0001
1000
0010
1000
0101
0000
0001
0100
,
0000
0011
0100
0001
1100
0000
0011
0000
1001
0100
1010
0100
2002
0000
0000
3003
;
