#TITLE:I don't Know Hardcore;
#SUBTITLE:;
#ARTIST:Kobaryo;
#TITLETRANSLIT:;
#SUBTITLETRANSLIT:;
#ARTISTTRANSLIT:;
#CREDIT:owenviau1;
#BANNER:../Banner.png;
#BACKGROUND:../BG.png;
#LYRICSPATH:;
#CDTITLE:../CDTitleBRAEDEN.png;
#MUSIC:Kobaryo - I don't know Hardcore.ogg;
#OFFSET:-0.541;
#SAMPLESTART:124.969;
#SAMPLELENGTH:29.999;
#SELECTABLE:YES;
#DISPLAYBPM:208.000;
#BPMS:0.000=104.157,36.000=416.626,64.000=208.313,66.000=416.626,124.000=208.313,126.000=416.626,492.000=208.313,526.000=416.626,654.000=208.313,878.000=104.157,905.000=416.626;
#STOPS:;
#BGCHANGES:;
// cache tags:
#FIRSTBEAT:0.000;
#LASTBEAT:1032.000;
#SONGFILENAME:Songs/Index Tesseract/I don't know Hardcore - [Braeden]/I don't Know Hardcore.sm;
#HASMUSIC:1;
#HASBANNER:1;
#MUSICLENGTH:216.058;
// end cache tags

//---------------dance-single - ----------------
#NOTES:
     dance-single:
     :
     Challenge:
     50:
     1.000,1.000,0.296,0.065,1.000,3274.000,64.000,14.000,45.000,2.000:
1001
0000
0000
0010
0000
0000
0100
0000
1001
0000
0000
0010
0000
0000
0100
0000
,
1001
0000
0000
0010
0000
0000
0100
0000
0011
0000
0000
1000
0000
0000
0010
0000
,
1001
0000
0000
0010
0000
0000
1000
0000
0101
0000
0000
0010
0000
0000
0100
0000
,
1001
0000
0000
0000
0000
0000
0010
0000
1000
0000
0000
1000
0000
0000
1000
0000
,
0101
0000
0000
0010
0000
0000
1000
0000
1001
0000
0000
0010
0000
0000
0100
0000
,
0101
0000
0000
0010
0000
0000
1000
0000
0101
0000
0000
0010
0000
0000
1000
0000
,
1001
0000
0000
0010
0000
0000
0100
0000
1001
0000
0000
0010
0000
0000
0100
0000
,
1001
0000
1001
0000
,
0000
0000
0000
0000
,
1000
0100
0010
0100
1000
0001
0100
0010
0100
0001
1000
0100
0010
0100
1000
0001
,
0010
0100
1000
0001
0100
0010
1000
0100
0010
0100
1000
0001
0010
0100
1000
0001
,
0100
0010
1000
0100
0010
0100
1000
0001
0100
0010
1000
0100
0010
0100
1000
0001
,
0010
0100
1000
0001
0100
0010
1000
0100
0010
0100
1000
0001
0010
0100
1000
0001
,
0100
0010
1000
0100
0010
0100
1000
0001
0010
0100
1000
0001
0100
0010
1000
0100
,
0010
0100
1000
0001
0010
0100
1000
0001
0100
0010
0100
0001
1000
0100
0010
0100
,
1000
0001
0010
0100
1000
0001
0100
0010
1000
0100
0010
0100
1000
0010
0100
0010
,
0100
0010
1000
0001
0100
0010
1000
0001
1000
0010
0100
0001
0100
0010
1000
0100
,
0010
0100
1000
0001
0010
0100
1000
0001
0100
0010
0100
0001
1000
0100
0010
0100
,
1000
0001
0100
0010
0100
0001
1000
0100
0010
0100
1000
0001
0010
0100
1000
0001
,
0100
0010
0100
0001
1000
0100
0010
0100
1000
0001
0100
0010
1000
0001
0100
0010
,
1000
0100
0010
0100
1000
0001
0010
0100
1000
0001
0100
0010
0100
0001
1000
0100
,
0010
0100
1000
0001
0100
0010
1000
0100
0010
0100
1000
0001
0100
0010
1000
0100
,
0010
0001
0010
0100
1000
0001
0100
0010
0100
0001
1000
0100
0010
0100
1000
0001
,
0100
0010
1000
0001
0100
0010
1000
0001
0100
0010
1000
0001
0010
0100
1000
0010
,
0100
0001
1000
0100
0010
0100
1000
0001
0100
0010
1000
0100
0010
0100
1000
0001
,
0010
0100
1000
0001
0100
0010
1000
0100
0010
0100
1000
0001
0100
0010
1000
0001
,
0100
0010
1000
0001
0010
0001
1000
0000
0010
0100
1000
0001
0010
0100
1000
0001
,
0100
0010
1000
0001
0100
0010
1000
0100
0010
0100
1000
0001
0100
0010
0100
0001
,
1000
0100
0010
0100
1000
0001
0100
0010
0100
0001
0010
0001
1000
0100
0010
0100
,
1000
0001
0100
0010
0100
0001
1000
0100
0010
0100
1000
0001
0010
0100
1000
0001
,
0100
0010
1000
0100
0010
0100
1000
0001
0100
0010
1000
0100
0010
0100
1000
0001
,
0100
0010
1000
0100
0010
0100
1000
0001
0100
0001
0010
0100
1000
0001
0100
0010
,
0100
0001
1000
0001
0010
0100
0010
0001
0100
0010
1000
0001
0010
0100
1000
0001
,
0100
0010
1000
0001
0100
0010
1000
0100
0010
0100
1000
0001
0010
0100
1000
0001
,
0100
0010
0100
0001
1000
0100
0010
0100
1000
0001
0100
0010
0100
0001
1000
0100
,
0010
0100
1000
0001
0010
0100
1000
0001
0100
0010
0100
0001
1000
0100
0010
0100
,
1000
0001
0010
0100
1000
0100
0010
0001
1000
0010
0100
0001
1000
0100
0010
0100
,
1000
0001
0100
0010
1000
0001
0010
0100
1000
0001
0100
0010
0100
0001
1000
0100
,
0010
0100
1000
0001
0010
0100
1000
0001
0100
0010
1000
0100
0010
0001
0100
0010
,
1000
0100
0010
0100
1000
0001
0100
0010
0100
0001
1000
0100
0010
0100
1000
0001
,
1000
0010
0100
0001
0100
0000
0010
0000
1000
0000
0001
0000
0100
0010
1000
0001
,
0010
0100
1000
0001
0100
0010
1000
0100
0010
0001
0100
0010
1000
0001
1000
0010
,
0400
0000
0000
0000
0301
0000
0100
0000
0001
0000
1000
0000
0010
0100
0001
1000
,
0100
0010
0100
1000
0001
0100
0010
1000
0100
0010
0001
0010
0100
1000
0001
0100
,
0010
1000
0100
0010
0001
0000
1000
0000
0010
0000
0100
0000
0001
0100
0010
0100
,
0001
0010
0100
1000
0001
0100
0010
1000
0100
0010
0100
1000
0001
0100
0010
1000
,
0100
0010
0100
1000
0001
0000
0100
0000
0010
0000
1000
0000
0001
0100
0010
1000
,
0001
0010
0100
1000
0001
0100
0010
0100
0001
1000
0100
0010
0100
0010
0100
1000
,
0001
0100
0010
1000
0100
0000
0010
0000
0100
0000
1000
0000
0001
0000
0100
0000
,
0010
1000
0100
0010
0100
1000
0001
0100
,
0010
0100
0001
1000
0100
0010
0100
1000
,
0001
0100
0010
0100
0001
1000
0010
0100
,
0001
0010
0100
1000
0001
0100
0010
0100
0001
1000
0100
0010
0100
1000
0001
0100
,
0010
1000
0100
0010
0100
1000
0001
0010
0100
1000
0001
0100
0010
1000
0001
0100
,
0010
1000
0100
0010
0100
1000
0001
0010
0100
1000
0001
0100
0010
0100
0001
1000
,
0100
0010
0100
1000
0001
0100
0010
1000
0100
0010
0100
1000
0010
0100
0010
1000
,
0200
0000
0000
0000
,
0300
0000
0000
0000
,
1001
0001
0100
0010
1000
0100
0010
0100
,
1000
0010
0100
0001
1001
0000
0000
0000
,
1000
0100
0010
0100
1000
0001
0100
0010
1000
0100
0010
0100
1000
0001
0010
0100
,
1000
0001
0010
0001
1000
0010
0100
0001
1000
0100
0010
0100
1000
0001
0010
0100
,
1000
0001
0100
0010
1000
0001
0010
0100
1000
0001
0100
0010
1000
0001
0010
0001
,
0000
0000
0000
0000
,
1000
0100
0010
0100
1000
0001
0100
0010
1000
0100
0010
0100
1000
0001
0010
0100
,
1000
0001
0100
0010
1000
0100
0010
0100
1000
0001
0010
0100
1000
0001
0100
0010
,
1000
0010
0100
0001
1000
0100
0010
0100
1000
0001
0010
0100
1000
0001
0100
0010
,
1000
0000
0000
0000
,
0001
0010
0100
1000
0001
0100
0010
1000
0100
0010
0100
1000
0001
0010
0100
1000
,
0001
0100
0010
1000
0100
0010
0001
1000
0100
0000
0001
0010
0100
1000
0001
0010
,
0001
1000
0100
0010
0100
1000
0001
0010
0100
1000
0001
0100
0010
1000
0100
0010
,
0001
0000
0000
0000
,
1000
0100
0010
0100
1000
0001
0100
0010
1000
0100
0010
0100
1000
0001
0010
0100
,
1000
0001
0100
0010
1000
0100
0010
0100
1000
0001
0100
0010
1000
0100
0010
0100
,
1000
0000
0000
0000
,
0000
0000
0000
0000
,
1000
0100
0010
0001
1000
0100
0010
0001
1000
0100
0010
0001
1000
0100
0010
0001
,
1000
0100
0010
0001
1000
0100
0010
0001
1000
0100
0010
0001
1000
0100
0010
0001
,
1000
0100
0010
0001
1000
0100
0010
0001
1000
0100
0010
0001
1000
0100
0010
0001
,
1000
0100
0010
0001
1000
0100
0010
0001
1000
0100
0010
0001
1000
0100
0010
0001
,
1000
0100
0010
0001
1000
0100
0010
0001
1000
0100
0010
0001
1000
0100
0010
0001
,
1000
0100
0010
0001
1000
0100
0010
0001
1000
0100
0010
0001
1000
0100
0010
0001
,
1000
0100
0010
0001
1000
0100
0010
0001
1000
0100
0010
0001
1000
0100
0010
0001
,
1000
0100
0010
0001
1000
0100
0010
0001
1000
0100
0010
0001
1000
0100
0010
0001
,
1000
0100
0010
0001
1000
0100
0010
0001
1000
0100
0010
0001
1000
0100
0010
0001
,
1000
0100
0010
0001
1000
0100
0010
0001
1000
0100
0010
0001
1000
0100
0010
0001
,
1000
0100
0010
0001
1000
0100
0010
0001
1000
0100
0010
0001
1000
0100
0010
0001
,
1000
0100
0010
0001
1000
0100
0010
0001
1000
0100
0010
0001
1000
0100
0010
0001
,
1000
0100
0010
0001
1000
0100
0010
0001
1000
0100
0010
0001
1000
0100
0010
0001
,
1000
0100
0010
0001
1000
0100
0010
0001
1000
0100
0010
0001
1000
0100
0010
0001
,
1000
0100
0010
0001
1000
0100
0010
0001
1000
0100
0010
0001
1000
0100
0010
0001
,
1000
0000
0110
0110
,
0001
0010
0100
1000
0001
0010
0100
1000
0001
0010
0100
1000
0001
0010
0100
1000
,
0001
0010
0100
1000
0001
0010
0100
1000
0001
0010
0100
1000
0001
0010
0100
1000
,
0001
0010
0100
1000
0001
0010
0100
1000
0001
0010
0100
1000
0001
0010
0100
1000
,
0001
0010
0100
1000
0001
0010
0100
1000
0001
0010
0100
1000
0001
0010
0100
1000
,
0001
0010
0100
1000
0001
0010
0100
1000
0001
0010
0100
1000
0001
0010
0100
1000
,
0001
0010
0100
1000
0001
0010
0100
1000
0001
0010
0100
1000
0001
0010
0100
1000
,
0001
0010
0100
1000
0001
0010
0100
1000
0001
0010
0100
1000
0001
0010
0100
1000
,
0001
0000
1000
0000
0010
0100
0010
0000
,
1000
0010
0100
0001
1000
0010
0100
0001
1000
0010
0100
0001
1000
0010
0100
0001
,
1000
0010
0100
0001
1000
0010
0100
0001
1000
0010
0100
0001
1000
0010
0100
0001
,
1000
0010
0100
0001
1000
0010
0100
0001
1000
0010
0100
0001
1000
0010
0100
0001
,
1000
0010
0100
0001
1000
0010
0100
0001
1000
0010
0100
0001
1000
0010
0100
0001
,
1000
0010
0100
0001
1000
0010
0100
0001
1000
0010
0100
0001
1000
0010
0100
0001
,
1000
0010
0100
0001
1000
0010
0100
0001
1000
0010
0100
0001
1000
0010
0100
0001
,
1000
0010
0100
0001
1000
0010
0100
0001
1000
0010
0100
0001
1000
0010
0100
0001
,
1010
0000
0110
0110
,
2002
0000
0000
0000
,
0000
0000
0000
0000
,
0000
0000
0000
0000
,
3003
M000
0M00
00M0
,
000M
00M0
0M00
M000
,
000M
0M00
00M0
0M00
,
000M
M000
0M00
00M0
,
0M00
M000
000M
0M00
,
00M0
0M00
000M
M000
,
00M0
0M00
000M
M000
,
0M00
00M0
0M00
M000
,
000M
0M00
00M0
0M00
,
000M
M000
0M00
00M0
,
0M00
M000
000M
0M00
,
00M0
0M00
0000
0000
,
1001
0000
0000
0000
1001
0000
1001
0000
1000
0000
0010
0000
0100
0000
0001
0010
,
0100
1000
0001
0000
1000
0000
0100
0010
0100
0000
1000
0000
0001
0000
0100
0010
,
1000
0001
0010
0100
1000
0010
0100
0001
1000
0000
1000
0000
0010
0000
0100
0001
,
0100
0010
1000
0001
0010
0000
0100
1000
0001
0000
0001
0000
1001
0000
1000
0010
,
0100
0001
1000
0100
0010
0000
0001
0100
0010
1000
0001
0010
0100
1000
0001
0100
,
0010
1000
0100
0010
0100
1000
0001
0100
0010
0100
0001
1000
0100
0010
0100
1000
,
0001
0100
0010
1000
0001
0010
0100
1000
0010
0100
0001
1000
0100
0010
0100
1000
,
0001
0010
0100
1000
0001
0100
0010
0100
0001
1000
0100
0010
0100
1000
0001
0100
,
1001
0000
0000
0000
0110
0000
0110
0000
1000
0010
0100
0001
1000
0100
0010
0100
,
1000
0001
0100
0010
0100
0001
1000
0100
0010
0100
1000
0001
0100
0010
1000
0100
,
0010
0100
1000
0001
0010
0100
1000
0001
0010
0001
1000
0100
0010
0001
1000
0100
,
1000
0001
0010
0100
1000
0001
0010
0001
0100
0010
0100
0001
0010
0100
1000
0001
,
0100
0010
1000
0100
0010
0100
1000
0001
0100
0010
1000
0100
0010
0100
1000
0001
,
0010
0100
1000
0001
0100
0010
1000
0100
0010
0100
1000
0001
0010
0100
1000
0001
,
0100
0010
0100
0001
1000
0010
0100
0001
1000
0100
0010
0100
1000
0001
0010
0100
,
1000
0001
0100
0010
1000
0100
0010
0100
1000
0001
0010
0100
1000
0001
0100
0010
,
1000
0100
0010
0100
1000
0001
0010
0100
1000
0001
0010
0001
1000
0100
0010
0100
,
1000
0001
0010
0100
1000
0001
0100
0010
1000
0100
0010
0100
1000
0001
0010
0100
,
1000
0001
0100
0010
1000
0001
0100
0010
1000
0010
1000
0001
1000
0010
0100
0001
,
1000
0001
0010
0100
1000
0001
0100
0010
1000
0100
0010
0100
1000
0001
0010
0100
,
1000
0001
0100
0010
1000
0100
0010
0100
1000
0001
0010
0100
1000
0001
0100
0010
,
1000
0100
0010
0100
1000
0001
0010
0100
1000
0001
0100
0010
0100
0001
1000
0100
,
0010
0100
1000
0001
0010
0100
1000
0001
0100
0010
0100
0001
0010
0100
1000
0001
,
0100
0010
0100
0001
1000
0100
0010
0100
1000
0001
0010
0100
1000
0001
0100
0010
,
0100
0001
0010
0100
1000
0001
0100
0010
0100
0001
1000
0100
0010
0100
1000
0001
,
0010
0100
1000
0001
0100
0010
0100
0001
1000
0100
0010
0100
1000
0001
0010
0100
,
1000
0001
0100
0010
1000
0100
0010
0100
1000
0001
0010
0100
1000
0001
0100
0010
,
0100
0001
1000
0100
0010
0001
1000
0001
0010
0100
1000
0001
0100
0010
1000
0100
,
0010
0001
1000
0001
0010
0100
1000
0001
0010
0100
1000
0001
0100
0010
0100
0001
,
1000
0100
0010
0100
1000
0001
0010
0100
1000
0001
0100
0010
0100
0001
1000
0100
,
0010
0100
1000
0001
0010
0100
1000
0001
0100
0010
0100
0001
1000
0100
0010
0100
,
1000
0001
0010
0100
1000
0001
0100
0010
0100
0001
1000
0100
0010
0100
1000
0001
,
0010
0100
1000
0001
0100
0010
1000
0100
0010
0100
1000
0001
0010
0100
1000
0001
,
0010
0100
1000
0001
0100
0010
1000
0100
0010
0100
1000
0001
0010
0100
1000
0001
,
0100
0010
1000
0001
0100
0010
1000
0100
0010
0100
1000
0001
0010
0100
1000
0001
,
0100
0010
1000
0100
0010
0001
0010
0100
1000
0001
0100
0010
1000
0100
0010
0100
,
1000
0001
0010
0100
1000
0001
0100
0010
1000
0100
0010
0100
1000
0001
0010
0100
,
1000
0001
0100
0010
1000
0100
0010
0001
0010
0100
1000
0001
0100
0010
1000
0100
,
0010
0000
1000
0001
0010
0100
1000
0001
0100
0010
1000
0010
0100
0001
1000
0010
,
0100
0001
1000
0100
0010
0001
1000
0001
0010
0100
1000
0001
0010
0100
1000
0001
,
0100
0010
1000
0100
0010
0100
1000
0001
1000
0000
0010
0000
0100
0000
0001
0010
,
0100
1000
0001
0100
0010
0000
1000
0010
0100
0000
0001
0000
0100
0000
0010
1000
,
0001
0010
0001
1000
0001
0100
0010
1000
0100
0000
0010
0000
1001
0000
0100
0010
,
1000
0001
0010
0100
1000
0000
0001
0100
0010
0000
1000
0000
1001
0000
0010
0100
,
0001
1000
0100
0010
0100
1000
0001
0100
0010
0000
1000
0000
0100
0000
0010
0100
,
1000
0001
0100
0010
1000
0000
0001
0100
0020
0000
2030
0000
3010
0000
0100
0001
,
0100
0010
1000
0100
0010
0001
0000
1000
0010
0000
0100
0000
1001
0000
0010
0100
,
0001
1000
0100
0010
0001
0000
0000
0000
1000
0000
0000
0000
1010
0000
0000
0000
,
1110
0000
0000
0000
1111
0000
0000
0000
0001
0100
0010
1000
0001
0010
0100
1000
,
0001
0100
0010
0100
0001
1000
0100
0010
0100
1000
0001
0010
0100
1000
0001
0100
,
0010
1000
0100
0010
0100
1000
0001
0100
0010
1000
0001
0010
0100
1000
0001
0100
,
0010
0100
0001
1000
0100
0010
0100
1000
0001
0010
0100
1000
0001
0100
0010
0100
,
0001
1000
0100
0010
0100
1000
0001
0010
0100
1000
0001
0100
0010
0100
0001
1000
,
0100
0010
0100
1000
0001
0010
0100
1000
0001
0100
0010
0100
0001
0010
0100
1000
,
0001
0100
0010
0100
0001
0010
0100
1000
0001
0100
0010
0100
0001
1000
0100
0010
,
0100
1000
0001
0010
0100
1000
0001
0100
0010
0100
0001
1000
0100
0010
0100
1000
,
0001
0010
0100
1000
0001
0100
0010
0100
0001
1000
0100
0010
0100
1000
0001
0010
,
0100
1000
0001
0100
0010
0100
0001
1000
0100
0010
0100
1000
0001
0010
0100
1000
,
0001
0100
0010
0100
0001
1000
0100
0010
0100
1000
0001
0100
0010
1000
0100
0010
,
0001
0100
0010
1000
0001
0010
0100
1000
0001
0100
0010
0100
0001
1000
0100
0010
,
0100
1000
0001
0100
0010
1000
0001
0010
0100
1000
0001
0100
0010
1000
0100
0010
,
0100
1000
0001
0010
0100
1000
0001
0100
0010
0100
0001
1000
0100
0010
0100
1000
,
0001
0010
0100
1000
0001
0100
0010
0100
0001
1000
0100
0010
0100
1000
0001
0100
,
0010
0100
0001
1000
0100
0010
0001
1000
0001
0000
0010
0000
0010
0000
0010
0000
,
0100
0000
1000
0000
0001
0000
0100
0000
0010
0000
1000
0000
0001
0100
0010
1000
,
0000
0000
0001
0000
1001
0000
0010
0000
0100
0000
1000
0000
0001
0100
0010
1000
,
0000
0000
0010
0000
0110
0000
0100
0000
0010
0000
1000
0000
0010
0100
0010
0100
,
0000
0000
0010
0000
1010
0000
1000
0000
0001
0000
0100
0010
0000
1000
0001
0000
,
1000
0000
0010
0000
0110
0000
0100
0000
0001
0000
0100
0000
0010
1000
0010
0100
,
0000
0000
0001
0000
1010
0000
0001
0000
0100
0000
0010
0000
1000
0001
0010
0100
,
0000
0000
0010
0000
1100
0000
0010
0000
0100
0000
1000
0000
1001
0010
0100
0010
,
0000
0000
0100
0000
1001
0000
0010
0000
1000
0000
0100
0010
0000
0001
0010
0000
,
0100
0000
1000
0000
0010
0000
0100
0000
1001
0010
0100
0001
1000
0100
0010
0002
,
0000
0000
0100
0000
0100
0000
0100
0000
0103
0000
0010
0000
1000
0100
0010
0002
,
0000
0000
0100
0000
0100
0000
0100
0000
0103
0000
0010
0000
1010
0100
0001
0100
,
0000
0000
0010
0000
1001
0000
0100
0000
0010
0000
1000
0100
0000
0010
0001
0000
,
1000
0010
0100
0000
1001
0000
0000
0000
0001
0000
1000
0000
0001
0010
0100
0020
,
0000
0000
0031
0000
0100
0000
0010
0000
1001
0000
0010
0000
1000
0100
0010
0002
,
0000
0000
0103
0000
0010
0000
1000
0000
0001
0000
1000
0000
0100
0010
0001
1000
,
0000
0000
0010
0000
1001
0000
0100
0000
0010
0000
1000
0100
0000
0010
0001
0000
,
1000
0000
0010
0000
1001
0000
0000
0000
0001
0100
0010
1000
0100
0010
0100
1000
,
0001
0010
0100
1000
0001
0100
0010
0100
0001
1000
0100
0010
0100
1000
0001
0100
,
0010
1000
0001
1000
0010
0100
0001
1000
0100
0010
0100
1000
0001
0010
0100
1000
,
0001
0100
0010
0100
0001
1000
0100
0010
0100
1000
0001
0010
0100
1000
0001
0100
,
0010
0100
0001
1000
0100
0010
0100
1000
0001
0010
0100
1000
0001
0100
0010
0100
,
0010
1000
0100
0010
0100
1000
0001
0010
0100
1000
0001
0100
0010
0100
0001
1000
,
0100
0010
0100
1000
0001
0010
0100
1000
0001
0100
0010
0100
0001
1000
0100
0010
,
0001
0100
0010
0100
0001
0010
0100
0010
0001
0100
0010
0100
0001
0100
0010
0100
,
0001
0010
0100
1000
0001
1000
0100
0010
0100
1000
0001
0010
0100
0010
0001
0010
,
0100
1000
0001
0100
0010
1000
0100
0010
0001
0010
0100
1000
0001
0100
0010
0100
,
0001
1000
0100
0010
0100
1000
0001
0010
0100
1000
0001
0100
0010
0100
0001
1000
,
0100
0010
0100
1000
0001
0010
0100
1000
0001
0100
0010
0100
0001
0010
0100
1000
,
0001
0100
0010
0100
0001
0010
0100
1000
0001
0100
0010
0100
0001
0010
0100
1000
,
0001
0100
0010
0100
0001
1000
0100
0010
0100
1000
0001
0010
0100
1000
0001
0010
,
0100
1000
0010
0100
0010
0100
0001
1000
0100
0010
0100
1000
0001
0010
0100
1000
,
0001
0100
0010
0100
0001
1000
0100
0010
0100
1000
0001
0010
0100
1000
0001
0100
,
0010
0100
0001
1000
0100
0010
0001
0000
1001
0000
0000
0010
0000
0000
0100
0000
,
0011
0000
0000
1000
0000
0000
0010
0000
1001
0000
0000
0010
0000
0000
0100
0000
,
0011
0000
0000
1000
0000
0000
0010
0000
1001
0000
0000
0010
0000
0000
0100
0000
,
0011
0000
0000
0100
0000
0000
0010
0000
1001
0000
0000
0000
0000
0000
0000
0000
,
0000
0000
0000
0000
0000
0000
0000
0000
2001
0000
0000
0010
0000
0000
3001
0000
,
0102
0000
0000
1000
0000
0000
0013
0000
2010
0000
0000
0100
0000
0000
3010
0000
,
0102
0000
0000
0010
0000
0000
1003
0000
0210
0000
0000
0010
0000
0000
0301
0000
,
1000
0000
0000
0001
0000
0000
0000
0000
0000
0000
0000
0000
1000
0001
0100
0010
,
1000
0001
0010
0100
1000
0001
0100
0010
1000
0100
0010
0100
1000
0001
0010
0100
,
1000
0001
0100
0010
0100
0001
1000
0100
0010
0100
1000
0001
0010
0100
1000
0001
,
0100
0010
0100
0001
1000
0100
0010
0100
1000
0001
0010
0100
1000
0001
0100
0010
,
0100
0001
1000
0100
0010
0100
1000
0001
0010
0100
1000
0001
0100
0010
1000
0100
,
0010
0100
1000
0001
0010
0100
1000
0001
0100
0010
0100
0001
1000
0100
0010
0100
,
1000
0001
0010
0100
1000
0001
0100
0010
1000
0001
0100
0010
1000
0100
0010
0000
,
1000
0001
0010
0100
1000
0001
0100
0010
0100
0001
1000
0100
0010
0100
1000
0001
,
0010
0100
1000
0001
0100
0010
0100
0001
1000
0100
0010
0100
1000
0001
0100
0010
,
1000
0001
0010
0100
1000
0001
0100
0010
0100
0001
1000
0100
0010
0100
1000
0001
,
0010
0100
1000
0001
0100
0010
0100
0001
1000
0100
0010
0100
1000
0001
0010
0100
,
1000
0001
0100
0010
0100
0001
0010
0100
1000
0001
0100
0010
0100
0001
1000
0100
,
0010
0100
1000
0001
0010
0100
1000
0001
0100
0010
0100
0001
0010
0100
1000
0001
,
0100
0010
0100
0001
1000
0100
0010
0100
1000
0001
0010
0100
1000
0001
0100
0010
,
0100
0001
1000
0100
0010
0001
0010
0100
1000
0001
0100
0010
0100
0001
0010
0100
,
1000
0001
0100
0010
0100
0001
1000
0100
0010
0100
0010
0100
1000
0001
0100
0010
,
1000
0000
0000
0000
,
0001
0010
0100
1000
0010
0100
0001
1000
0100
0010
0100
1000
0001
0010
0100
1000
,
0001
0100
0010
1000
0100
0010
0100
1000
0001
0010
0100
1000
0001
0100
0010
1000
,
0100
0010
0100
1000
0001
0010
0100
1000
0001
0100
0010
1000
0100
0010
0100
1000
,
0001
0010
0100
1000
0001
0100
0010
1000
0100
0010
0100
1000
0001
0010
0100
1000
,
0001
0100
0010
1000
0100
0010
0100
1000
0001
0010
0100
1000
0001
0100
0010
1000
,
0100
0010
0100
1000
0001
0010
0100
1000
0001
0100
0010
1000
0001
0100
0010
1000
,
0001
0010
0100
1000
0001
0100
0010
1000
0001
0010
0100
1000
0001
0100
0010
0100
,
0001
1000
0100
0010
0100
1000
0001
0010
0100
1000
0001
0100
0010
0100
0001
1000
,
0100
0010
0100
1000
0001
0010
0100
1000
0001
0100
0010
0100
0001
0010
0100
1000
,
0001
0100
0010
1000
0100
0010
0100
1000
0001
0010
0100
1000
0001
0100
0010
0100
,
0001
0010
0100
1000
0001
0100
0010
0100
0001
1000
0100
0010
0001
0100
0010
1000
,
0010
0000
0000
0000
0000
0000
0000
0000
1000
0010
0100
0001
1000
0100
0010
0100
,
1000
0001
0010
0100
1000
0001
0100
0010
1000
0000
0000
0000
0010
0000
0000
0000
,
0100
0000
0000
0000
1000
0001
0100
0010
1000
0100
0010
0100
1000
0001
0010
0100
,
1000
0010
0100
0001
1000
0100
0010
0100
1000
0001
0010
0100
1000
0001
0100
0010
,
1000
0000
0000
0000
;

//---------------dance-single - ----------------
#NOTES:
     dance-single:
     :
     Hard:
     41:
     1.000,1.000,0.296,0.065,1.000,2642.000,64.000,14.000,45.000,2.000:
1001
0000
0000
0010
0000
0000
0100
0000
1001
0000
0000
0010
0000
0000
0100
0000
,
1001
0000
0000
0010
0000
0000
0100
0000
0011
0000
0000
1000
0000
0000
0010
0000
,
1001
0000
0000
0010
0000
0000
1000
0000
0101
0000
0000
0010
0000
0000
0100
0000
,
1001
0000
0000
0000
0000
0000
0010
0000
1000
0000
0000
1000
0000
0000
1000
0000
,
0101
0000
0000
0010
0000
0000
1000
0000
1001
0000
0000
0010
0000
0000
0100
0000
,
0101
0000
0000
0010
0000
0000
1000
0000
0101
0000
0000
0010
0000
0000
1000
0000
,
1001
0000
0000
0010
0000
0000
0100
0000
1001
0000
0000
0010
0000
0000
0100
0000
,
1001
0000
1001
0000
,
0000
0000
0000
0000
,
1000
0100
0010
0100
1000
0001
0100
0010
0100
0001
1000
0100
0010
0100
1000
0001
,
0010
0100
1000
0001
0100
0010
1000
0100
0010
0100
1000
0001
0010
0100
1000
0001
,
0100
0010
1000
0100
0010
0100
1000
0001
0100
0010
1000
0100
0010
0100
1000
0001
,
0010
0100
1000
0001
0100
0010
1000
0100
0010
0100
1000
0001
0010
0100
1000
0001
,
0100
0010
1000
0100
0010
0100
1000
0001
0010
0100
1000
0001
0100
0010
1000
0100
,
0010
0100
1000
0001
0010
0100
1000
0001
0100
0010
0100
0001
1000
0100
0010
0100
,
1000
0001
0010
0100
1000
0001
0100
0010
1000
0100
0010
0100
1000
0010
0100
0010
,
0100
0010
1000
0001
0100
0010
1000
0001
1000
0000
0100
0000
0010
0000
0100
0000
,
1000
0001
0010
0100
1000
0001
0100
0010
,
1000
0100
0010
0100
1000
0001
0010
0100
,
1000
0001
0100
0010
0100
0001
1000
0100
,
0010
0100
1000
0001
0010
0100
1000
0001
,
0100
0010
1000
0100
0010
0100
1000
0001
,
0010
0100
1000
0001
0100
0010
0100
0010
,
1000
0100
0010
0100
4000
0000
0000
0000
,
3001
1000
0100
0010
0001
1000
0100
0010
,
0100
1000
0001
0100
0010
1000
0100
0010
,
0100
1000
0001
0010
0100
1000
0001
0100
,
0010
0100
0001
1000
0010
0100
0001
1000
,
0100
0010
0100
1000
0001
0010
0100
1000
,
0001
0100
0010
0100
0001
1000
0100
0010
,
0100
1000
0001
0100
0010
1000
0001
1000
,
0100
0010
1000
0100
0010
0100
1000
0001
0100
0001
0010
0100
1000
0001
0100
0010
,
0100
0001
1000
0001
0010
0100
0010
0001
0100
0010
1000
0001
0010
0100
1000
0001
,
0100
0010
1000
0001
0100
0010
1000
0100
0010
0100
1000
0001
0010
0100
1000
0001
,
0100
0010
0100
0001
1000
0100
0010
0100
1000
0001
0100
0010
0100
0001
1000
0100
,
0010
0100
1000
0001
0010
0100
1000
0001
0100
0010
0100
0001
1000
0100
0010
0100
,
1000
0001
0010
0100
1000
0100
0010
0001
1000
0010
0100
0001
1000
0100
0010
0100
,
1000
0001
0100
0010
1000
0001
0010
0100
1000
0001
0100
0010
0100
0001
1000
0100
,
0010
0100
1000
0001
0010
0100
1000
0001
0100
0010
1000
0100
0010
0001
0100
0010
,
1000
0100
0010
0100
1000
0001
0100
0010
0100
0001
1000
0100
0010
0100
1000
0001
,
1000
0010
0100
0001
0100
0000
0010
0000
1000
0000
0001
0000
0100
0010
1000
0001
,
0010
0100
1000
0001
0100
0010
1000
0100
0010
0001
0100
0010
1000
0001
1000
0010
,
0400
0000
0000
0000
0301
0000
0100
0000
0001
0000
1000
0000
0010
0100
0001
1000
,
0100
0010
0100
1000
0001
0100
0010
1000
0100
0010
0001
0010
0100
1000
0001
0100
,
0010
1000
0100
0010
0001
0000
1000
0000
0010
0000
0100
0000
0001
0100
0010
0100
,
0001
0010
0100
1000
0001
0100
0010
1000
0100
0010
0100
1000
0001
0100
0010
1000
,
0100
0010
0100
1000
0001
0000
0100
0000
0010
0000
1000
0000
0001
0100
0010
1000
,
0001
0010
0100
1000
0001
0100
0010
0100
0001
1000
0100
0010
0100
0010
0100
1000
,
0001
0100
0010
1000
0100
0000
0010
0000
0100
0000
1000
0000
0001
0000
0100
0000
,
0010
1000
0100
0010
0100
1000
0001
0100
,
0010
0100
0001
1000
0100
0010
0100
1000
,
0001
0100
0010
0100
0001
1000
0010
0100
,
0001
0010
0100
1000
0001
0100
0010
0100
0001
1000
0100
0010
0100
1000
0001
0100
,
0010
1000
0100
0010
0100
1000
0001
0010
0100
1000
0001
0100
0010
1000
0001
0100
,
0010
1000
0100
0010
0100
1000
0001
0010
0100
1000
0001
0100
0010
0100
0001
1000
,
0100
0010
0100
1000
0001
0100
0010
1000
0100
0010
0100
1000
0010
0100
0010
1000
,
0200
0000
0000
0000
,
0300
0000
0000
0000
,
1001
0001
0100
0010
1000
0100
0010
0100
,
1000
0010
0100
0001
1001
0000
0000
0000
,
1000
0100
0010
0100
1000
0001
0100
0010
1000
0100
0010
0100
1000
0001
0010
0100
,
1000
0001
0010
0001
1000
0010
0100
0001
1000
0100
0010
0100
1000
0001
0010
0100
,
1000
0001
0100
0010
1000
0001
0010
0100
1000
0001
0100
0010
1000
0001
0010
0001
,
0000
0000
0000
0000
,
1000
0100
0010
0100
1000
0001
0100
0010
1000
0100
0010
0100
1000
0001
0010
0100
,
1000
0001
0100
0010
1000
0100
0010
0100
1000
0001
0010
0100
1000
0001
0100
0010
,
1000
0010
0100
0001
1000
0100
0010
0100
1000
0001
0010
0100
1000
0001
0100
0010
,
1000
0000
0000
0000
,
0001
0010
0100
1000
0001
0100
0010
1000
0100
0010
0100
1000
0001
0010
0100
1000
,
0001
0100
0010
1000
0100
0010
0001
1000
0100
0000
0001
0010
0100
1000
0001
0010
,
0001
1000
0100
0010
0100
1000
0001
0010
0100
1000
0001
0100
0010
1000
0100
0010
,
0001
0000
0000
0000
,
1000
0100
0010
0100
1000
0001
0100
0010
1000
0100
0010
0100
1000
0001
0010
0100
,
1000
0001
0100
0010
1000
0100
0010
0100
1000
0001
0100
0010
1000
0100
0010
0100
,
1000
0000
0000
0000
,
1000
0100
0010
0001
0010
0100
1000
0001
,
0100
0010
0100
0001
1000
0100
0010
0100
,
1000
0001
0010
0100
1000
0001
0100
0010
,
0100
0001
1000
0100
0010
0100
1000
0001
,
0010
0100
1000
0001
0100
0010
0100
0001
,
1000
0100
0010
0100
1000
0001
0100
0010
,
0100
0001
1000
0100
0010
0100
1000
0001
,
0100
0010
1000
0100
0010
0100
1000
0001
,
0010
0100
1000
0001
0100
0010
0100
0001
,
1000
0010
0100
0001
1000
0100
0010
0100
,
1000
0001
0010
0100
1000
0001
0100
0010
,
0100
0001
1000
0100
0010
0100
1000
0001
,
0100
0010
0100
0001
1000
0100
0010
0100
,
1000
0001
0010
0100
1000
0001
0100
0010
,
0100
0001
1000
0100
0010
0100
1000
0001
,
0100
0010
1000
0100
0010
0100
1000
0001
,
1000
0000
0110
0110
,
0001
1000
0010
0100
0001
1000
0100
0010
,
0100
1000
0001
0010
0100
1000
0001
0100
,
0010
0100
0001
1000
0100
0010
0100
1000
,
0001
0100
0010
0100
0001
1000
0100
0010
,
0100
1000
0001
0010
0100
1000
0001
0100
,
0010
0100
0001
1000
0100
0010
0100
1000
,
0001
0100
0010
0100
0001
1000
0010
0100
,
0001
0000
1000
0000
0010
0100
0010
0000
,
1000
0010
0100
0001
1000
0100
0010
0100
,
1000
0001
0100
0010
0100
0001
0010
0100
,
1000
0001
0100
0010
0100
0001
1000
0100
,
0010
0100
1000
0001
0100
0010
1000
0001
,
0010
0100
1000
0001
0100
0010
0100
0001
,
1000
0100
0010
0100
1000
0001
0100
0010
,
1000
0001
0010
0100
1000
0001
0100
0010
,
1000
0000
0110
0110
,
2002
0000
0000
0000
,
0000
0000
0000
0000
,
0000
0000
0000
0000
,
3003
M000
0M00
00M0
,
000M
00M0
0M00
M000
,
000M
0M00
00M0
0M00
,
000M
M000
0M00
00M0
,
0M00
M000
000M
0M00
,
00M0
0M00
000M
M000
,
00M0
0M00
000M
M000
,
0M00
00M0
0M00
M000
,
000M
0M00
00M0
0M00
,
000M
M000
0M00
00M0
,
0M00
M000
000M
0M00
,
00M0
0M00
0000
0000
,
1001
0000
0000
0000
1001
0000
1001
0000
1000
0000
0010
0000
0100
0000
0001
0010
,
0100
1000
0001
0000
1000
0000
0100
0010
0100
0000
1000
0000
0001
0000
0100
0010
,
1000
0001
0010
0100
1000
0010
0100
0001
1000
0000
1000
0000
0010
0000
0100
0001
,
0100
0010
1000
0001
0010
0000
0100
1000
0001
0000
0001
0000
1001
0000
1000
0010
,
0100
0001
1000
0100
0010
0000
0001
0100
0010
1000
0001
0010
0100
1000
0001
0100
,
0010
1000
0100
0010
0100
1000
0001
0100
0010
0100
0001
1000
0100
0010
0100
1000
,
0001
0100
0010
1000
0001
0010
0100
1000
0010
0100
0001
1000
0100
0010
0100
1000
,
0001
0010
0100
1000
0001
0100
0010
0100
0001
1000
0100
0010
0100
1000
0001
0100
,
1001
0000
0110
0110
1000
0100
0010
0001
,
0010
0100
1000
0001
0100
0010
0100
0001
,
1000
0100
0010
0100
1000
0001
0100
0010
,
0100
0001
0010
0100
1000
0001
0100
0010
,
0100
0001
1000
0100
0010
0100
1000
0001
,
0100
0010
1000
0001
0010
0100
1000
0001
,
0100
0010
0100
0001
1000
0100
0010
0100
,
1000
0000
0001
0000
0100
0000
0010
0000
1000
0100
1000
0001
0100
0010
1000
0100
,
0010
0001
0010
0100
1000
0001
0010
0100
1000
0000
0001
0000
0100
0000
0010
0000
,
1000
0100
0010
0100
1000
0001
0010
0100
,
1000
0001
0100
0010
0100
0001
1000
0100
,
0010
0100
1000
0001
0100
0010
0100
0001
,
1000
0100
0010
0100
1000
0001
0010
0100
,
1000
0001
0100
0010
0100
0001
1000
0100
,
0010
0100
1000
0001
0100
0010
0100
0001
,
1000
0000
0100
0000
0010
0000
0001
0000
1000
0001
0010
0100
1000
0001
0100
0010
,
0100
0001
0010
0100
1000
0001
0100
0010
1000
0000
0010
0000
0100
0000
0001
0000
,
1000
0100
0010
0100
1000
0001
0100
0010
,
0100
0001
1000
0100
0010
0100
1000
0001
,
0010
0100
1000
0001
0100
0010
0100
0001
,
1000
0100
0010
0100
1000
0001
0100
0010
,
1000
0001
0010
0100
1000
0001
0100
0010
,
0100
0001
1000
0100
0010
0100
1000
0001
,
0100
0000
0010
0000
0100
0000
0001
0000
1000
0100
0010
0000
0001
0000
0010
0000
,
0100
1000
0010
0000
0100
0000
0001
0000
1000
0000
0001
0000
0010
0000
0100
0000
,
1000
0001
0100
0010
1000
0100
0010
0100
,
1000
0001
0100
0010
1000
0010
0100
0001
,
1000
0100
0010
0100
1000
0001
0100
0010
,
0100
0001
1000
0100
0010
0100
1000
0001
,
0010
0100
1000
0001
0100
0010
0100
0001
,
1000
0100
0010
0100
1000
0001
0010
0100
,
1000
0000
0001
0000
0100
0000
0010
0000
1000
0100
0010
0100
1000
0001
0010
0100
,
1000
0000
0000
0000
0000
0000
0000
0000
1000
0000
0010
0000
0100
0000
0001
0010
,
0100
1000
0001
0100
0010
0000
1000
0010
0100
0000
0001
0000
0100
0000
0010
1000
,
0001
0010
0001
1000
0001
0100
0010
1000
0100
0000
0010
0000
1001
0000
0100
0010
,
1000
0001
0010
0100
1000
0000
0001
0100
0010
0000
1000
0000
1001
0000
0010
0100
,
0001
1000
0100
0010
0100
1000
0001
0100
0010
0000
1000
0000
0100
0000
0010
0100
,
1000
0001
0100
0010
1000
0000
0001
0100
0020
0000
2030
0000
3010
0000
0100
0001
,
0100
0010
1000
0100
0010
0001
0000
1000
0010
0000
0100
0000
1001
0000
0010
0100
,
0001
1000
0100
0010
0001
0000
0000
0000
1000
0000
0000
0000
1010
0000
0000
0000
,
1110
0000
0000
0000
1111
0000
0000
0000
0001
0100
0010
1000
0001
0010
0100
1000
,
0001
0100
0010
0100
0001
1000
0100
0010
0100
1000
0001
0010
0100
1000
0001
0100
,
0010
1000
0100
0010
0100
1000
0001
0100
0010
1000
0001
0010
0100
1000
0001
0100
,
0010
0100
0001
1000
0100
0010
0100
1000
0001
0010
0100
1000
0001
0100
0010
0100
,
0001
1000
0100
0010
0100
1000
0001
0010
0100
1000
0001
0100
0010
0100
0001
1000
,
0100
0010
0100
1000
0001
0010
0100
1000
0001
0100
0010
0100
0001
0010
0100
1000
,
0001
0100
0010
0100
0001
0010
0100
1000
0001
0100
0010
0100
0001
1000
0100
0010
,
0100
1000
0001
0010
0100
1000
0001
0100
0010
0100
0001
1000
0100
0010
0100
1000
,
0001
0010
0100
1000
0001
0100
0010
0100
0001
1000
0100
0010
0100
1000
0001
0010
,
0100
1000
0001
0100
0010
0100
0001
1000
0100
0010
0100
1000
0001
0010
0100
1000
,
0001
0100
0010
0100
0001
1000
0100
0010
0100
1000
0001
0100
0010
1000
0100
0010
,
0001
0100
0010
1000
0001
0010
0100
1000
0001
0100
0010
0100
0001
1000
0100
0010
,
0100
1000
0001
0100
0010
1000
0001
0010
0100
1000
0001
0100
0010
1000
0100
0010
,
0100
1000
0001
0010
0100
1000
0001
0100
0010
0100
0001
1000
0100
0010
0100
1000
,
0001
0010
0100
1000
0001
0100
0010
0100
0001
1000
0100
0010
0100
1000
0001
0100
,
0010
0100
0001
1000
0100
0010
0001
1000
0001
0000
0010
0000
0010
0000
0010
0000
,
0100
0000
1000
0000
0001
0000
0100
0000
0010
0000
1000
0000
0001
0100
0010
1000
,
0000
0000
0001
0000
1001
0000
0010
0000
0100
0000
1000
0000
0001
0100
0010
1000
,
0000
0000
0010
0000
0110
0000
0100
0000
0010
0000
1000
0000
0010
0100
0010
0100
,
0000
0000
0010
0000
1010
0000
1000
0000
0001
0000
0100
0010
0000
1000
0001
0000
,
1000
0000
0010
0000
0110
0000
0100
0000
0001
0000
0100
0000
0010
1000
0010
0100
,
0000
0000
0001
0000
1010
0000
0001
0000
0100
0000
0010
0000
1000
0001
0010
0100
,
0000
0000
0010
0000
1100
0000
0010
0000
0100
0000
1000
0000
1001
0010
0100
0010
,
0000
0000
0100
0000
1001
0000
0010
0000
1000
0000
0100
0010
0000
0001
0010
0000
,
0100
0000
1000
0000
0010
0000
0100
0000
1001
0010
0100
0001
1000
0100
0010
0002
,
0000
0000
0100
0000
0100
0000
0100
0000
0103
0000
0010
0000
1000
0100
0010
0002
,
0000
0000
0100
0000
0100
0000
0100
0000
0103
0000
0010
0000
1010
0100
0001
0100
,
0000
0000
0010
0000
1001
0000
0100
0000
0010
0000
1000
0100
0000
0010
0001
0000
,
1000
0010
0100
0000
1001
0000
0000
0000
0001
0000
1000
0000
0001
0010
0100
0020
,
0000
0000
0031
0000
0100
0000
0010
0000
1001
0000
0010
0000
1000
0100
0010
0002
,
0000
0000
0103
0000
0010
0000
1000
0000
0001
0000
1000
0000
0100
0010
0001
1000
,
0000
0000
0010
0000
1001
0000
0100
0000
0010
0000
1000
0100
0000
0010
0001
0000
,
1000
0000
0010
0000
1001
0000
0000
0000
0001
0100
0010
1000
0100
0010
0100
1000
,
0001
0010
0100
1000
0001
0100
0010
0100
0001
1000
0100
0010
0100
1000
0001
0100
,
0010
1000
0001
1000
0010
0100
0001
1000
0100
0010
0100
1000
0001
0010
0100
1000
,
0001
0100
0010
0100
0001
1000
0100
0010
0100
1000
0001
0010
0100
1000
0001
0100
,
0010
0100
0001
1000
0100
0010
0100
1000
0001
0010
0100
1000
0001
0100
0010
0100
,
0010
1000
0100
0010
0100
1000
0001
0010
0100
1000
0001
0100
0010
0100
0001
1000
,
0100
0010
0100
1000
0001
0010
0100
1000
0001
0100
0010
0100
0001
1000
0100
0010
,
0001
0100
0010
0100
0001
0010
0100
0010
0001
0100
0010
0100
0001
0100
0010
0100
,
0001
0010
0100
1000
0001
1000
0100
0010
0100
1000
0001
0010
0100
0010
0001
0010
,
0100
1000
0001
0100
0010
1000
0100
0010
0001
0010
0100
1000
0001
0100
0010
0100
,
0001
1000
0100
0010
0100
1000
0001
0010
0100
1000
0001
0100
0010
0100
0001
1000
,
0100
0010
0100
1000
0001
0010
0100
1000
0001
0100
0010
0100
0001
0010
0100
1000
,
0001
0100
0010
0100
0001
0010
0100
1000
0001
0100
0010
0100
0001
0010
0100
1000
,
0001
0100
0010
0100
0001
1000
0100
0010
0100
1000
0001
0010
0100
1000
0001
0010
,
0100
1000
0010
0100
0010
0100
0001
1000
0100
0010
0100
1000
0001
0010
0100
1000
,
0001
0100
0010
0100
0001
1000
0100
0010
0100
1000
0001
0010
0100
1000
0001
0100
,
0010
0100
0001
1000
0100
0010
0001
0000
1001
0000
0000
0010
0000
0000
0100
0000
,
0011
0000
0000
1000
0000
0000
0010
0000
1001
0000
0000
0010
0000
0000
0100
0000
,
0011
0000
0000
1000
0000
0000
0010
0000
1001
0000
0000
0010
0000
0000
0100
0000
,
0011
0000
0000
0100
0000
0000
0010
0000
1001
0000
0000
0000
0000
0000
0000
0000
,
0000
0000
0000
0000
0000
0000
0000
0000
2001
0000
0000
0010
0000
0000
3001
0000
,
0102
0000
0000
1000
0000
0000
0013
0000
2010
0000
0000
0100
0000
0000
3010
0000
,
0102
0000
0000
0010
0000
0000
1003
0000
0210
0000
0000
0010
0000
0000
0301
0000
,
1000
0000
0000
0001
0000
0000
0000
0000
0000
0000
0000
0000
1000
0000
0100
0000
,
0010
0000
0001
0000
0010
0000
0100
0000
1000
0010
0100
0001
1000
0100
0010
0100
,
1000
0001
0010
0100
1000
0001
0100
0010
1000
0000
0010
0000
0100
0000
0001
0000
,
1000
0000
0100
0000
0010
0000
0100
0000
1000
0001
0010
0100
1000
0001
0100
0010
,
1000
0100
0010
0100
1000
0001
0100
0010
1000
0000
0010
0000
0100
0000
0001
0000
,
1000
0000
0100
0000
0010
0000
0100
0000
1000
0001
0100
0010
1000
0100
0010
0100
,
1000
0001
0010
0100
1000
0000
0010
0000
0100
0000
0001
0000
1000
0000
0100
0000
,
0010
0000
0001
0000
0010
0000
0100
0000
1000
0010
0100
0001
1000
0100
0010
0100
,
1000
0001
0100
0010
1000
0010
0100
0001
,
1000
0000
0100
0000
0010
0000
0001
0000
1000
0100
0010
0100
1000
0001
0010
0100
,
1000
0001
0100
0010
1000
0001
0100
0010
1000
0001
0010
0100
1000
0001
0100
0010
,
1000
0100
0010
0100
1000
0001
0010
0100
1000
0001
0100
0010
0100
0001
1000
0100
,
0010
0100
1000
0001
0010
0100
1000
0001
0100
0010
1000
0100
0010
0100
1000
0001
,
0010
0100
1000
0001
0100
0010
1000
0100
0010
0100
1000
0001
0010
0100
1000
0001
,
0100
0010
1000
0100
0010
0000
0001
0000
0010
0000
0100
0000
1000
0000
0001
0000
,
0100
0000
0010
0000
1000
0000
0100
0000
0010
0001
1000
0010
0100
0001
0100
0010
,
1000
0000
0000
0000
,
0001
0010
0100
1000
0010
0100
0001
1000
0100
0010
0100
1000
0001
0010
0100
1000
,
0001
0100
0010
1000
0100
0010
0100
1000
0001
0010
0100
1000
0001
0100
0010
1000
,
0100
0010
0100
1000
0001
0010
0100
1000
0001
0100
0010
1000
0100
0010
0100
1000
,
0001
0010
0100
1000
0001
0100
0010
1000
0100
0010
0100
1000
0001
0010
0100
1000
,
0001
0100
0010
1000
0100
0010
0100
1000
0001
0010
0100
1000
0001
0100
0010
1000
,
0100
0010
0100
1000
0001
0010
0100
1000
0001
0100
0010
1000
0001
0100
0010
1000
,
0001
0010
0100
1000
0001
0100
0010
1000
0001
0010
0100
1000
0001
0100
0010
0100
,
0001
1000
0100
0010
0100
1000
0001
0010
0100
1000
0001
0100
0010
0100
0001
1000
,
0100
0010
0100
1000
0001
0010
0100
1000
0001
0100
0010
0100
0001
0010
0100
1000
,
0001
0100
0010
1000
0100
0010
0100
1000
0001
0010
0100
1000
0001
0100
0010
0100
,
0001
0010
0100
1000
0001
0100
0010
0100
0001
1000
0100
0010
0001
0100
0010
1000
,
0010
0000
0000
0000
0000
0000
0000
0000
1000
0010
0100
0001
1000
0100
0010
0100
,
1000
0001
0010
0100
1000
0001
0100
0010
1000
0000
0000
0000
0010
0000
0000
0000
,
0100
0000
0000
0000
1000
0001
0100
0010
1000
0100
0010
0100
1000
0001
0010
0100
,
1000
0010
0100
0001
1000
0100
0010
0100
1000
0001
0010
0100
1000
0001
0100
0010
,
1000
0000
0000
0000
;

//---------------dance-single - ----------------
#NOTES:
     dance-single:
     :
     Medium:
     20:
     1.000,1.000,0.319,0.074,0.900,2075.000,69.000,16.000,45.000,2.000:

1001
0000
0000
0010
0000
0000
0100
0000
1001
0000
0000
0010
0000
0000
0100
0000
,
1001
0000
0000
0010
0000
0000
0100
0000
0011
0000
0000
1000
0000
0000
0010
0000
,
1001
0000
0000
0010
0000
0000
1000
0000
0101
0000
0000
0010
0000
0000
0100
0000
,
1001
0000
0000
0000
0000
0000
0010
0000
1000
0000
0000
1000
0000
0000
1000
0000
,
0101
0000
0000
0010
0000
0000
1000
0000
1001
0000
0000
0010
0000
0000
0100
0000
,
0101
0000
0000
0010
0000
0000
1000
0000
0101
0000
0000
0010
0000
0000
1000
0000
,
1001
0000
0000
0010
0000
0000
0100
0000
1001
0000
0000
0010
0000
0000
0100
0000
,
1001
0000
1001
0000
,
0000
0000
0000
0000
,
1000
0100
0010
0100
1000
0001
0010
0100
,
1000
0001
0100
0010
1000
0100
0010
0100
,
1000
0001
0010
0100
1000
0001
0100
0010
,
0100
0001
1000
0100
0010
0100
1000
0001
,
0010
0100
1000
0001
0100
0010
1000
0100
,
0010
0100
1000
0001
0010
0100
1000
0001
,
0100
0010
0100
0010
1000
0100
0010
0001
,
0100
0010
1000
0001
0100
0010
1000
0001
1000
0000
0100
0000
0010
0000
0100
0000
,
1000
0001
0010
0100
1000
0001
0100
0010
,
1000
0100
0010
0100
1000
0001
0010
0100
,
1000
0001
0100
0010
0100
0001
1000
0100
,
0010
0100
1000
0001
0010
0100
1000
0001
,
0100
0010
1000
0100
0010
0100
1000
0001
,
0010
0100
1000
0001
0100
0010
0100
0010
,
1000
0100
0010
0100
4000
0000
0000
0000
,
3001
1000
0100
0010
0001
1000
0100
0010
,
0100
1000
0001
0100
0010
1000
0100
0010
,
0100
1000
0001
0010
0100
1000
0001
0100
,
0010
0100
0001
1000
0010
0100
0001
1000
,
0100
0010
0100
1000
0001
0010
0100
1000
,
0001
0100
0010
0100
0001
1000
0100
0010
,
0100
1000
0001
0100
0010
1000
0001
1000
,
0100
0010
1000
0100
0010
0100
1000
0001
0100
0000
0010
0000
1000
0000
0100
0000
,
0010
0100
1000
0001
0010
0100
1000
0001
,
0100
0010
1000
0100
0010
0100
1000
0001
,
0010
0100
1000
0001
0100
0010
0100
0001
,
1000
0100
0010
0100
1000
0001
0010
0100
,
1000
0001
0100
0010
1000
0100
0010
0100
,
1000
0001
0010
0100
1000
0001
0100
0001
,
0010
0100
0010
0100
1000
0001
0010
0100
,
1000
0001
0100
0010
1000
0100
0010
0100
,
1000
0001
0010
0100
1000
0001
0100
0010
,
0100
0001
1000
0100
0010
0100
1000
0001
,
0010
0100
1000
0001
0100
0010
1000
0100
,
0010
0100
1000
0001
0010
0100
1000
0001
,
0100
0010
0100
0010
1000
0100
0010
0100
,
1000
0010
0100
0001
1000
0100
0010
0100
,
1000
0001
0010
0100
1000
0001
0100
0010
,
0100
0001
1000
0100
0010
0100
1000
0001
,
0010
0100
1000
0100
0010
0001
1000
0010
,
0100
0001
0010
0100
0010
0001
1000
0010
,
0100
0010
1000
0001
0010
0100
0010
0001
,
1000
0010
0100
0010
1000
0001
0100
0010
,
1000
0010
0100
0001
1000
0100
0010
0100
,
1000
0001
0010
0100
1000
0001
0100
0010
,
0100
0001
1000
0100
0010
0100
1000
0001
,
0010
0100
1000
0001
0100
0010
1000
0100
,
0010
0000
0000
0000
,
0000
0000
0000
0000
,
1001
0001
0100
0010
1000
0100
0010
0100
,
1000
0010
0100
0001
1001
0000
0000
0000
,
1000
0100
0010
0100
1000
0001
0100
0010
,
0100
0001
1000
0100
0010
0100
1000
0001
,
0100
0010
1000
0001
0100
0010
1000
0001
,
0100
0000
0000
0000
,
1000
0010
0100
0001
0100
0010
1000
0100
,
0010
0100
1000
0001
0010
0100
1000
0001
,
0100
0010
0100
0001
1000
0010
0100
0001
,
1000
0000
0000
0000
,
1000
0100
0010
0100
1000
0001
0100
0010
,
0100
0001
0100
0010
1000
0001
0010
0100
,
1000
0001
0100
0010
1000
0001
0100
0001
,
0010
0000
0000
0000
,
4004
0000
0000
0000
,
0000
0000
0000
0000
,
3003
0000
0000
0000
,
0000
0000
0000
0000
,
0010
0001
0100
0001
1000
0100
0010
0100
,
1000
0001
0010
0100
1000
0001
0100
0010
,
0100
0001
1000
0100
0010
0100
1000
0001
,
0010
0100
1000
0001
0100
0010
0100
0001
,
1000
0100
0010
0100
1000
0001
0100
0010
,
0100
0001
1000
0100
0010
0100
1000
0001
,
0100
0010
1000
0100
0010
0100
1000
0001
,
0010
0100
1000
0001
0100
0010
0100
0001
,
1000
0010
0100
0001
1000
0100
0010
0100
,
1000
0001
0010
0100
1000
0001
0100
0010
,
0100
0001
1000
0100
0010
0100
1000
0001
,
0100
0010
0100
0001
1000
0100
0010
0100
,
1000
0001
0010
0100
1000
0001
0100
0010
,
0100
0001
1000
0100
0010
0100
1000
0001
,
0100
0010
1000
0100
0010
0100
1000
0001
,
1000
0000
0110
0110
,
0001
1000
0010
0100
0001
1000
0100
0010
,
0100
1000
0001
0010
0100
1000
0001
0100
,
0010
0100
0001
1000
0100
0010
0100
1000
,
0001
0100
0010
0100
0001
1000
0100
0010
,
0100
1000
0001
0010
0100
1000
0001
0100
,
0010
0100
0001
1000
0100
0010
0100
1000
,
0001
0100
0010
0100
0001
1000
0010
0100
,
0001
0000
1000
0000
0010
0100
0010
0000
,
1000
0010
0100
0001
1000
0100
0010
0100
,
1000
0001
0100
0010
0100
0001
0010
0100
,
1000
0001
0100
0010
0100
0001
1000
0100
,
0010
0100
1000
0001
0100
0010
1000
0001
,
0010
0100
1000
0001
0100
0010
0100
0001
,
1000
0100
0010
0100
1000
0001
0100
0010
,
1000
0001
0010
0100
1000
0001
0100
0010
,
1000
0000
0110
0110
,
2002
0000
0000
0000
,
0000
0000
0000
0000
,
0000
0000
0000
0000
,
3003
M000
0M00
00M0
,
000M
00M0
0M00
M000
,
000M
0M00
00M0
0M00
,
000M
M000
0M00
00M0
,
0M00
M000
000M
0M00
,
00M0
0M00
000M
M000
,
00M0
0M00
000M
M000
,
0M00
00M0
0M00
M000
,
000M
0M00
00M0
0M00
,
000M
M000
0M00
00M0
,
0M00
M000
000M
0M00
,
00M0
0M00
0000
0000
,
1001
0000
0000
0000
1001
0000
1001
0000
1000
0000
0010
0000
0100
0000
0001
0010
,
0100
1000
0001
0000
1000
0000
0100
0010
0100
0000
1000
0000
0001
0000
0100
0010
,
1000
0001
0010
0100
1000
0010
0100
0001
1000
0000
1000
0000
0010
0000
0100
0001
,
0100
0010
1000
0001
0010
0000
0100
1000
0001
0000
0001
0000
1001
0000
1000
0010
,
0100
0001
1000
0100
0010
0000
0001
0100
0010
1000
0001
0010
0100
1000
0001
0100
,
0010
1000
0100
0010
0100
1000
0001
0100
0010
0100
0001
1000
0100
0010
0100
1000
,
0001
0100
0010
1000
0001
0010
0100
1000
0010
0100
0001
1000
0100
0010
0100
1000
,
0001
0010
0100
1000
0001
0100
0010
0100
0001
1000
0100
0010
0100
1000
0001
0100
,
1001
0000
0110
0110
1000
0100
0010
0001
,
0010
0100
1000
0001
0100
0010
0100
0001
,
1000
0100
0010
0100
1000
0001
0100
0010
,
0100
0001
0010
0100
1000
0001
0100
0010
,
0100
0001
1000
0100
0010
0100
1000
0001
,
0100
0010
1000
0001
0010
0100
1000
0001
,
0100
0010
0100
0001
1000
0100
0010
0100
,
1000
0001
0100
0010
4000
0000
0000
0000
,
0000
0000
0000
0000
3001
1000
0010
0100
,
0001
0010
0100
0010
0001
1000
0100
0010
,
0001
1000
0010
0100
0010
1000
0001
0010
,
0100
0010
0001
1000
0010
0100
0010
1000
,
0001
0010
0100
0010
0001
1000
0100
0010
,
0001
1000
0010
0100
0010
1000
0001
0010
,
0100
0010
0001
1000
0010
0100
0010
1000
,
0001
0010
0100
1000
0400
0000
0000
0000
,
0000
0000
0000
0000
1300
0010
0100
0001
,
1000
0100
0010
0100
1000
0001
0100
0010
,
0100
0001
1000
0100
0010
0100
1000
0001
,
0010
0100
1000
0001
0100
0010
0100
0001
,
1000
0100
0010
0100
1000
0001
0100
0010
,
1000
0001
0010
0100
1000
0001
0100
0010
,
0100
0001
1000
0100
0010
0100
1000
0001
,
0100
0010
0100
0001
1000
0100
0010
0001
,
0100
0010
0100
0001
1000
0001
0010
0100
,
1000
0001
0100
0010
1000
0100
0010
0100
,
1000
0001
0100
0010
1000
0010
0100
0001
,
1000
0100
0010
0100
1000
0001
0100
0010
,
0100
0001
1000
0100
0010
0100
1000
0001
,
0010
0100
1000
0001
0100
0010
0100
0001
,
1000
0100
0010
0100
1000
0001
0010
0100
,
1000
0001
0100
0010
1000
0010
1000
0010
,
1000
0000
0000
0000
0000
0000
0000
0000
1000
0000
0010
0000
0100
0000
0001
0010
,
0100
1000
0001
0100
0010
0000
1000
0010
0100
0000
0001
0000
0100
0000
0010
1000
,
0001
0010
0001
1000
0001
0100
0010
1000
0100
0000
0010
0000
1001
0000
0100
0010
,
1000
0001
0010
0100
1000
0000
0001
0100
0010
0000
1000
0000
1001
0000
0010
0100
,
0001
1000
0100
0010
0100
1000
0001
0100
0010
0000
1000
0000
0100
0000
0010
0100
,
1000
0001
0100
0010
1000
0000
0001
0100
0020
0000
2030
0000
3010
0000
0100
0001
,
0100
0010
1000
0100
0010
0001
0000
1000
0010
0000
0100
0000
1001
0000
0010
0100
,
0001
1000
0100
0010
0001
0000
0000
0000
1000
0000
0000
0000
1010
0000
0000
0000
,
1110
0000
0000
0000
1111
0000
0000
0000
0001
0100
0010
1000
0001
0010
0100
1000
,
0001
0100
0010
0100
0001
1000
0100
0010
0100
1000
0001
0010
0100
1000
0001
0100
,
0010
1000
0100
0010
0100
1000
0001
0100
0010
1000
0001
0010
0100
1000
0001
0100
,
0010
0100
0001
1000
0100
0010
0100
1000
0001
0010
0100
1000
0001
0100
0010
0100
,
0001
1000
0100
0010
0100
1000
0001
0010
0100
1000
0001
0100
0010
0100
0001
1000
,
0100
0010
0100
1000
0001
0010
0100
1000
0001
0100
0010
0100
0001
0010
0100
1000
,
0001
0100
0010
0100
0001
0010
0100
1000
0001
0100
0010
0100
0001
1000
0100
0010
,
0100
1000
0001
0010
0100
1000
0001
0100
0010
0100
0001
1000
0100
0010
0100
1000
,
0001
0010
0100
1000
0001
0100
0010
0100
0001
1000
0100
0010
0100
1000
0001
0010
,
0100
1000
0001
0100
0010
0100
0001
1000
0100
0010
0100
1000
0001
0010
0100
1000
,
0001
0100
0010
0100
0001
1000
0100
0010
0100
1000
0001
0100
0010
1000
0100
0010
,
0001
0100
0010
1000
0001
0010
0100
1000
0001
0100
0010
0100
0001
1000
0100
0010
,
0100
1000
0001
0100
0010
1000
0001
0010
0100
1000
0001
0100
0010
1000
0100
0010
,
0100
1000
0001
0010
0100
1000
0001
0100
0010
0100
0001
1000
0100
0010
0100
1000
,
0001
0010
0100
1000
0001
0100
0010
0100
0001
1000
0100
0010
0100
1000
0001
0100
,
0010
0100
0001
1000
0100
0010
0001
1000
0001
0000
0010
0000
0010
0000
0010
0000
,
0100
0000
1000
0000
0001
0000
0100
0000
0010
0000
1000
0000
0001
0100
0010
1000
,
0000
0000
0001
0000
1001
0000
0010
0000
0100
0000
1000
0000
0001
0100
0010
1000
,
0000
0000
0010
0000
0110
0000
0100
0000
0010
0000
1000
0000
0010
0100
0010
0100
,
0000
0000
0010
0000
1010
0000
1000
0000
0001
0000
0100
0010
0000
1000
0001
0000
,
1000
0000
0010
0000
0110
0000
0100
0000
0001
0000
0100
0000
0010
1000
0010
0100
,
0000
0000
0001
0000
1010
0000
0001
0000
0100
0000
0010
0000
1000
0001
0010
0100
,
0000
0000
0010
0000
1100
0000
0010
0000
0100
0000
1000
0000
1001
0010
0100
0010
,
0000
0000
0100
0000
1001
0000
0010
0000
1000
0000
0100
0010
0000
0001
0010
0000
,
0100
0000
1000
0000
0010
0000
0100
0000
1001
0010
0100
0001
1000
0100
0010
0002
,
0000
0000
0100
0000
0100
0000
0100
0000
0103
0000
0010
0000
1000
0100
0010
0002
,
0000
0000
0100
0000
0100
0000
0100
0000
0103
0000
0010
0000
1010
0100
0001
0100
,
0000
0000
0010
0000
1001
0000
0100
0000
0010
0000
1000
0100
0000
0010
0001
0000
,
1000
0010
0100
0000
1001
0000
0000
0000
0001
0000
1000
0000
0001
0010
0100
0020
,
0000
0000
0031
0000
0100
0000
0010
0000
1001
0000
0010
0000
1000
0100
0010
0002
,
0000
0000
0103
0000
0010
0000
1000
0000
0001
0000
1000
0000
0100
0010
0001
1000
,
0000
0000
0010
0000
1001
0000
0100
0000
0010
0000
1000
0100
0000
0010
0001
0000
,
1000
0000
0010
0000
1001
0000
0000
0000
0001
0100
0010
1000
0100
0010
0100
1000
,
0001
0010
0100
1000
0001
0100
0010
0100
0001
1000
0100
0010
0100
1000
0001
0100
,
0010
1000
0001
1000
0010
0100
0001
1000
0100
0010
0100
1000
0001
0010
0100
1000
,
0001
0100
0010
0100
0001
1000
0100
0010
0100
1000
0001
0010
0100
1000
0001
0100
,
0010
0100
0001
1000
0100
0010
0100
1000
0001
0010
0100
1000
0001
0100
0010
0100
,
0010
1000
0100
0010
0100
1000
0001
0010
0100
1000
0001
0100
0010
0100
0001
1000
,
0100
0010
0100
1000
0001
0010
0100
1000
0001
0100
0010
0100
0001
1000
0100
0010
,
0001
0100
0010
0100
0001
0010
0100
0010
0001
0100
0010
0100
0001
0100
0010
0100
,
0001
0010
0100
1000
0001
1000
0100
0010
0100
1000
0001
0010
0100
0010
0001
0010
,
0100
1000
0001
0100
0010
1000
0100
0010
0001
0010
0100
1000
0001
0100
0010
0100
,
0001
1000
0100
0010
0100
1000
0001
0010
0100
1000
0001
0100
0010
0100
0001
1000
,
0100
0010
0100
1000
0001
0010
0100
1000
0001
0100
0010
0100
0001
0010
0100
1000
,
0001
0100
0010
0100
0001
0010
0100
1000
0001
0100
0010
0100
0001
0010
0100
1000
,
0001
0100
0010
0100
0001
1000
0100
0010
0100
1000
0001
0010
0100
1000
0001
0010
,
0100
1000
0010
0100
0010
0100
0001
1000
0100
0010
0100
1000
0001
0010
0100
1000
,
0001
0100
0010
0100
0001
1000
0100
0010
0100
1000
0001
0010
0100
1000
0001
0100
,
0010
0100
0001
1000
0100
0010
0001
0000
1001
0000
0000
0010
0000
0000
0100
0000
,
0011
0000
0000
1000
0000
0000
0010
0000
1001
0000
0000
0010
0000
0000
0100
0000
,
0011
0000
0000
1000
0000
0000
0010
0000
1001
0000
0000
0010
0000
0000
0100
0000
,
0011
0000
0000
0100
0000
0000
0010
0000
1001
0000
0000
0000
0000
0000
0000
0000
,
0000
0000
0000
0000
0000
0000
0000
0000
2001
0000
0000
0010
0000
0000
3001
0000
,
0102
0000
0000
1000
0000
0000
0013
0000
2010
0000
0000
0100
0000
0000
3010
0000
,
0102
0000
0000
0010
0000
0000
1003
0000
0210
0000
0000
0010
0000
0000
0301
0000
,
1000
0000
0000
0001
0000
0000
0000
0000
0000
0000
0000
0000
1000
0000
0100
0000
,
0010
0001
0010
0100
0040
0000
0000
0000
,
0000
0000
0000
0000
0031
0010
0100
1000
,
0001
0100
0010
1000
0400
0000
0000
0000
,
0000
0000
0000
0000
1300
0010
0100
0001
,
1000
0100
0010
0100
1000
0100
0010
0100
,
1000
0001
0100
0010
0100
0001
1000
0100
,
0010
0001
0010
0100
1000
0100
1000
0010
,
1000
0001
0100
0010
1000
0010
0100
0001
,
1000
0100
0010
0001
1000
0010
0100
0001
,
1000
0100
0010
0100
1000
0001
0100
0010
,
0100
0001
1000
0100
0010
0100
1000
0001
,
1000
0010
0100
0001
1000
0100
0010
0100
,
1000
0001
0010
0100
1000
0001
0100
0010
,
1000
0001
0010
0001
0010
0100
1000
0001
,
0100
0010
1000
0100
0010
0001
0100
0010
,
1000
0000
0000
0000
,
1000
0100
0010
0100
1000
0001
0100
0010
,
0100
0001
0010
0100
1000
0001
0100
0010
,
0100
0001
1000
0010
0100
0001
0100
0010
,
1000
0100
0010
0100
1000
0001
0010
0100
,
1000
0001
0100
0010
0100
0001
1000
0100
,
0010
0100
1000
0001
0010
0100
1000
0001
,
0100
0010
0100
0001
1000
0100
0010
0100
,
1000
0001
0010
0100
1000
0001
0100
0010
,
0100
0001
1000
0100
0010
0100
1000
0001
,
0010
0100
1000
0001
0100
0010
1000
0100
,
0010
0001
0010
0100
1000
0001
0100
0010
,
0100
0000
2002
0000
,
0000
0000
3003
0010
,
0100
0200
0000
0000
,
0000
0000
0000
0000
,
0300
0000
0000
0000
;
