#TITLE:Fury of the Storm v2;
#SUBTITLE:Sonic Firestorm;
#ARTIST:Dragonforce;
#TITLETRANSLIT:;
#SUBTITLETRANSLIT:;
#ARTISTTRANSLIT:;
#CREDIT:Magna Trick;
#BANNER:fots.PNG;
#BACKGROUND:fury-bg.png;
#LYRICSPATH:;
#CDTITLE:Magnakcd.png;
#MUSIC:Fury of the Storm.mp3;
#OFFSET:-0.331;
#SAMPLESTART:50.831;
#SAMPLELENGTH:12.000;
#SELECTABLE:YES;
#DISPLAYBPM:100.000:200.000;
#BPMS:0.000=200.000,1232.000=100.000,1244.000=200.000;
#STOPS:1320.000=0.400
;
#BGCHANGES:;
// cache tags:
#FIRSTBEAT:0.000;
#LASTBEAT:1330.000;
#SONGFILENAME:Songs/CMDKDF Pack/Fury of the Storm v2 (Magna Trick)/fots.sm;
#HASMUSIC:1;
#HASBANNER:1;
#MUSICLENGTH:405.853;
// end cache tags

//---------------dance-single - ----------------
#NOTES:
     dance-single:
     :
     Challenge:
     13:
     1.000,1.000,1.000,0.177,1.000,3796.000,481.000,72.000,0.000,7.000:

1001
0000
0100
1000
0001
1000
0011
0110
,
0011
0000
0100
0010
0001
1000
0100
0000
,
1001
0000
0000
1000
0001
0000
0100
0000
0010
0000
1000
0000
0001
0000
0010
0000
,
0100
1000
0100
1000
0100
1000
0100
0010
0001
0100
0010
1000
,
0101
0000
0001
0010
0100
1000
1001
0000
,
0101
0000
0001
0010
0100
1000
0010
0000
,
1001
1001
1001
1001
,
1001
0000
0000
0000
1001
0000
0000
0000
1001
0000
1000
0001
0110
0000
0000
0000
,
0001
0010
0100
1000
0100
0010
0001
0100
0001
0010
0100
1000
0100
0010
0001
0000
,
0001
0010
0100
1000
0100
0010
0001
0100
0001
0010
0100
1000
0010
1000
0001
0000
,
0001
0010
0100
1000
0100
0010
0001
0100
0001
0010
0100
1000
0100
0010
0001
0100
,
0001
1000
0100
1000
0100
0010
0001
0010
0001
0100
0010
0100
0020
0000
0000
0000
,
1030
0100
0010
0001
0010
0100
1000
0010
1000
0100
0010
0001
0010
0100
1000
0000
,
1000
0100
0010
0001
0010
0100
1000
0010
1000
0100
0010
0001
0100
0001
1000
0000
,
1000
0100
0010
0001
0010
0100
1000
0010
1000
0100
0010
0001
0010
0100
1000
0010
,
1000
0001
0010
0001
0010
0100
1000
0100
1000
0010
0100
0010
0200
0000
0000
0000
,
0301
1000
0100
1000
0001
1000
0001
0100
0001
0010
0001
0010
0100
0000
1100
0000
,
1000
0001
0010
0001
1000
0001
1000
0010
1000
0100
1000
0100
0010
0001
1000
0000
,
1000
0100
0010
0001
0100
0010
1000
0001
1000
0001
0010
0100
0010
0100
1000
0001
,
0100
0010
0100
0001
1000
0010
1000
0001
0010
0100
1000
0001
0200
0000
0000
0000
,
0310
1000
0001
1000
0100
0010
0001
0010
0100
1000
0010
0100
0001
0010
0200
0000
,
1300
0010
1000
0001
0010
0100
1000
0010
0100
0001
1000
0001
1000
0100
0020
0000
,
0031
0000
1000
0000
0001
0000
1000
0000
0001
0000
0000
0000
0000
0000
0000
0000
0000
0000
0100
0000
1000
0000
0100
0000
1000
0000
0100
0000
0000
0000
0000
0000
0000
0000
0000
0000
0100
0000
0000
0001
0000
0000
0100
0000
0000
0001
0000
0000
,
0200
0000
0320
0000
,
2030
0000
0000
0000
,
3100
0010
0001
0100
0010
0100
0001
0010
0100
0010
0001
0100
0010
0100
0001
0010
,
0100
0010
0001
0100
0010
0100
0001
0010
0100
0010
0001
0100
0010
0100
0001
0010
,
0100
1000
0001
0100
0010
0100
0001
0010
1000
0010
0001
0100
0010
0100
0001
0010
,
1000
0010
0001
0100
0010
0100
0001
0010
1000
0010
0001
0100
0010
0100
0001
0010
,
0001
0100
0010
1000
0100
1000
0010
0100
0001
0100
0010
1000
0100
1000
0010
0100
,
0001
0100
0010
1000
0100
1000
0010
0100
0001
0100
0010
1000
0100
1000
0010
0100
,
0001
0010
0001
0100
0010
0100
0001
0010
0100
0010
0001
0100
0010
0100
0001
0010
,
0100
1000
0001
0010
0100
1000
0010
0100
0001
1000
0010
0100
0001
0000
0010
0001
1000
0010
1000
0000
0100
0000
0010
0000
,
0100
0010
0001
0100
0010
0100
0001
1000
0010
1000
0001
0100
0010
0100
0001
1000
,
0010
1000
0001
0100
0010
0100
0001
1000
0010
1000
0001
0100
0010
0100
0001
1000
,
0100
1000
0001
0010
0100
0010
0001
1000
0100
1000
0001
0010
0100
0010
0001
1000
,
0100
1000
0001
0010
0100
0010
0001
1000
0100
1000
0001
0010
0100
0010
0001
1000
,
0100
1000
0010
0100
0001
0100
0010
1000
0001
1000
0010
0100
0001
0100
0010
1000
,
0001
1000
0010
0100
0001
0100
0010
1000
0001
1000
0010
0100
0001
0100
0010
1000
,
0001
0100
0010
1000
0010
0100
0001
0000
0100
0000
0010
0000
1000
0000
0100
0000
0010
0000
0101
0000
0000
0000
0000
0000
,
0001
1000
0100
1000
0001
0100
0001
0010
0100
0010
0001
1000
0010
0100
0001
0010
,
0200
1000
0310
1000
0100
0010
0100
0010
0001
1000
0100
1000
0001
0100
0001
0100
,
1001
1001
0200
0320
,
0031
0010
0100
1000
0010
0100
0001
0010
0100
1000
0010
1000
0001
1000
0010
1000
,
0001
0010
0100
0010
0001
1000
0010
0100
0001
0010
0100
1000
0010
0100
0001
0010
,
0100
1000
0010
1000
0001
0100
0010
0100
0001
0100
0010
1000
0001
0010
0100
0010
,
1001
0000
0000
0000
0000
0000
1010
0000
0000
0110
0000
0000
0000
0000
0000
1001
0000
0000
0100
0010
0001
1000
0000
0000
,
0001
0010
0100
1000
0010
1000
0001
0010
0001
0100
0010
1000
0001
0010
0100
1000
,
0010
1000
0100
0001
0100
1000
0010
0100
0001
0010
0100
1000
0010
0100
0001
1000
,
0001
1000
0010
0100
0010
0100
0001
0010
0100
1000
0010
1000
0001
0100
0001
1000
,
0100
0000
0010
0000
0001
0000
1000
0000
0100
0000
0010
0000
0001
0000
0000
0100
0000
0000
0010
0000
0000
0100
0000
0000
0001
0000
0000
0010
0000
0000
0100
0000
0000
1000
0000
0000
0100
0000
0000
0010
0000
0000
0001
0000
0000
0100
0000
0000
,
1000
0100
0010
1000
0100
1000
0010
0100
1000
0100
0010
1000
0100
1000
0010
0100
,
1000
0100
0010
1000
0100
1000
0010
0100
1000
0100
0010
1000
0100
1000
0010
0100
,
1000
0001
0010
1000
0100
1000
0010
0100
0001
0100
0010
1000
0100
1000
0010
0100
,
0001
0100
0010
1000
0100
1000
0010
0100
0001
0100
0010
1000
0100
1000
0010
0100
,
0010
1000
0100
0001
1000
0001
0100
1000
0010
1000
0100
0001
1000
0001
0100
1000
,
0010
1000
0100
0001
1000
0001
0100
1000
0010
1000
0100
0001
1000
0001
0100
1000
,
0010
0100
0010
1000
0100
1000
0010
0100
1000
0100
0010
1000
0100
1000
0010
0100
,
1000
0000
0001
0000
1000
0000
0001
0000
1000
0000
0000
0000
0000
0000
0000
0000
0000
0000
0100
0000
0010
0000
0100
0000
0010
0000
0100
0000
0000
0000
0000
0000
0000
0000
0000
0000
0001
0000
0000
1000
0000
0000
0001
0000
0000
1000
0000
0000
,
0001
0010
0100
1000
0010
0100
0001
0010
0100
1000
0010
1000
0001
0010
0100
0010
,
0001
1000
0010
0100
0001
0010
0100
0010
0001
0100
0010
0100
0001
1000
0010
1000
,
0001
1000
0010
0100
0001
1000
0100
0010
0001
1000
0001
0100
0010
1000
0001
0010
,
0001
1000
0101
0000
1001
0000
0000
0000
1001
0000
0101
0000
0000
0000
1001
0000
,
1000
0100
0010
0001
0100
0010
1000
0100
0010
0001
0100
0001
1000
0100
0010
0100
,
1000
0001
0100
0010
1000
0100
0010
0100
1000
0010
0100
0010
1000
0001
0100
0001
,
1000
0001
0100
0010
1000
0001
0010
0100
1000
0001
1000
0010
0100
0001
1000
0100
,
1000
0000
0100
0000
0010
0000
0001
0000
0000
0100
0000
0000
0010
0000
1000
0000
0100
0000
0010
0000
0001
0000
1000
0000
0100
0000
0000
0010
0000
0000
0100
0000
0000
0010
0000
0000
0001
0000
0000
0000
0000
0000
0100
0000
0000
0000
0000
0000
,
1001
0001
0010
1100
0010
1000
0101
0100
,
0011
1000
0001
0110
0010
0001
1100
0100
,
1100
0001
0010
0101
0010
0100
0011
1000
,
0110
0001
1000
0100
0010
0001
0010
0100
1000
0010
0100
0001
0010
0100
1000
0010
,
0101
1000
0101
1010
0101
0100
1001
0010
,
0101
0010
1100
0011
0100
0010
1001
0100
,
1010
0100
0101
0110
0001
1000
0110
0001
,
1010
0000
0100
0000
0101
1000
0001
0100
0010
1000
0100
0010
0001
0100
0010
0100
,
0001
0100
1001
0010
1100
0010
0101
0011
,
1000
0001
0110
0001
1001
0010
0110
0001
,
1001
0010
1010
1100
0001
0100
0011
1000
,
0110
0000
0001
0000
0010
0000
1100
0000
0001
0000
1000
0000
0001
1000
0001
0000
,
0101
1000
0100
0011
1000
0001
0110
0001
,
1100
0010
0110
0010
0101
1000
1010
0001
,
1100
0010
0100
0011
1000
0001
1010
0100
,
0011
0100
1000
0100
0010
0000
0101
0010
1000
0100
0010
0000
0001
0100
0010
1000
,
0001
0000
0100
0000
1001
0100
1000
0100
0010
0001
1000
0100
0010
0001
0100
0001
,
0010
0001
0010
0100
1000
0010
0100
0001
0010
0100
1000
0010
1000
0001
1000
0010
,
0100
0001
0100
0010
0100
0001
0010
0100
1000
0010
0100
0001
0010
0100
1000
0010
,
1001
0100
0010
0001
1100
0010
0101
1000
,
0011
1000
0100
1000
0010
0100
0010
0100
0001
0010
0001
0010
0001
0100
0010
1000
,
0001
0000
0010
0000
0100
0000
1000
0000
0000
0100
0000
0000
0010
0000
0001
0000
0010
0000
0100
0000
0000
1000
0000
0000
0100
0000
0010
0000
0001
0000
0100
0000
0010
0000
0000
0000
1000
0000
0000
0100
0000
0000
0010
0000
0000
0001
0000
0000
,
1000
0001
1000
0001
1000
0001
1000
0001
1000
0001
1000
0001
1000
0001
1000
0001
,
1001
0200
2300
3002
,
0113
1000
0100
1010
0001
0010
1100
0010
,
0101
0011
1000
0001
0110
0010
1001
0100
,
1010
0001
1000
0101
0010
0100
0011
1000
,
0110
0110
0001
0010
1001
0100
0110
0001
,
1100
0010
0001
0100
0010
1000
0001
0010
0100
1000
0010
0100
0001
0010
0100
1000
,
0001
1000
0001
0100
0010
1000
0001
0010
0100
0010
0100
1000
0001
0100
0010
1000
,
0101
0000
0000
0000
0000
0000
0010
0000
0000
0000
0000
0000
0100
0000
0000
0000
0000
0000
0101
0000
0000
0000
0000
0000
1000
0000
0000
0100
0000
0000
0010
0000
0000
0001
0000
0000
0010
0000
0000
0100
0000
0000
1000
0000
0100
0000
0010
0000
,
0001
0010
0100
1000
0100
0010
0001
0010
0100
0010
0100
1000
0010
0100
0001
1000
,
0110
0001
0010
1001
0010
0001
1100
0010
,
0101
0011
1000
0001
0110
0001
1001
0100
,
0110
1000
0001
1001
0010
1000
0101
0100
,
0011
0000
0110
0000
0001
0010
0100
1000
0001
0100
0010
1000
0001
0010
0100
1000
,
0101
0000
0001
2000
0000
0000
3200
0000
,
1301
0000
0000
0000
0000
0000
0000
0002
0000
0000
0000
0000
0203
0000
0000
0000
,
0302
0010
0100
1000
0103
0010
0200
0010
0001
0310
0100
1000
0010
0100
0001
0010
,
0100
1000
0100
0010
0100
0010
0001
0100
0010
0100
0001
0100
0010
1000
0001
1000
,
0010
1000
0001
0010
0100
0010
0001
1000
0010
0100
0001
0010
0100
1000
0010
1000
,
0001
0100
0010
0100
0001
0100
0010
0100
0010
1000
0001
1000
0010
0100
0010
1000
,
0001
0010
0100
1000
0010
0100
0001
0010
0100
1000
0001
0010
0100
1000
0010
0100
,
0001
1000
0010
0100
0010
1000
0100
0010
0001
0100
0010
1000
0100
0010
0001
0010
,
0100
1000
0010
0100
0001
1000
0100
0010
0001
0010
0100
1000
0100
0010
0001
0100
,
1001
1001
0000
1001
1001
0000
1001
1001
,
0001
1000
0100
1000
0100
1000
0100
0010
0001
0010
0001
0010
0100
1000
0010
0100
,
0001
0010
0100
1000
0010
0100
0001
0100
0020
0000
0000
0000
1030
0000
0001
0000
,
1000
0100
1000
0100
1000
0100
1000
0001
0100
0000
0000
0000
0001
0000
1000
0000
,
0100
0000
0000
1000
0000
0000
0102
0000
0000
0000
0100
0000
0103
0000
1000
0000
,
0001
0000
0000
0100
0000
0000
0001
0000
0000
0000
1000
0000
0100
0000
1000
0000
,
0001
0010
0001
0010
0001
0100
0010
1000
0010
1000
0010
0100
0001
1000
0001
1000
,
0001
0100
0010
1000
0001
0010
0100
1000
0010
0100
0001
1000
0010
0100
0001
0010
,
1001
2002
0000
3003
,
1000
0100
0010
0001
0100
0010
1000
0100
0010
0001
0100
0001
1000
0100
0010
0100
,
1000
0001
0100
0010
1000
0100
0010
0100
1000
0010
0100
0010
1000
0001
0100
0001
,
1000
0001
0100
0010
1000
0001
0010
0100
1000
0001
1000
0010
0100
0001
1000
0100
,
1000
0000
0000
0001
0000
0000
1010
0000
0000
0000
0000
0000
1001
0000
0000
0000
0000
0000
0000
0000
0000
0000
0000
0000
1001
0000
0000
0000
0000
0000
1010
0000
0000
0000
0000
0000
1000
0000
0100
0000
0010
0000
0001
0000
0000
0010
0000
0000
,
0001
0010
0100
1000
0010
0100
0001
0010
0100
1000
0010
1000
0001
0010
0100
0010
,
0001
1000
0010
0100
0001
0010
0100
0010
0001
0100
0010
0100
0001
1000
0010
1000
,
0001
1000
0010
0100
0001
1000
0100
0010
0001
1000
0001
0100
0010
1000
0001
0010
,
0001
0000
0010
0000
0100
0000
1000
0000
0000
0010
0000
0000
0100
0000
0001
0000
0010
0000
0100
0000
1000
0000
0001
0000
0010
0000
0000
0100
0000
0000
0010
0000
0000
0100
0000
0000
1000
0000
0000
0000
0000
0000
0010
0000
0000
0000
0000
0000
,
1001
1000
0100
0011
0100
0001
1010
0010
,
1100
0001
1000
0110
0100
1000
0011
0010
,
0011
1000
0100
1010
0100
0010
1100
0001
,
0110
1000
0001
0010
0100
1000
0100
0010
0001
0100
0010
1000
0100
0010
0001
0100
,
1010
0001
1010
0101
1010
0010
1001
0100
,
1010
0100
0011
1100
0010
0100
1001
0010
,
0101
0010
1010
0110
1000
0001
0110
1000
,
0101
0000
0010
0000
1010
0000
1001
0000
0100
0001
0010
0100
1000
0010
0100
0010
,
1000
0010
1001
0100
0011
0100
1010
1100
,
0001
1000
0110
1000
1001
0100
0110
1000
,
1001
0100
0101
0011
1000
0010
1100
0001
,
0110
0000
1000
0000
0100
0000
0011
0000
1000
0000
0001
0000
1000
0001
1000
0000
,
1010
0001
0010
1100
0001
1000
0110
1000
,
0011
0100
0110
0100
1010
0001
0101
1000
,
0011
0100
0010
1100
0001
1000
0101
0010
,
1100
0000
1000
0000
0100
0000
0010
0000
0001
1000
0100
0010
0001
0100
1000
0100
,
1001
0010
0100
1000
0010
0100
0001
0010
0100
1000
0001
0010
0100
1000
0010
1000
,
0100
1000
0100
0010
0001
0100
0010
1000
0100
0010
0001
0100
0001
1000
0001
0100
,
0010
1000
0010
0100
0010
1000
0100
0010
0001
0100
0010
1000
0100
0010
0001
0100
,
1001
0010
0100
1000
0011
0100
1010
0001
,
1100
0001
0010
0001
0100
0010
0100
0010
1000
0100
1000
0100
1000
0010
0100
0001
,
1000
0000
0000
0001
0000
0000
0010
0000
0000
0100
0000
0000
1000
0000
0000
0010
0000
0000
0100
0000
0000
0001
0000
0000
1000
0000
0000
0001
0000
0000
0100
0000
0000
0010
0000
0000
1000
0000
0000
0010
0000
0000
0100
0000
0001
0000
1000
0000
,
0001
1000
0001
1000
0001
1000
0001
1000
0001
1000
0001
1000
0001
1000
0001
1000
,
1001
0020
0032
2003
,
3110
0001
0010
0101
1000
0100
0011
0100
,
1010
1100
0001
1000
0110
0100
1001
0010
,
0101
1000
0001
1010
0100
0010
1100
0001
,
0110
0110
1000
0100
1001
0010
0110
1000
,
0011
0100
1000
0010
0100
0001
1000
0100
0010
0001
0100
0010
1000
0100
0010
0001
,
1000
0001
1000
0010
0100
0001
1000
0100
0010
0100
0010
0001
1000
0010
0100
0001
,
1010
0100
0010
1010
0001
0010
0100
1000
,
1000
0100
0010
0001
0010
0100
1000
0100
0010
0100
0010
0001
0100
0010
1000
0001
,
0110
1000
0100
1001
0100
1000
0011
0100
,
1010
1100
0001
1000
0110
1000
1001
0010
,
0110
0001
1000
1001
0100
0001
1010
0010
,
1100
0000
0110
0000
1000
0100
0010
0001
1000
0010
0100
0001
1000
0100
0010
0001
,
1010
0000
1000
0002
0000
0000
0023
0000
,
1031
0000
0000
0000
0000
0000
0000
2000
0000
0000
0000
0000
3020
0000
0000
0000
,
2030
0100
0010
0001
3020
0130
0020
0100
1000
0130
0010
0001
0100
0010
1000
0100
,
1001
1001
1001
1001
1001
1001
1001
1001
,
1001
0000
1001
0000
1001
1010
1100
1010
,
1001
0000
1010
1010
1010
1010
1010
1010
,
1010
0000
1010
0000
1010
1001
1100
0000
,
1001
0000
1001
1001
1001
1001
1001
1001
,
1001
0000
0011
0000
1001
0101
0011
0101
,
1001
0000
1001
1001
1001
1001
1001
1001
,
1001
0000
1010
0000
1001
1100
1001
0000
,
1001
1010
1001
1010
1001
1010
1001
1010
,
0011
1001
0011
1001
0011
1001
0011
1001
,
1010
1001
1010
1001
1010
0011
1001
0110
,
1001
0110
1001
2020
0000
0000
3030
0000
,
1001
1100
0101
0011
,
0110
0011
0110
1100
0000
0220
0000
0330
,
0001
1000
0100
1000
0001
0100
0001
0010
,
1000
0010
0001
0100
0001
0000
0100
0000
1000
0100
0001
0010
0001
0000
0010
0000
,
0100
1000
0001
0100
0001
0010
0100
0010
,
0011
1000
0100
1000
0101
0000
0000
0000
1001
0100
0010
0100
1001
0000
0000
0000
,
0011
0100
1000
0101
0010
1000
1001
0100
,
1001
0010
0001
0010
1100
0000
0001
0000
0110
1000
0001
1000
0110
0000
0001
0000
,
1001
1001
1001
1001
1001
1001
1001
1001
,
1001
1001
1001
1001
1001
1001
1001
1001
,
1010
1001
1100
1001
0000
1001
0000
0011
,
1001
0101
0011
0011
0000
0220
0000
0330
,
1001
0100
0010
0001
0010
0000
0000
0000
1001
0010
0100
1000
0100
0000
0000
0000
,
0101
1000
0010
0100
0001
0010
0100
1000
0010
0100
0001
0010
1100
0000
0000
0000
,
0011
1000
0100
0010
0001
0000
0000
0000
1001
0010
0100
1000
0100
0000
0000
0000
,
0011
1000
0001
0100
0010
1000
0001
1000
0010
0100
0001
0010
2100
0000
0000
0000
,
3001
1000
0100
1000
0001
0100
0001
0010
0100
0010
0001
1000
,
0010
1000
0001
0010
0100
1000
0010
0100
0001
0010
0100
1000
,
0010
1000
0001
0100
0001
1000
0100
1000
0001
0010
0001
0100
,
0010
1000
0100
0010
0001
0010
0100
1000
0010
0200
0000
0000
,
0301
1000
0001
1000
0100
1000
0100
1000
0100
0010
0001
0010
0100
0010
0100
1000
,
0010
0100
0001
0010
0100
1000
0010
0100
0001
0010
0100
1000
0200
0000
0000
0000
,
0310
0001
1000
0100
0010
0001
1000
0010
0100
0001
0010
0100
1000
0010
0100
0001
,
0010
0100
1000
0010
0100
0001
0010
0200
0000
0000
0000
0000
2300
0000
0000
0000
,
3001
1000
0010
0100
0001
0010
0100
1000
,
0010
0000
0100
0100
0200
0000
0000
0300
,
0001
1000
0100
1000
0001
0100
0001
0010
0100
0010
0001
1000
0010
0100
0001
0010
,
0100
1000
0010
1000
0010
1000
0010
1000
0001
0100
0001
0100
0001
0100
0010
0000
,
1001
0000
1001
0000
1001
0000
0100
1000
,
0001
0100
0001
0220
0000
0331
1000
0010
,
0101
1010
1100
0011
,
0110
0001
1000
0010
0000
0001
0100
0010
,
1000
0100
1000
0001
0000
0001
0010
1000
,
0010
0001
0100
0010
1000
0001
0020
0000
,
0031
1000
0100
1000
0001
0100
0001
0010
,
1000
0010
0001
0000
0010
0100
0010
0000
0001
1000
0001
0000
0100
0010
0100
0000
,
1001
0010
0100
0001
1000
0100
0010
0001
0100
0010
1000
0001
1000
0001
0010
0100
,
1010
0100
0010
0001
0100
0010
1000
0001
0010
0100
1000
0001
0100
0010
0100
0010
,
1001
0010
1000
0001
0010
0100
1000
0001
0100
0010
1000
0001
0010
0001
0100
0010
,
0101
0010
1000
0001
0010
0100
1000
0100
0010
0001
0100
0001
0100
0010
1000
0001
,
1100
0010
0001
0100
0010
1000
0001
0010
0001
0100
0010
1000
0010
0100
0001
0010
,
1100
0010
0001
0100
0010
1000
0001
0010
0100
1000
0001
0100
0010
1000
0001
0010
,
0101
0010
0100
1000
0010
0100
0001
1000
0001
0010
0100
1000
0001
1000
0010
0100
,
1001
0100
0010
0001
0100
0010
1000
0001
0010
0100
1000
0001
0100
1000
0100
0010
,
1001
0100
1000
0100
0010
0001
1000
0010
0100
0001
0100
0001
0010
0100
0010
0100
,
1000
0010
0100
0001
1000
0100
0010
0001
0100
0010
1000
0001
1000
0001
0010
0100
,
1000
0100
0010
0001
0100
0010
1000
0001
0010
0100
1000
0001
0100
0010
0100
0010
,
1000
0010
1000
0001
0010
0100
1000
0001
0100
0010
1000
0001
0010
0001
0100
0010
,
0100
0010
1000
0001
0010
0100
1000
0100
0010
0001
0100
0001
0100
0010
1000
0001
,
0100
0010
1000
0100
0010
0001
0010
0001
0100
0010
1000
0100
0010
0100
0010
0001
,
1000
0100
0010
0100
0010
0001
0010
0100
1000
0001
0100
0010
1000
0001
0010
0100
,
1000
0000
0000
0010
0000
0000
0100
0000
0000
0001
0000
0000
0010
0000
0000
0100
0000
0000
1000
0000
0000
0001
0000
0000
0010
0000
0100
0000
1000
0000
0001
0000
1000
0000
0001
0000
1000
0000
0000
0010
0000
0000
0100
0000
0000
0001
0000
0000
,
1000
0100
0010
0001
0100
0010
1000
0001
0010
0100
1000
0001
0100
1000
0100
0001
,
0010
0100
1000
0100
0010
0001
1000
0010
0100
0001
0100
0001
0010
0100
0010
0100
,
1000
0010
0100
0001
1000
0100
0010
0001
0100
0010
1000
0001
1000
0001
0010
0100
,
0010
0100
0010
0001
0100
0010
1000
0001
0010
0100
1000
0001
0100
0010
0100
0010
,
1000
0010
1000
0001
0010
0100
1000
0001
0100
0010
1000
0001
0010
0001
0100
0010
,
0100
0010
1000
0001
0010
0100
1000
0100
0010
0001
0100
0001
0100
0010
1000
0001
,
0100
0010
1000
0100
0010
0001
0010
0001
0100
0010
1000
0010
0100
0001
0010
0100
,
1000
0001
0100
0010
1000
0001
0010
0100
1000
0001
0100
0010
1000
0001
0010
0100
,
1001
1001
1001
1001
1001
1001
1001
1001
,
1001
0000
1001
1001
0000
1001
1001
0000
,
1001
1001
1001
1001
1001
1001
1001
1001
,
1001
0000
1001
1001
0000
1001
1001
0000
,
1001
1001
1001
1001
1001
1001
1001
1001
,
1001
0000
1001
1001
0000
1001
1001
0000
,
1001
1001
1001
1001
,
1001
0000
0000
0000
1001
0000
0000
0000
1001
0000
0001
1000
1001
0000
0000
0000
,
1000
0100
0010
0001
0100
0010
1000
0001
0010
0001
1000
0010
1000
0001
0100
0001
,
1000
0100
1000
0010
0100
0001
0010
0001
0010
0100
1000
0100
1000
0010
0100
0010
,
0100
0001
1000
0001
1000
0010
0100
0010
0100
0001
0010
0001
0010
0100
1000
0001
,
0100
0000
0010
0000
1000
0000
0001
0000
0000
0000
0000
0000
0000
0000
0000
0000
0000
0000
0001
0000
0010
0000
0100
0000
1000
0000
0000
0000
0000
0000
0000
0000
0000
0000
0000
0000
0001
0000
0000
0010
0000
0000
0100
0000
0000
1000
0000
0000
,
0010
0100
0001
1000
0100
1000
0001
0100
0001
1000
0010
1000
0001
0010
0001
0100
,
0010
1000
0100
1000
0100
0010
0001
0010
0001
0100
0010
0100
0010
1000
0001
1000
,
0001
0100
0010
0100
0010
1000
0100
1000
0100
0010
0001
0010
0100
1000
0010
0100
,
0001
0010
0100
1000
0010
1000
0001
0100
0001
0100
0001
0010
0100
0010
0001
0010
,
0100
0000
0000
1000
0100
1000
0100
0000
0000
1000
0000
0000
,
0001
0100
0001
0010
,
0100
1000
0001
1000
0010
0100
0001
0010
0100
1001
0000
0000
,
0200
1300
0001
0100
,
0001
1000
0010
0100
0001
0010
0100
1000
0010
0100
0001
0010
,
0100
0000
1000
0000
0010
0000
0100
0000
0001
0000
0010
0000
0100
0000
1000
0000
0100
0010
0001
0000
0000
0000
0000
0000
,
1000
0100
1000
0001
0100
0001
0010
0100
,
1001
0100
0010
0001
1000
0010
0100
0010
0100
0001
0010
0100
1000
0000
0000
0000
,
0001
1000
0010
0100
0001
0010
0100
1000
0010
0100
0001
0010
0200
0000
0000
0300
,
0100
1000
0010
0100
0001
0100
0001
0010
0100
0010
0100
1000
0002
0000
0000
0000
,
1003
0010
0100
0001
0010
0100
1000
0010
0100
0001
0010
0100
1000
0010
1000
0001
,
1000
0100
0010
0001
1000
0001
2000
0000
3001
0100
0001
0100
0001
0100
0002
0000
,
1003
0010
1000
0001
0000
0000
0001
0010
,
0100
0000
1000
0001
0000
0100
0001
0000
,
0001
1000
0010
0100
0000
0100
0001
0010
,
0100
1000
0000
1000
0001
1000
0001
0000
,
0010
1000
0001
0100
0000
0001
0010
1000
,
0010
0001
0100
0010
0000
0010
0100
1000
,
0100
0001
0001
1000
0100
0100
1000
0010
,
0010
1000
0001
0100
0010
1000
0001
0110
,
0001
0010
0100
1000
0010
0100
0001
0010
0100
1000
0001
0100
0010
1000
0002
0000
,
1003
0010
1000
0010
0100
0001
0100
0001
0010
0100
1000
0010
0100
0002
0000
0000
,
1003
0100
1000
0010
0100
0001
0010
0100
1000
0010
0100
0001
0010
0100
1000
0010
,
1000
0100
0001
0100
1000
0010
0100
0001
0010
0100
1000
0001
1000
0100
0010
0001
,
1010
0100
0010
0001
0100
0010
1000
0001
1100
0010
0001
0100
0010
1000
0001
0010
,
0101
0010
0100
1000
0010
0100
0001
1000
0011
1000
0001
0100
0010
1000
0001
1000
,
0110
0001
0010
0100
1000
0001
0010
0100
1001
0010
0100
0001
0010
0100
1000
0010
,
1001
0100
0010
1000
0001
0100
0010
1000
0101
0010
0100
0010
0100
1000
0001
0100
,
0010
1000
0001
1000
0010
0100
0001
0010
0100
1000
0010
0100
0001
0010
0100
1000
,
0100
0010
0001
0100
0010
0100
0001
1000
0010
0100
0010
0001
0100
0010
1000
0001
,
0010
0001
1000
0010
1000
0001
0100
0010
1000
0001
0100
0001
0010
0100
1000
0100
,
0010
0001
0100
0001
1000
0100
0010
0001
0200
0000
0000
0000
0000
0000
0000
0000
,
1300
0000
0100
0000
0010
0000
0001
0000
0000
0001
0010
0000
0100
0000
1000
0000
0010
0000
0100
0000
0001
0000
0010
0000
,
0100
1000
0010
0100
0001
0010
0200
0000
0000
0300
0000
0000
,
1000
0001
1000
0001
0100
0001
0100
0001
0100
0001
0010
0001
0010
0100
0010
0100
,
1000
0010
0100
0001
0010
0100
1000
0010
0101
0000
1001
0000
0220
0000
0000
0000
,
1331
0000
0100
1000
0001
0100
0001
0010
,
0100
0100
1000
0010
0100
0001
0010
0000
,
1100
0001
0100
0010
1001
0100
0010
0001
,
0110
0001
1000
0010
0101
0000
0000
0000
,
1001
0000
1001
0000
1001
0000
0001
0010
,
0100
1000
0010
0100
0000
0000
0001
0100
,
1000
0100
0001
0010
0100
1000
0010
0100
0001
1000
0100
0010
,
0001
0010
0100
1000
0010
0100
0002
0000
0000
0003
0000
0000
,
1000
0100
0010
0001
0010
0100
1000
0010
0100
0001
0010
0100
,
1000
0010
1000
0001
0100
0010
0100
0001
1000
0200
0000
0000
,
0320
0000
0030
0001
0002
0000
0000
1003
,
0100
0000
1000
0000
0001
0000
0100
0000
0001
0000
0010
0001
0220
0000
0000
0000
,
0331
1000
0010
0100
0001
0010
0100
1000
0010
0100
0001
0010
0100
1000
0010
1000
,
0001
1000
0001
0100
0001
0100
0001
0010
0100
0010
0100
0010
0100
0010
0001
1000
,
0010
0100
0001
0010
0100
1000
0010
0100
0001
0010
0100
1000
0010
1000
0001
0010
,
0100
0010
0001
0010
0100
1000
0001
0010
0100
1000
0010
0100
0001
1000
0100
0010
,
0001
0000
0000
1000
0000
0000
0100
0000
1000
0001
0000
0000
0001
0000
0100
0000
,
0010
0000
0000
0010
0000
0000
1000
0000
0001
1000
0000
0000
0010
0000
0010
0000
,
0010
0100
0001
1000
0000
0000
0100
0000
1000
0100
1000
0100
0000
0000
0001
0000
,
0101
0000
0000
1001
0000
0000
1100
0000
,
0101
0101
0000
0000
0001
1000
0010
0100
,
0001
0010
1000
0010
0001
0100
0010
0100
,
1000
0100
0001
0010
0100
1000
0010
0100
,
0001
1000
0100
0100
1000
0001
0100
0001
,
0001
0010
0100
0010
0001
1000
0010
0100
,
0001
1000
0010
1000
0001
0010
0100
0010
0001
1000
0010
0100
0001
0010
0100
1000
,
0001
0100
0010
0100
0001
0100
0010
1000
0001
1000
0100
0010
0001
0010
0100
1000
,
0001
1000
0010
0100
0001
0010
0100
1000
,
0010
0100
0001
0010
1001
0010
1100
0001
,
0101
0010
0100
0011
1000
0001
0110
0010
,
1001
1001
0010
0100
0101
1000
0110
0001
,
1001
0010
0100
1010
0100
1000
0011
1000
,
0101
0101
0010
0100
1000
0010
1001
0010
,
1100
0001
0101
0101
1000
0100
0011
1000
,
0110
0001
0010
0100
1001
0001
0110
0010
,
1100
0010
0101
0101
1000
0010
0100
0001
,
0010
0100
1000
0010
0100
0001
0010
0100
1000
0001
0100
0010
1001
0000
0000
0000
,
0110
0000
1001
2002
0000
3003
0101
0000
,
1010
0000
1001
0000
0000
0000
1100
0000
0000
0000
0101
0010
1000
0100
0020
0001
,
0230
0010
1300
0001
0010
0100
1000
0010
0100
0001
0110
0000
0000
0101
0000
0000
,
1010
0000
0000
2002
0000
0000
0000
0000
3003
0000
0000
0000
0000
0000
0000
0000
;
