#TITLE:Toho Mathematics;
#SUBTITLE:;
#ARTIST:IOSYS;
#TITLETRANSLIT:;
#SUBTITLETRANSLIT:;
#ARTISTTRANSLIT:;
#CREDIT:;
#BANNER:../fallback-bn.png;
#BACKGROUND:../fallback-bg.png;
#LYRICSPATH:;
#CDTITLE:;
#MUSIC:06 - Toho Mathematics - IOSYS.ogg;
#OFFSET:-0.884;
#SAMPLESTART:51.300;
#SAMPLELENGTH:14.940;
#SELECTABLE:YES;
#DISPLAYBPM:150.000;
#BPMS:0.000=150.000,58.000=120.000,60.000=110.000,62.000=95.000,62.750=130.000,63.000=150.000,64.000=150.000,388.000=98.500,391.000=83.000,393.000=75.000,394.000=60.000,394.250=45.000,394.500=28.000,394.750=24.000,395.000=12.000;
#STOPS:;
#BGCHANGES:;
// cache tags:
#FIRSTBEAT:6.500;
#LASTBEAT:395.250;
#SONGFILENAME:Songs/SSSC PACK/[Mad Matt] - Toho Mathematics/Toho Mathematics.sm;
#HASMUSIC:1;
#HASBANNER:1;
#MUSICLENGTH:168.515;
// end cache tags

//---------------dance-single - Mad Matt----------------
#NOTES:
     dance-single:
     Mad Matt:
     Challenge:
     14:
     1.000,1.000,0.237,0.326,1.000,1401.000,40.000,55.000,0.000,0.000:








0000
0000
0000
0000
,
0000
0000
0000
0000
0000
1000
0100
0010
,
0002
2003
3020
0230
,
0302
0000
0000
0000
,
1003
0010
0100
0001
1000
0001
0100
0000
0000
1010
0000
0000
0001
0100
0010
1000
0001
1000
0100
0000
0000
0011
0000
0000
,
1000
0100
0010
0100
1000
0001
0010
0000
0000
1100
0000
0000
0001
1000
0100
0010
0001
1000
0010
0000
0000
0101
0000
0000
,
1000
0100
0010
0001
1000
0001
0010
0100
1000
0001
0100
0010
1000
0010
0100
0001
,
1001
0000
0000
1010
0000
0000
0110
0000
0000
0101
0000
0000
1000
0010
0100
0010
1000
0001
1000
0100
0010
0001
0010
0100
,
1000
0010
1000
0100
0010
0001
0010
0100
1000
0010
1000
0001
0010
0001
0100
0001
,
1000
0100
1000
0001
1000
0010
0100
0010
1000
0001
1000
0100
0010
0001
0010
0100
,
1000
0001
0010
0001
0100
0001
1000
0001
0010
0100
1000
0001
1000
0100
0010
0001
,
0100
0001
1000
0001
0100
0010
1000
0001
1000
0010
1000
0100
0010
0001
0010
0100
,
1000
0001
0100
0001
0010
0001
1000
0010
1000
0001
1000
0010
0100
0010
1000
0001
,
0100
0010
1000
0100
0010
0001
0010
0100
1000
0001
1000
0010
0100
0010
1000
0010
,
1000
0001
0010
0001
1000
0100
0010
0001
0010
0100
1000
0010
0100
0001
0100
0001
,
1000
0010
1000
0100
0010
0100
0010
0001
1000
0001
0010
0001
1000
0000
0001
0000
,
0200
0000
0000
0000
0310
1000
0200
0000
,
0320
0000
0000
0000
0000
0031
0100
0010
,
2000
3200
0320
0032
,
2003
0000
0000
0000
,
3001
0100
0010
1000
0001
0100
0001
0000
0000
1010
0000
0000
0001
0100
0010
0100
0001
1000
0100
0000
0000
0011
0000
0000
,
1000
0100
1000
0001
0010
0001
1000
0000
0000
0011
0000
0000
1000
0100
0010
0001
1000
0001
0100
0000
0000
1010
0000
0000
,
1000
0001
0010
0100
0010
0001
1000
0010
0100
0010
0100
0001
1000
0100
0010
0001
,
1001
0000
0000
1001
0000
0000
0101
0000
0000
0110
0000
0000
1000
0010
0100
0001
0100
0010
1000
0001
1000
0100
0000
0000
,
1000
0010
1000
0100
1000
0010
0100
0001
0010
0001
0100
0001
1000
0001
0010
0100
,
1000
0010
1000
0100
1000
0001
1000
0100
1000
0010
0100
0001
1000
0010
1000
0100
,
0010
0100
0010
0001
1000
0001
1000
0010
1000
0010
0100
0001
0100
0001
1000
0100
,
0010
0001
0010
0001
1000
0001
0010
0001
0100
0010
1000
0010
0100
0001
0100
0010
,
1000
0100
0010
0001
1000
0100
0010
0001
0100
0001
0010
0001
1000
0001
0100
0010
,
1000
0100
0010
0001
1000
0001
0010
0100
1000
0010
0100
0010
0100
0001
1000
0100
,
1000
0001
0100
0001
1000
0001
0010
0001
1000
0100
0010
0001
0010
0100
1000
0001
,
1001
0000
1010
0000
0101
0000
0011
0000
1000
0010
0100
0001
0100
0010
1000
0100
,
1000
0100
0010
0001
1000
0100
0010
0100
0010
0001
1000
0100
1000
0001
0010
0100
,
0010
0001
0010
0100
1000
0001
1000
0100
0010
0001
1000
0001
1000
0100
0010
0001
,
0010
0100
1000
0010
1000
0100
0010
0001
1000
0100
0010
0100
0010
0001
0010
0100
,
1000
0001
0010
0100
1000
0001
0100
0010
1000
0010
1000
0001
0100
0001
0100
0010
,
2000
3000
0100
0000
0010
0000
0001
0000
0020
0030
0100
0000
0010
0000
0100
0000
2000
3000
0001
0000
1000
0000
0100
0000
2000
3000
0010
0000
1000
0000
0001
0000
,
0200
0300
0010
0000
1000
0000
0100
0000
0020
0030
0001
0000
0010
0000
0100
0000
2000
3000
0001
0000
1000
0000
0010
0000
0200
0300
0001
0000
0100
0000
0001
0000
,
2000
3000
0100
0000
1000
0000
0001
0000
0020
0030
0100
0000
1000
0000
0010
0000
2000
3000
0001
0000
0010
0000
0100
0000
2000
3000
0001
0000
0100
0000
0001
0000
,
2000
3000
0010
0000
1000
0000
0100
0000
0020
0030
0001
0000
0010
0000
0100
0000
2000
3000
0001
0000
0100
0000
0010
0000
0200
0300
0001
0000
1000
0000
0001
0000
,
2000
3000
0000
0001
0010
0100
0010
0100
1000
0001
0010
0001
1000
0010
1000
0001
0100
0010
1000
0000
0000
0001
0100
0010
,
1000
0010
0100
0001
1000
0100
1000
0001
0100
0001
1000
0001
0100
0010
0100
0001
1000
0100
1000
0001
0010
0001
1000
0100
,
0010
0001
0010
0100
0010
0001
1000
0001
0010
0001
1000
0010
0100
0001
1000
0001
1000
0100
0010
0000
0000
0001
0010
0100
,
1000
0100
0010
0001
1000
0100
1000
0001
1000
0010
0100
0001
1000
0001
0100
0010
0100
0010
1000
0001
0100
0010
1000
0001
,
0100
0001
1000
0100
1000
0001
0010
0100
1000
0001
1000
0100
0010
0001
1000
0010
1000
0010
0100
0000
0000
0001
0010
0100
,
1000
0001
0010
0001
1000
0100
0010
0001
1000
0001
0100
0010
0100
0001
1000
0100
1000
0001
0100
0010
1000
0010
0100
0001
,
0100
0010
1000
0100
1000
0001
1000
0100
0010
0001
1000
0100
1000
0001
1000
0010
0100
0010
1000
0000
0000
0001
1000
0010
,
0100
0001
1000
0001
1000
0100
0010
0001
1000
0001
0010
0100
1000
0001
0100
0001
1000
0001
0010
0100
1000
0001
1000
0010
,
2000
0000
0000
0000
0000
0000
0100
0000
0000
0000
3100
0010
0100
0000
0001
1000
,
0100
0010
0100
0010
0001
0010
0001
1000
0001
1000
0010
1000
0010
0100
0010
0100
,
0001
0010
0100
1000
0100
0010
0001
1000
0100
1000
0001
0100
0010
0100
0001
1000
,
0010
0100
0010
0100
0001
0100
0001
1000
0001
1000
0100
1000
0100
0010
0100
0010
,
0001
1000
0010
0100
0001
0100
0010
1000
0001
0010
0001
1000
0010
0100
0001
1000
,
0100
0010
0100
0010
0001
0010
0001
1000
0001
1000
0010
1000
0010
0100
0010
0100
,
0001
1000
0001
0100
0001
1000
0100
0010
0100
1000
0010
1000
0001
0010
0100
1000
,
0001
1000
0010
1000
0001
1000
0100
0010
0001
0100
0001
1000
0010
0100
0001
1000
,
0100
0010
0001
1000
0100
0010
0001
1000
0010
0100
0010
0100
0001
1000
0100
0010
,
0001
1000
0001
1000
0100
1000
0100
0010
0100
0010
0001
0010
0001
1000
0001
1000
,
0010
0100
0001
0100
0010
1000
0001
1000
0100
0010
0001
1000
0010
1000
0001
0010
,
0100
1000
0100
1000
0001
1000
0001
0100
0001
0100
0010
0100
0010
1000
0010
1000
,
0001
0010
0100
1000
0001
1000
0100
0010
0001
1000
0100
1000
0010
0100
0001
1000
,
0100
0010
0100
0010
0001
0010
0001
1000
0001
1000
0010
1000
0010
0100
0010
0100
,
0001
1000
0100
0010
0001
0100
0001
0010
0100
1000
0010
0100
0001
1000
0001
0010
,
0100
1000
0001
1000
0010
1000
0100
1000
0001
0100
0001
1000
0010
1000
0100
0010
,
0001
1000
0010
0100
0001
1000
0010
0100
0001
0010
0100
0010
0100
1000
0010
0100
,
0002
0000
0000
0000
1003
0100
0020
0000
,
0032
0000
0000
0000
0000
1003
0010
1000
,
0200
0320
0032
2003
,
3020
0000
0000
0000
,
1030
0001
0100
0010
1000
0001
1000
0000
0000
0101
0000
0000
0010
1000
0010
0100
0001
1000
0100
0000
0000
0011
0000
0000
,
0001
0010
0100
1000
0001
1000
0100
0000
0000
0011
0000
0000
1000
0100
0010
0001
1000
0001
0100
0000
0000
0101
0000
0000
,
1000
0001
0010
0100
0010
0001
1000
0010
0100
0010
0100
0001
1000
0100
0010
0001
,
1001
0000
0000
0101
0000
0000
1010
0000
0000
1100
0000
0000
0001
0010
0100
1000
0100
0010
0001
1000
0010
0100
0000
0000
,
0001
0010
0001
0100
0001
0010
0100
1000
0010
1000
0100
1000
0001
1000
0010
0100
,
0001
0010
0001
0100
0001
1000
0001
0100
0001
0010
0100
1000
0001
0010
0001
0100
,
0010
0100
0010
1000
0001
1000
0001
0010
0001
0010
0100
1000
0100
1000
0001
0100
,
0010
1000
0010
1000
0001
1000
0010
1000
0100
0010
0001
0010
0100
1000
0100
0010
,
0001
0100
0010
1000
0001
0100
0010
1000
0100
1000
0010
1000
0001
1000
0100
0010
,
0001
0100
0010
1000
0001
1000
0010
0100
0001
0010
0100
0010
0100
1000
0001
0100
,
0001
1000
0100
1000
0001
1000
0010
1000
0001
0100
0010
1000
0010
0100
0001
1000
,
1001
0000
0101
0000
1010
0000
1100
0000
0001
0100
0010
1000
0010
0100
0001
0010
,
0200
0000
0000
0000
1300
0001
0020
0000
,
0230
0000
0000
0000
0000
1300
0001
0010
,
0100
0000
0010
0000
0001
0000
1000
0100
0000
0100
1000
0000
0010
0000
0100
0000
,
0001
0000
1000
0100
0000
0100
0010
0001
1000
0000
0010
0100
0000
0100
0001
1000
,
0100
0010
0001
0010
0100
1000
0001
0000
0000
1100
0000
0000
0010
0001
0010
0100
1000
0001
0100
0000
0000
1010
0000
0000
,
0001
0100
0010
1000
0001
1000
0010
0000
0000
0101
0000
0000
0001
1000
0010
1000
0001
0010
0100
0000
0000
1100
0000
0000
,
0010
0001
0010
0100
1000
0001
1000
0010
1000
0100
0010
0001
0010
0100
1000
0001
,
1001
0000
0000
1010
0000
0000
0101
0000
0000
0011
0000
0000
1000
0100
0010
0001
1000
0001
0010
0100
1000
0001
0000
0000
,
1000
0100
1000
0010
1000
0100
0010
0001
0100
0001
0010
0001
1000
0001
0100
0010
,
1000
0100
1000
0010
1000
0001
1000
0010
1000
0100
0010
0001
1000
0100
1000
0010
,
0100
0010
0100
0001
1000
0001
1000
0100
1000
0100
0010
0001
0010
0001
1000
0010
,
0100
0001
0100
0001
1000
0001
0100
0001
0010
0100
1000
0100
0010
0001
0010
0100
,
1000
0010
0100
0001
1000
0010
0100
0001
0010
0001
0100
0001
1000
0001
0010
0100
,
1000
0010
0100
0001
1000
0001
0100
0010
1000
0100
0010
0100
0010
0001
1000
0010
,
1000
0001
0010
0001
1000
0001
0100
0001
1000
0010
1000
0001
1000
0100
1000
0001
,
0100
0010
1000
0010
0100
0001
1000
0100
0010
0001
1000
0001
0010
0100
1000
0001
,
0200
0320
2030
3200
0320
0032
2003
3020
,
0230
0000
0302
0000
2003
0000
3200
0000
0320
0000
0000
0000
0000
0030
0000
0000
;

//---------------dance-single - Expert----------------
#NOTES:
     dance-single:
     Expert:
     Hard:
     13:
     1.000,1.000,0.119,0.570,1.000,1197.000,20.000,96.000,0.000,0.000:

0000
0000
0000
0000
,
0000
0000
0000
0000
0000
1000
0100
0010
,
0002
0023
0230
2300
,
3002
0000
0000
0000
,
2003
0000
0000
0000
3010
0100
0002
0000
,
0203
0000
0320
0000
,
1030
0100
1000
0010
0100
0010
1000
0100
,
0110
0011
0110
1100
2002
0000
0000
3003
,
1000
0001
0010
0100
0010
0100
1000
0100
0010
0001
1000
0001
0010
0100
1000
0001
,
0100
0001
1000
0010
0100
0001
0100
0010
1000
0001
1000
0001
0010
0100
0010
0001
,
1000
0001
0010
0100
1000
0001
0100
0010
0100
0010
1000
0001
1000
0100
0010
0001
,
0010
0100
1000
0001
0010
0001
0100
0010
0100
0001
1000
0100
0010
0001
1000
0100
,
1000
0001
0100
0010
1000
0010
0100
0001
1000
0001
1000
0100
0010
0001
1000
0001
,
0010
0100
1000
0010
1000
0010
0100
0001
1000
0100
1000
0001
0010
0100
1000
0010
,
1000
0100
1000
0001
0100
0010
1000
0010
0100
0001
1000
0100
0010
0001
1000
0100
,
0010
0100
1000
0001
0100
0010
0100
0001
1000
0100
0010
0001
0010
0000
0100
0000
,
2000
0000
0000
0000
3010
0100
0002
0000
,
2003
0000
0000
0000
0000
3100
0010
0001
,
0020
0230
2300
3020
,
0230
0000
0000
0000
,
0302
0000
0000
0000
0103
0010
2000
0000
,
3020
0000
0230
0000
,
0301
0100
0001
0010
0100
0010
0001
1000
,
1010
0110
0101
1001
2200
0000
0000
3300
,
1000
0100
0010
0001
1000
0100
0010
0001
0100
0001
0010
0001
1000
0001
0100
0010
,
1000
0100
0010
0001
1000
0100
0010
0001
1000
0010
0100
0001
0100
0010
1000
0001
,
0100
0010
0100
0010
1000
0001
1000
0001
1000
0010
1000
0010
0100
0001
0100
0001
,
1000
0100
1000
0100
1000
0100
1000
0100
0010
0100
0010
0100
1000
0100
1000
0100
,
1000
0010
0100
0001
1000
0010
0100
0001
0010
0001
0100
0001
1000
0100
0010
0001
,
1000
0010
0100
0001
1000
0010
0100
0001
1000
0100
0010
0001
0010
0100
1000
0010
,
1000
0001
0100
0001
1000
0010
1000
0001
0010
0001
1000
0100
1000
0001
0010
0001
,
1000
0100
0010
0001
1000
0001
0010
0100
1000
0010
0100
0001
0100
0010
1000
0001
,
1000
0100
1000
0100
1000
0001
1000
0100
1000
0100
1000
0001
1000
0010
0100
0001
,
0100
0010
1000
0001
1000
0010
0100
0001
1000
0100
1000
0100
1000
0010
1000
0001
,
1000
0001
1000
0010
0100
0001
0100
0001
0100
0010
0100
0001
1000
0001
0100
0010
,
1000
0100
0010
0001
0010
0100
1000
0010
1000
0100
0010
0001
1000
0100
0010
0001
,
2000
3020
0230
0302
0023
0230
2300
3020
,
0230
0320
2030
3002
0023
0230
2300
3200
,
0320
0032
0023
0230
2300
3020
0230
0302
,
0203
0320
0230
0302
2003
3200
2300
3002
,
0023
0000
0000
0031
1000
0001
1000
0001
1000
0001
1000
0001
0100
0001
0100
0001
0100
0001
0100
0000
0000
0001
1000
0001
,
1000
0001
1000
0001
1000
0100
1000
0100
1000
0100
1000
0100
0010
0001
1000
0100
0010
0001
1000
0100
0010
0001
0010
0100
,
1000
0000
0000
0001
0100
0001
0100
0001
0100
0001
0100
0001
1000
0001
1000
0001
1000
0001
1000
0000
0000
0010
1000
0010
,
1000
0010
1000
0010
1000
0010
0100
0010
0100
0010
0100
0010
1000
0010
0100
0001
0100
0001
0100
0010
0100
0001
0100
0010
,
0100
0000
0000
0001
1000
0001
1000
0001
1000
0001
1000
0100
0010
0100
0010
0100
0010
0100
0010
0000
0000
0001
0010
0001
,
0010
0001
0010
0001
0010
0100
1000
0100
1000
0100
1000
0100
0010
0001
1000
0100
0010
0001
1000
0100
0010
0001
0010
0100
,
1000
0000
0000
0010
0100
0010
0100
0010
0100
0010
0100
0001
0100
0001
0100
0001
0100
0001
0100
0000
0000
0010
1000
0010
,
1000
0010
1000
0010
1000
0001
1000
0001
1000
0001
1000
0001
0100
0010
1000
0010
0100
0010
1000
0001
1000
0001
0010
0100
,
2000
0000
0000
0000
0000
0000
3200
0000
0000
0000
0310
0001
0010
0000
0100
1000
,
0100
0010
0001
1000
0100
0010
0001
1000
0001
0010
0100
1000
0001
0010
0100
1000
,
0001
0100
0001
0100
0010
0100
0001
0100
0001
1000
0010
0100
0001
1000
0001
1000
,
0100
0010
0001
1000
0100
0010
0001
1000
0001
0010
0100
1000
0001
0010
0100
1000
,
0010
0100
0010
0100
0001
1000
0001
1000
0010
1000
0010
1000
0010
0100
0010
0100
,
0001
0010
0100
1000
0001
0010
0100
1000
0010
1000
0100
0010
0001
1000
0100
0010
,
0001
1000
0001
1000
0010
0100
0010
0100
0001
1000
0010
0100
0001
0010
0100
1000
,
0001
0100
0010
1000
0001
0100
0010
1000
0001
0010
0100
1000
0001
0010
0100
1000
,
0001
0100
0001
0010
0001
0100
0001
1000
0010
1000
0100
1000
0001
1000
0010
0100
,
0001
0010
0100
1000
0100
0010
0001
0010
0100
1000
0100
0010
0001
0010
0100
1000
,
0001
0100
0001
0100
0010
1000
0001
1000
0001
0100
0010
1000
0001
0100
0001
0100
,
0001
0010
0100
1000
0100
0010
0001
0010
0100
1000
0100
0010
0001
0010
0100
1000
,
0001
0100
0001
0100
0010
1000
0010
1000
0010
0100
0010
0100
0001
1000
0001
1000
,
0100
0010
0100
1000
0001
0010
0100
0010
0001
0010
0100
1000
0100
0010
0100
1000
,
0001
0100
0001
0100
0001
0010
0001
0010
0100
1000
0001
1000
0001
0100
0010
1000
,
0001
0010
0100
1000
0001
0010
0100
1000
0001
0100
0010
1000
0001
0100
0010
1000
,
0001
0010
0001
0100
0001
0010
0001
1000
0100
1000
0010
1000
0001
1000
0100
0010
,
0002
0000
0000
0000
0103
0010
2000
0000
,
3002
0000
0000
0000
0000
0013
0100
1000
,
0200
0320
0032
0203
,
0320
0000
0000
0000
,
2030
0000
0000
0000
3010
0100
0002
0000
,
0203
0000
0320
0000
,
1030
0010
1000
0100
0010
0100
1000
0001
,
0101
0110
1010
1001
0022
0000
0000
0033
,
0001
0010
0100
1000
0001
0010
0100
1000
0010
1000
0100
1000
0001
1000
0010
0100
,
0001
0010
0100
1000
0001
0010
0100
1000
0001
0100
0010
1000
0010
0100
0001
1000
,
0010
0100
0010
0100
0001
1000
0001
1000
0001
0100
0001
0100
0010
1000
0010
1000
,
0001
0010
0001
0010
0001
0010
0001
1000
0100
1000
0100
0010
0100
0010
0100
0010
,
0001
0100
0010
1000
0001
0100
0010
1000
0100
1000
0010
1000
0001
0010
0100
1000
,
0001
0100
0010
1000
0001
0100
0010
1000
0001
0010
0100
1000
0100
0010
0001
0100
,
0001
1000
0010
1000
0001
0100
0001
1000
0100
1000
0001
0010
0001
1000
0100
1000
,
0001
0010
0100
1000
0001
1000
0100
0010
0001
0100
0010
1000
0010
0100
0001
1000
,
0002
0000
0000
0000
0103
0010
2000
0000
,
3002
0000
0000
0000
0000
0013
0100
1000
,
0001
0000
0100
0000
0010
0000
0100
0001
0000
0001
0010
0000
0100
0000
1000
0000
,
0100
0000
0010
0001
0000
0001
0010
0100
1000
0000
1000
0001
0000
0001
0100
0010
,
2000
0000
0000
0000
3010
0100
0002
0000
,
0203
0000
0320
0000
,
1030
0010
1000
0100
0010
0100
1000
0001
,
0101
0110
1010
1001
0022
0000
0000
0033
,
1000
0010
0100
0001
1000
0010
0100
0001
0010
0001
0100
0001
1000
0001
0010
0100
,
1000
0010
0100
0001
1000
0010
0100
0001
1000
0100
0010
0001
0010
0100
1000
0001
,
0010
0100
0010
0100
1000
0001
1000
0001
1000
0100
1000
0100
0010
0100
0010
0100
,
1000
0001
1000
0001
1000
0001
1000
0001
0100
0010
0100
0010
1000
0001
1000
0001
,
1000
0100
0010
0001
1000
0100
0010
0001
0100
0001
0010
0001
1000
0010
0100
0001
,
1000
0100
0010
0001
1000
0100
0010
0001
1000
0010
0100
0001
0100
0010
1000
0100
,
1000
0001
0010
0001
1000
0100
1000
0001
0100
0001
1000
0010
1000
0001
0100
0001
,
1000
0010
0100
0001
1000
0001
0100
0010
1000
0100
0010
0001
0010
0100
1000
0001
,
0200
0302
2003
3200
2300
3002
0023
0230
,
2300
0000
3002
0000
2003
0000
3200
0000
0320
0000
0000
0000
0000
0030
0000
0000
;
