#TITLE:Roads Of Thunder;
#SUBTITLE:Tyranny (1998);
#ARTIST:Shadow Gallery;
#TITLETRANSLIT:;
#SUBTITLETRANSLIT:;
#ARTISTTRANSLIT:;
#CREDIT:SulferDragon;
#BANNER:Roads of Thunder-banner.png;
#BACKGROUND:Roads of Thunder-bg.png;
#LYRICSPATH:;
#CDTITLE:!SulferDragon.png;
#MUSIC:Shadow_Gallery_-_Tyranny_-_09_-_Roads_Of_Thunder.mp3;
#OFFSET:0.229;
#SAMPLESTART:53.260;
#SAMPLELENGTH:12.700;
#SELECTABLE:YES;
#BPMS:0.000=120.000,103.000=123.300,105.000=120.830,107.000=120.000,252.000=120.500,256.000=120.070,306.500=118.010,308.000=120.070,312.000=120.230,326.000=122.890,328.000=120.800,329.000=119.900,352.000=120.000,554.000=119.140,558.000=142.880,558.250=120.000,588.250=115.380;
#STOPS:96.000=0.005
,96.250=0.010
,97.500=0.010
,98.000=0.010
,98.500=0.010
,98.750=0.005
,329.000=0.005
,329.250=0.010
,329.375=0.005
,588.250=0.010
,589.250=0.005
,589.375=0.005
;
#BGCHANGES:;
// cache tags:
#FIRSTBEAT:1.000;
#LASTBEAT:589.500;
#SONGFILENAME:Songs/Astronomic Metal Collection 2/(SulferDragon) Roads Of Thunder/Shadow_Gallery_-_Tyranny_-_09_-_Roads_Of_Thunder.sm;
#HASMUSIC:1;
#HASBANNER:1;
#MUSICLENGTH:295.131;
// end cache tags

//---------------dance-single - ----------------
#NOTES:
     dance-single:
     :
     Hard:
     11:
     1.000,1.000,1.000,0.190,0.862,1499.000,558.000,56.000,0.000,2.000:
0000
0000
0000
0000
1010
0100
0010
0001
1010
0100
1000
0100
1010
0100
0010
0001
,
1010
0100
0011
1010
0000
0010
0000
0010
0010
0000
1010
0000
0101
1001
0000
0001
,
0000
0001
0001
0000
1001
0000
1010
1001
0000
1000
0000
1000
1000
0000
1100
0000
,
0110
0101
0000
0100
0000
0100
0100
0000
0110
0000
1010
0011
0000
0010
0000
0010
,
0010
0000
1010
0000
0101
1001
0000
0001
0000
0001
0001
0000
1001
0000
1010
1001
,
0000
0000
1000
0000
0000
0000
1000
0000
1000
0000
0000
0000
1100
0000
0000
0000
0100
0000
0100
0010
1001
0000
0110
0000
0000
0000
0100
0000
0100
0001
1000
0001
,
0100
0000
0011
1010
0000
0010
0000
0010
0010
0000
1010
0000
0101
1001
0000
0001
,
0000
0001
0001
0000
1001
0000
1010
1001
0000
1000
0000
1000
1000
0000
1100
0000
,
0101
0000
0000
0000
0210
0300
0000
0000
0000
0000
0000
0000
0210
0300
0000
0000
0000
0000
0000
0000
2100
3000
0000
0000
0210
0300
0000
0000
0000
0000
0000
0000
0210
0300
0000
0000
0000
0000
0000
0000
1020
0030
0000
0000
0011
0000
0000
0000
0000
0000
0000
0000
0010
0000
0000
0000
0000
0000
0000
0000
0010
0000
0000
0000
,
0010
0000
0000
0000
1010
0100
0010
1000
0011
0000
0001
0000
0000
0000
0001
0000
0000
0000
0001
0000
0001
0000
0000
0000
1001
0000
0000
0000
1010
0000
1001
0000
,
0000
1000
0000
1000
1000
0000
1100
0000
0110
0101
0000
0100
0000
0100
0100
0000
,
0100
0001
1000
0010
0101
0000
0101
0000
0000
0000
0101
0000
1000
0000
0101
0000
0101
0000
0000
0000
0101
0000
0000
0000
0011
0000
0011
0000
1000
0000
0011
0000
,
0000
0011
0011
0000
0011
0000
0101
0101
0000
0101
0000
0101
0101
0000
0101
0000
,
0011
0000
0011
0000
0000
0000
0011
0000
1000
0100
0010
0001
0110
0000
0000
0000
1010
0000
0000
0000
0101
0000
0101
0000
0000
0000
0101
0000
1000
0000
0101
0000
,
0101
0000
0101
0000
0011
0011
1000
0011
0000
0011
0011
0000
0011
0000
0101
0101
,
0000
0101
0000
0101
0101
0000
0101
0000
0011
0011
0000
0011
0000
0011
0011
0000
,
0011
0000
0000
0000
1200
0300
0000
0000
0100
0000
1000
0000
0201
0300
0000
0000
0100
0000
1000
0000
0100
0000
0010
0000
0001
0000
0100
0000
1010
0000
0101
0000
,
0020
0000
0000
0000
0000
0000
0030
0000
0000
0000
0000
0000
0000
0000
0000
0000
0000
0000
0000
0000
0000
0000
0000
0000
0010
0000
0000
0000
0000
0000
0000
0000
0000
0000
0000
0000
1000
0000
0000
0000
0000
0000
0000
0000
0000
0000
0000
0000
0120
0000
0000
0000
0000
0000
0030
0000
0000
0000
0000
0000
0000
0000
0000
0000
0000
0000
0000
0000
0000
0000
0000
0000
1000
0000
0000
0000
0000
0000
0000
0000
0100
0000
0000
0000
0000
0000
0000
0000
0010
0000
0000
0000
0000
0000
0000
0000
0001
0000
0000
0000
0000
0000
0000
0000
0000
0000
0000
0000
0010
0000
0000
0000
0000
0000
0000
0000
0000
0000
0000
0000
0001
0000
0000
0000
0000
0000
0000
0000
0000
0000
0000
0000
0010
0000
0000
0000
0000
0000
0000
0000
0000
0000
0000
0000
1001
0000
0000
0000
0000
0000
0000
0000
0000
0000
0000
0000
0110
0000
0000
0000
0000
0000
0000
0000
0000
0000
0000
0000
2000
0000
0000
0000
0000
0000
3000
0000
0000
0000
0000
0000
0000
0000
0000
0000
0000
0000
0000
0000
0000
0000
0000
0000
,
1000
0000
0100
0000
2010
3000
0000
0000
0001
0000
0010
0000
0100
0000
1000
0000
0001
0000
0010
0000
0101
0000
1010
0000
0200
0300
0000
0000
0100
0000
1000
0000
,
0201
0300
0000
0000
0010
0000
0101
0000
1000
0000
0100
0000
0010
0000
0100
0000
1001
0000
0010
0000
0100
0000
1000
0000
0100
0000
0001
0000
0010
0000
0100
0000
,
1010
0000
0000
0000
0000
0000
0000
0000
0000
0000
0000
0000
1001
0000
0000
0000
0000
0000
0000
0000
0000
0000
0000
0000
0210
0000
0000
0000
0000
0000
0300
0000
0000
0000
0000
0000
0000
0000
0000
0000
0000
0000
0000
0000
0000
0000
0000
0000
0100
0000
0000
0000
0000
0000
0000
0000
0000
0000
0000
0000
1000
0000
0000
0000
0000
0000
0000
0000
0000
0000
0000
0000
0201
0000
0000
0000
0000
0000
0300
0000
0000
0000
0000
0000
0000
0000
0000
0000
0000
0000
0000
0000
0000
0000
0000
0000
1000
0000
0000
0000
0000
0000
0000
0000
0100
0000
0000
0000
0000
0000
0000
0000
0010
0000
0000
0000
0000
0000
0000
0000
1000
0000
0000
0000
0000
0000
0000
0000
0100
0000
0000
0000
0000
0000
0000
0000
0010
0000
0000
0000
0000
0000
0000
0000
0100
0000
0000
0000
0000
0000
0000
0000
0010
0000
0000
0000
0000
0000
0000
0000
0001
0000
0000
0000
0000
0000
0000
0000
1100
0000
0000
0000
0000
0000
0000
0000
0010
0000
0000
0000
1000
0000
0000
0000
0001
0000
0000
0000
0000
0000
0000
0000
,
0120
0030
0000
0000
0010
0000
1000
0000
0120
0030
0000
0000
0010
0001
0010
0100
1000
0000
0001
0000
1000
0000
0010
0000
1001
0000
0101
0000
1010
0000
0001
0000
,
0010
0100
1010
0001
0010
0100
0001
0010
0100
1000
0101
0011
1000
0100
1000
0010
,
1001
0010
0100
1001
0100
1000
0010
0100
1010
0001
0100
0010
0101
1000
0101
0010
,
0101
1100
0011
0011
0000
0011
0000
0000
0000
0000
0000
0000
0000
0000
0011
0011
,
0000
0011
0000
0011
0011
0000
1001
0000
0011
0011
0000
0011
0000
0000
0000
0000
,
0000
0000
0000
0000
0000
0000
0000
0000
0011
0000
0011
0000
0000
0000
0011
0000
0000
0000
0011
0000
0011
0000
0000
0000
1001
0100
1000
0100
0011
0000
0000
0000
,
0000
0000
0001
0010
0100
1000
0100
0010
1001
0000
0000
0000
1000
0100
0001
0010
0100
1000
0100
0010
0101
0000
0000
0000
1000
0100
0010
0000
1000
0100
1000
0010
,
1002
0000
0100
0000
,
0000
0000
0000
0000
0000
0000
0000
0000
0000
0000
0000
0000
0000
0000
0000
0000
0000
0000
0000
0000
0000
0000
0000
0000
0000
0000
0000
0000
0000
0000
0000
0000
0000
0000
0000
0000
0000
0000
0000
0000
0000
0000
0000
0000
0000
0000
0000
0000
0000
0000
0000
0000
0000
0000
0000
0000
0000
0000
0000
0000
0000
0000
0000
0000
0000
0000
0000
0000
0000
0000
0000
0000
0000
0000
0000
0000
0000
0000
0000
0000
0000
0000
0000
0000
0000
0000
0000
0000
0000
0000
0000
0000
0000
0000
0000
0000
0103
0000
0000
0000
0000
0000
0000
0000
0000
0000
0000
0000
0010
0000
0000
0000
0000
0000
0001
0000
0000
0000
0000
0000
0010
0000
0000
0000
0200
0000
0000
0000
0000
0000
0000
0000
0000
0000
0000
0000
0000
0000
0000
0000
0000
0000
0000
0000
0000
0000
0000
0000
0000
0000
0000
0000
0000
0000
0000
0000
0000
0000
0000
0000
0000
0000
0000
0000
0000
0000
0000
0000
0000
0000
0000
0000
0000
0000
0000
0000
0300
0000
0000
0000
1000
0000
0000
0000
0000
0000
0000
0000
0000
0000
0000
0000
,
0010
0001
0020
0000
0000
0000
0000
0000
0100
0000
0000
0000
0000
0000
0130
0010
,
2000
0000
0000
0000
0000
0000
0000
0000
0000
0000
0000
0000
0000
0000
0000
0000
0000
0000
0000
0000
0000
0000
0000
0000
0000
0000
0000
0000
0000
0000
0000
0000
0000
0000
0000
0000
0000
0000
0000
0000
0000
0000
0000
0000
0000
0000
0000
0000
0000
0000
0000
0000
0000
0000
0000
0000
0000
0000
0000
0000
0000
0000
0000
0000
0000
0000
0000
0000
0000
0000
0000
0000
3000
0000
0000
0000
0000
0000
0000
0000
0000
0000
0000
0000
0000
0000
0000
0000
0000
0000
0000
0000
0000
0000
0000
0000
1100
0000
0000
0000
0010
0000
0000
0000
0002
0000
0000
0000
0000
0000
0000
0000
0000
0000
0000
0000
0000
0000
0000
0000
1003
0000
0000
0000
0000
0000
0000
0000
0010
0000
0000
0000
0000
0000
0000
0000
0001
0000
0000
0000
0000
0000
0000
0000
0010
0000
0000
0000
0000
0000
0100
0000
0000
0000
0000
0000
0010
0000
0000
0000
0000
0000
0200
0000
0000
0000
0000
0000
0000
0000
0000
0000
0000
0000
0000
0000
0000
0000
0000
0000
0000
0000
0000
0000
0000
0000
0000
0000
0000
0000
0000
0000
,
2310
0000
0000
0000
0000
0000
0000
0000
0100
0000
0000
0000
0000
3000
0000
0000
,
0000
0000
0000
0000
0100
0000
0000
0000
0001
0000
0000
0000
0100
0000
0000
0000
0011
0000
1000
0100
1000
0010
0002
0000
0000
0000
0003
0010
0100
1000
0100
0010
,
0002
0000
0000
0000
0000
0000
0000
0000
0000
0000
0000
0000
0000
0000
0000
0000
0103
0000
0000
0001
0000
0000
0000
0000
0000
0000
0000
0001
0010
1000
0100
1000
,
0020
0000
0000
0000
0000
0000
0031
1000
0210
0000
0000
0000
0000
0000
0301
0010
,
0002
0000
0000
0103
0020
0000
0000
0000
0130
0000
2000
0000
0000
3001
0010
0100
,
0002
0000
0000
0000
0013
0000
0100
0000
0010
0000
1000
0000
0001
0000
0100
0000
1010
0200
0000
0000
0000
0000
0000
0000
0000
0000
0000
0000
1300
0000
0000
0000
,
0010
0100
0001
0010
0102
0000
0003
1000
,
0010
1000
0100
0001
1100
0010
0001
0200
,
0000
0000
0000
0000
0310
0002
0000
0000
0003
0000
0000
0000
0001
0000
0000
0000
1010
0000
0000
0000
0000
0000
0000
0000
1000
0000
0000
0000
0001
0000
0000
0000
,
1001
0100
1010
0001
0110
0000
1010
0010
,
1001
0100
1100
0010
1001
0010
0101
0010
,
0011
1000
0101
1000
0011
0100
1010
0000
,
1001
0100
0011
0010
1001
0100
1010
0001
,
1001
0100
0011
0010
0101
0100
1010
0000
,
1001
0010
0101
0110
1001
0010
1000
0011
,
0011
0100
1010
1100
0101
0110
0101
1000
,
1001
0010
1100
0001
1010
0001
1100
1001
,
0101
1000
0110
0010
1100
0001
1010
0011
,
1001
1000
0001
0010
1001
0010
0101
0011
,
1001
1000
0001
0100
0011
0100
1010
0000
,
1001
0100
0011
0010
1001
0100
1010
0001
,
1001
0100
0011
1010
0101
0010
1100
0000
,
1001
0100
0011
1010
1001
0010
1000
0011
,
0011
0000
0000
0000
0100
0000
0000
0000
0001
0000
0000
0000
1010
0000
0000
0000
0101
0000
0000
0000
0010
0000
0000
0000
0101
0000
0000
0000
2000
0000
0000
3000
,
2100
0001
0010
0100
,
0000
0000
0001
0000
3010
1000
0100
0100
,
1200
0001
1000
0010
0001
0000
0301
1001
,
0100
0000
1001
0000
0001
0100
1010
0101
1010
0000
0011
0000
0101
0000
1100
0000
,
0000
1000
0011
0100
1010
1100
0110
0101
,
0000
0010
1001
0100
0110
0010
1001
1000
,
0011
0010
1001
0010
0101
0011
1100
0010
,
1100
0100
1010
0001
0110
0110
1001
0010
,
0101
1000
0011
0100
1010
0010
1100
1001
,
0000
0000
0000
0000
0010
0000
0000
0000
1001
0000
0000
0000
0100
0000
0000
0000
0010
0000
0000
0000
1010
0000
0000
0000
0101
0000
1000
0000
0100
0001
1000
0000
,
0011
0001
1100
0010
0100
1100
1100
0000
,
0101
0000
1010
0000
1001
0000
1100
0010
,
0110
0000
1010
0000
1001
1100
0011
0101
,
0000
0000
0000
0000
0010
0000
0000
0000
1001
0000
0000
0000
0100
0000
0000
0000
0110
0000
0000
0000
0010
0000
0000
0000
1001
0000
0100
0000
1000
0001
0100
0000
,
0011
0010
1001
0010
0101
0011
1100
0010
,
1100
0100
1010
0001
0110
0110
1001
0010
,
0101
1000
0011
0100
1010
0010
1100
1001
,
0000
0010
1001
0100
0010
1010
0101
0100
,
0011
0000
0000
0000
0000
0000
0001
0000
0000
0000
0000
0000
1100
0000
0000
0000
0000
0000
0010
0000
0000
0000
0000
0000
1001
0000
0010
0000
0100
0000
1001
0000
0000
0010
0000
0000
1100
0000
0000
0001
0000
0000
0100
0000
0000
1000
0000
0000
,
0101
0001
0011
1000
0110
0000
1100
0001
,
1010
0000
0000
0000
1000
0000
0000
0000
0011
0000
0000
0000
0001
0010
0100
1000
0110
0000
0000
0000
1100
0000
0000
0000
0100
0000
0000
0000
0011
0000
0000
0000
,
0000
0001
1010
0010
1100
0110
1001
0010
,
0101
0000
0011
0001
1010
0100
0011
0010
,
1010
1000
0011
1000
0101
0100
0011
0010
,
0101
0010
1001
0100
1010
1000
0101
0100
,
1010
0000
0001
0000
0110
0000
0010
0000
1100
0000
0110
0000
0110
0000
0110
0110
,
1001
0000
0000
0000
0101
0000
0010
0000
1001
0000
0100
0010
0101
0000
0011
0000
,
0000
0000
0001
0000
1010
0000
0010
0000
1001
0000
0000
0010
0101
0000
0011
0000
,
0000
0000
0000
0000
0001
0000
0000
0000
1010
0000
0000
0000
1000
0000
0000
0000
0101
0000
0000
0000
0010
0100
0001
1000
0101
0000
0000
0000
0010
0000
0000
0000
,
1001
0000
0000
0000
0000
0000
0000
0000
0110
0000
0000
0000
1000
0100
0010
0001
1000
0000
0000
0000
1100
0000
0000
0000
0000
0000
0000
0000
0101
0000
0000
0000
,
0000
0000
0100
0100
0010
0000
1000
0100
,
0010
0010
0001
0010
0100
0000
0010
0000
,
0102
0000
0000
0000
0000
0000
0000
0000
0013
0001
0010
0100
1000
0000
1010
0000
,
0000
0000
0000
1001
0000
0000
0000
0000
0000
0000
0000
0000
0011
0000
0101
0000
1001
0000
0011
0000
0110
0000
1100
0000
,
0210
0000
0000
0000
0000
0000
0000
0000
0311
0011
0100
1000
0011
0000
1001
0000
,
0000
0000
0000
0000
0000
0000
0000
0000
0000
0100
0010
0001
1010
0000
0000
0000
0000
0000
0000
0000
0000
0000
0000
0000
,
0201
0000
0000
0000
0000
0000
0000
0000
0310
0001
0010
0100
1000
0000
1010
0000
,
0000
0000
0000
0101
0000
0000
0000
0000
0000
0000
0000
0000
0000
0000
0000
0000
0000
0000
0000
0000
0000
0100
0010
0001
,
1010
0000
0000
0000
0000
0000
0000
0000
0000
1000
0100
1000
0101
0000
0000
0010
0000
0000
1000
0100
1000
0101
0000
0000
,
0010
0000
0000
1000
0100
1000
0101
0000
0000
1000
0010
1000
0010
0000
0000
0101
0010
0100
0001
0010
0001
0100
0010
0001
,
0110
1000
0010
1000
0110
0001
0010
0001
0100
0010
0001
0010
1100
0110
1000
0100
,
1000
0010
0100
0010
0101
1000
0010
0001
0010
0100
0011
1001
0100
1000
0100
1000
,
0011
1000
0010
1000
0010
0001
0010
0001
1100
1010
0001
0100
0010
0001
0010
1000
,
0101
1000
0010
0100
0010
0001
0100
0010
1100
0001
0010
1100
0011
1000
0100
1000
,
0110
1000
0010
1000
0010
0001
0010
0001
1100
0010
1000
0010
0001
0010
0100
0001
,
0110
1000
0010
0001
1100
0101
1100
0101
1000
0100
1000
0010
1001
0100
0001
0100
,
0010
0001
0100
1000
0101
1010
1001
0000
0000
0000
1001
0110
1000
0100
1010
0000
,
0000
0000
0011
1100
0010
1000
0101
1010
1100
0100
0100
0000
0000
0000
0100
0100
,
0100
0000
0010
0000
0100
0100
0100
0000
0000
0000
0100
0100
0100
0000
0012
0003
,
0100
0100
0100
0000
0000
0000
0100
0100
0100
0000
0010
0000
0100
0100
0100
0000
,
0000
0000
0100
0100
0101
0000
0012
0003
0100
0100
0100
0000
0000
0000
0100
0100
,
0100
0000
1010
0000
0100
0100
0100
0000
0000
0000
0100
0100
0100
0000
0012
0003
,
0100
0100
0100
0000
0000
0000
0100
0100
0100
0000
1020
0030
0100
0100
0100
0000
,
0000
0000
0000
0000
0000
0000
0100
0000
0010
0000
0100
0000
1010
0000
0000
0000
0000
0000
0012
0000
0000
0003
0000
0000
1100
0000
0000
1000
0000
0000
1000
0000
0000
0000
0000
0000
0101
0000
0000
0000
0000
0000
1000
0000
0000
1000
0000
0000
,
1010
0000
0200
0300
1001
1000
1000
0000
0010
0000
1000
1000
1001
0000
0020
0030
,
1100
1000
1000
0000
0101
0000
1000
1000
1010
0000
0200
0300
1001
1000
1000
0000
,
0010
0000
0000
0000
0000
0000
0100
0000
0010
0000
0100
0000
1010
0000
0000
0000
0000
0000
0021
0000
0000
0030
0000
0000
1100
0000
0000
1000
0000
0000
1000
0000
0000
0000
0000
0000
0101
0000
0000
0000
0000
0000
1000
0000
0000
1000
0000
0000
,
1010
0000
0200
0300
1001
1000
1000
0000
0010
0000
1000
1000
1001
0000
0020
0030
,
1100
1000
1000
0000
0101
0000
1000
1000
1010
0000
0200
0300
1001
1000
1000
0000
,
0010
0000
0000
0000
1000
0001
1000
0000
1010
0000
0000
0000
0021
0000
0030
0000
1001
0000
0100
0000
0010
0000
0100
0000
1001
0000
0010
0000
1000
0000
0100
0000
,
1000
0100
0010
0100
1001
0010
1000
0100
1000
0100
0010
0100
1001
0010
1000
0100
,
1000
0100
0010
0100
1001
0010
1100
0001
1000
0001
1100
0010
0001
0010
0100
0001
,
1000
0001
1100
0010
0001
0010
0100
0001
1000
0001
1100
0010
0001
0010
0100
0001
,
0100
1000
0110
0001
0010
1000
0101
0000
0011
0100
0010
0100
1001
0010
1000
0100
,
1000
0100
0010
0100
1001
0010
1000
0100
1000
0100
0010
0100
1001
0010
1000
0100
,
1000
0100
0010
0100
1001
0010
1100
0001
1000
0001
1100
0010
0001
0010
0100
0001
,
1000
0001
1100
0010
0001
0010
0100
0001
1000
0001
1100
0010
0001
0010
1100
0001
,
0100
1000
0110
0001
1010
0100
0011
0000
0011
0000
1000
0000
0011
0000
0100
0000
,
1010
1100
0110
0101
0000
0010
1001
0100
,
0110
0000
0000
0000
0010
0000
0000
0000
1001
0000
0100
0000
1000
0001
0100
0000
0011
0000
0000
0000
0010
0000
0000
0000
1001
0000
0000
0000
0010
0000
0000
0000
,
0101
0011
1100
0010
1100
0100
1010
0001
,
0110
0110
1001
0010
0101
1000
0011
0100
,
1010
0000
0000
0000
0010
1000
0001
0010
1100
0000
0000
0000
1001
0000
0000
0000
0000
0000
0000
0000
0010
0000
0000
0000
1001
0000
0000
0000
0100
0000
0000
0000
,
0010
0000
0000
0000
1010
0000
0000
0000
0101
0000
1000
0000
0100
0001
1000
0000
0011
0000
0000
0000
0001
0000
0000
0000
1100
0000
0000
0000
0010
0000
0000
0000
,
0100
1100
1100
1000
0101
0000
1010
0000
,
1001
0000
1100
0010
0110
1000
0011
0100
,
1010
1100
0110
0101
0000
0010
1001
0100
,
0110
0000
0000
0000
0010
0000
0000
0000
1001
0000
0100
0000
1000
0001
0100
0000
0011
0000
0000
0000
0010
0000
0000
0000
1001
0000
0000
0000
0010
0000
0000
0000
,
0101
0011
1100
0010
1100
0100
1010
0001
,
0110
0110
1001
0010
0101
1000
0011
0100
,
1010
0000
1010
0001
1100
0010
1001
0000
0000
0000
0010
0000
1001
0000
0100
0000
,
0010
0000
0000
0000
1010
0000
0000
0000
0101
0000
1000
0000
0100
0001
1000
0000
0011
0000
0000
0000
0001
0000
0000
0000
1100
0000
0000
0000
0010
0000
0000
0000
,
1001
0000
0000
0000
0000
0000
0000
0000
0010
0000
0000
0000
0000
0000
0000
0000
0100
0000
0000
0000
0000
0000
0000
0000
1001
0000
0000
0000
0000
0000
0000
0000
0000
0000
0000
0000
0010
0000
0000
0000
0000
0000
0000
0000
0000
0000
0000
0000
1100
0000
0000
0000
0000
0000
0000
0000
0000
0000
0000
0000
0001
0000
0000
0000
0000
0000
0000
0000
0000
0000
0000
0000
0100
0000
0000
0000
0000
0000
0000
0000
0000
0000
0000
0000
1000
0000
0000
0000
0000
0000
0000
0000
0000
0000
0000
0000
0101
0000
0000
0000
0000
0000
0000
0000
0000
0000
0000
0000
0000
0000
0000
0000
0000
0000
0000
0000
0000
0000
0000
0000
0001
0000
0000
0000
0000
0000
0000
0000
0000
0000
0000
0000
0000
0000
0000
0000
0000
0000
0000
0000
0000
0000
0000
0000
0011
0000
0000
0000
0000
0000
0000
0000
0000
0000
0000
0000
0000
0000
0000
0000
0000
0000
0000
0000
0000
0000
0000
0000
1000
0000
0000
0000
0000
0000
0000
0000
0000
0000
0000
0000
0001
0000
0000
0000
0000
0000
1000
0000
0000
0000
0000
0000
,
0110
0000
0000
0000
0000
0000
0000
0000
1100
0000
0000
0000
0001
0000
0100
0001
1010
0000
0100
0000
0010
0000
0100
0000
1001
0000
0010
0000
1000
0000
0100
0000
,
1000
0100
0010
0100
1001
0010
1000
0100
1000
0100
0010
0100
1001
0010
1000
0100
,
1000
0100
0010
0100
1001
0010
1100
0001
1000
0001
1100
0010
0001
0010
0100
0001
,
1000
0001
1100
0010
0001
0010
0100
0001
1000
0001
1100
0010
0001
0010
0100
0001
,
0100
1000
0110
0001
0010
1000
0101
0000
0011
0100
0010
0100
1001
0010
1000
0100
,
1000
0100
0010
0100
1001
0010
1000
0100
1000
0100
0010
0100
1001
0010
1000
0100
,
1000
0100
0010
0100
1001
0010
1100
0001
1000
0001
1100
0010
0001
0010
0100
0001
,
1000
0001
1100
0010
0001
0010
0100
0001
1000
0001
1100
0010
0001
0010
1100
0001
,
0100
0000
0000
0000
1000
0000
0000
0000
0110
0000
0000
0000
0000
0000
0000
0000
1010
0000
0000
0000
0000
0000
0000
1000
0011
0000
0000
0000
0000
0000
0000
0000
0000
0000
0000
0000
0000
0000
0000
0000
0000
0000
0000
0000
0000
0000
0000
0000
0000
0000
0000
0000
0000
0000
0000
0000
0000
0000
0000
0000
0000
0000
0000
0000
;

//---------------dance-single - ----------------
#NOTES:
     dance-single:
     :
     Challenge:
     12:
     1.000,1.000,1.000,0.288,0.884,1535.000,652.000,85.000,0.000,119.000:
0000
0000
0000
0000
1010
0100
0010
0001
1010
0100
1000
0100
1010
0100
0010
0001
,
1010
0100
1011
1010
0000
0010
0000
0010
0010
0000
1010
0000
0101
1001
0000
0001
,
0000
0001
0001
0000
1001
0000
1010
1001
0000
1000
0000
1000
1000
0000
1100
0000
,
0110
0101
0000
0100
0000
0100
0100
0000
0110
0000
1011
0011
0000
0010
0000
0010
,
0010
0000
1010
0000
0101
1001
0000
0001
0000
0001
0001
0000
1001
0000
1010
1001
,
0000
0000
1000
0000
0000
0000
1000
0000
1000
0000
0000
0000
1100
0000
0000
0000
0100
0000
0100
0010
1001
0000
0110
0000
0000
0000
0100
0000
0100
0001
1000
0001
,
0100
0000
0011
1010
0000
0010
0000
0010
0010
0000
1011
0000
1101
1001
0000
0001
,
0000
0001
0001
0000
1001
0000
1010
1001
0000
1000
0000
1000
1000
0000
1101
0000
,
0101
0000
0000
0000
0210
0300
0000
0000
0000
0000
0000
0000
0210
0300
0000
0000
0000
0000
0000
0000
2100
3000
0000
0000
0210
0300
0000
0000
0000
0000
0000
0000
0210
0300
0000
0000
0000
0000
0000
0000
1021
0030
0000
0000
0011
0000
0000
0000
0000
0000
0000
0000
0010
0000
0000
0000
0000
0000
0000
0000
0010
0000
0000
0000
,
0010
0000
0000
0000
1010
0100
0010
1000
0011
0000
0001
0000
0000
0000
0001
0000
0000
0000
0001
0000
0001
0000
0000
0000
1001
0000
0000
0000
1010
0000
1001
0000
,
0000
1000
0000
1000
1000
0000
1100
0000
0110
0101
0000
0100
0000
0100
0100
0000
,
0100
0001
1000
0010
1101
0000
0101
0000
0000
0000
0101
0000
1010
0000
0101
0000
0101
0000
0000
0000
0101
0000
0000
0000
0011
0000
0011
0000
1100
0000
0011
0000
,
0000
0011
0011
0000
0011
0000
1101
0101
0000
0101
0000
0101
0101
0000
1101
0000
,
0011
0000
0011
0000
0000
0000
0011
0000
1000
0001
0010
0100
1011
0000
0000
0000
1010
0000
0000
0000
1101
0000
0101
0000
0000
0000
0101
0000
1010
0000
0101
0000
,
0101
0000
0101
0000
0011
0011
1100
0011
0000
0011
0011
0000
0011
0000
1101
0101
,
0000
0101
0000
1101
1101
0000
1101
0000
0011
0011
0000
0011
0000
1011
1011
0000
,
0011
0000
0000
0000
1201
0300
0000
0000
0100
0000
1000
0000
0201
0300
0000
0000
0100
0000
1000
0000
0100
0000
0010
0000
0001
0000
0100
0000
1010
0000
0101
0000
,
0020
0000
0000
0000
0000
0000
0030
0000
0000
0000
0000
0000
0000
0000
0000
0000
0000
0000
0000
0000
0000
0000
0000
0000
0010
0000
0000
0000
0000
0000
0000
0000
0000
0000
0000
0000
1000
0000
0000
0000
0000
0000
0000
0000
0000
0000
0000
0000
0120
0000
0000
0000
0000
0000
0030
0000
0000
0000
0000
0000
0000
0000
0000
0000
0000
0000
0000
0000
0000
0000
0000
0000
1000
0000
0000
0000
0000
0000
0000
0000
0100
0000
0000
0000
0000
0000
0000
0000
0010
0000
0000
0000
0000
0000
0000
0000
0001
0000
0000
0000
0000
0000
0000
0000
0000
0000
0000
0000
0010
0000
0000
0000
0000
0000
0000
0000
0000
0000
0000
0000
0001
0000
0000
0000
0000
0000
0000
0000
0000
0000
0000
0000
0010
0000
0000
0000
0000
0000
0000
0000
0000
0000
0000
0000
1001
0000
0000
0000
0000
0000
0000
0000
0000
0000
0000
0000
0110
0000
0000
0000
0000
0000
0000
0000
0000
0000
0000
0000
2000
0000
0000
0000
0000
0000
3000
0000
0000
0000
0000
0000
0000
0000
0000
0000
0000
0000
0000
0000
0000
0000
0000
0000
,
1000
0000
0100
0000
2010
3000
0000
0000
0001
0000
0010
0000
0100
0000
1000
0000
0001
0000
0010
0000
0101
0000
1010
0000
0200
0300
0000
0000
0100
0000
1000
0000
,
0201
0300
0000
0000
0010
0000
0101
0000
1000
0000
0100
0000
0010
0000
0100
0000
1001
0000
0010
0000
0100
0000
1000
0000
0110
0000
0001
0000
1010
0000
0100
0000
,
1010
0000
0000
0000
0000
0000
0000
0000
0000
0000
0000
0000
1001
0000
0000
0000
0000
0000
0000
0000
0000
0000
0000
0000
0210
0000
0000
0000
0000
0000
0300
0000
0000
0000
0000
0000
0000
0000
0000
0000
0000
0000
0000
0000
0000
0000
0000
0000
0100
0000
0000
0000
0000
0000
0000
0000
0000
0000
0000
0000
1000
0000
0000
0000
0000
0000
0000
0000
0000
0000
0000
0000
0201
0000
0000
0000
0000
0000
0300
0000
0000
0000
0000
0000
0000
0000
0000
0000
0000
0000
0000
0000
0000
0000
0000
0000
1000
0000
0000
0000
0000
0000
0000
0000
0100
0000
0000
0000
0000
0000
0000
0000
0010
0000
0000
0000
0000
0000
0000
0000
1000
0000
0000
0000
0000
0000
0000
0000
0100
0000
0000
0000
0000
0000
0000
0000
0010
0000
0000
0000
0000
0000
0000
0000
0100
0000
0000
0000
0000
0000
0000
0000
0010
0000
0000
0000
0000
0000
0000
0000
0001
0000
0000
0000
0000
0000
0000
0000
1100
0000
0000
0000
0000
0000
0000
0000
0010
0000
0000
0000
1000
0000
0000
0000
0001
0000
0000
0000
0000
0000
0000
0000
,
0120
0030
0000
0000
0010
0000
1000
0000
0120
0030
0000
0000
0010
0001
0010
0100
1000
0000
0001
0000
1000
0000
0010
0000
1001
0000
0101
0000
1010
0000
0001
0000
,
0010
0100
1010
0001
0010
0100
0001
0010
0100
1000
0101
0011
1000
0100
1000
0010
,
1001
0010
0100
1001
0100
1000
0010
0100
1010
0001
0100
0010
0101
1000
0101
0010
,
0101
1100
0111
0111
0000
0111
0000
0000
0000
0000
0000
0000
0000
0000
0111
0111
,
0000
0111
0000
0111
0111
0000
1101
0000
0111
0111
0000
0111
0000
0000
0000
0000
,
0000
0000
0000
0000
0000
0000
0000
0000
0111
0000
0111
0000
0000
0000
0111
0000
0000
0000
0111
0000
0111
0000
0000
0000
1011
0100
1000
0100
1011
0000
0000
0000
,
0000
0000
0001
0010
0100
1000
0100
0010
1001
0000
0000
0000
1000
0100
0001
0010
0100
1000
0100
0010
1101
0000
0000
0000
1000
0100
0010
0000
1000
0100
1000
0010
,
1102
0000
0000
1000
1010
0000
0000
0100
,
0100
0000
0000
0000
0000
0000
0000
0000
0000
0000
0000
0000
0000
0000
0000
0000
0000
0000
0000
0000
0000
0000
0000
0000
0000
0000
0000
0000
0000
0000
0000
0000
0000
0000
0000
0000
0000
0000
0000
0000
0000
0000
0000
0000
0000
0000
0000
0000
0000
0000
0000
0000
0000
0000
0000
0000
0000
0000
0000
0000
0000
0000
0000
0000
0000
0000
0000
0000
0000
0000
0000
0000
1000
0000
0000
0000
0000
0000
0000
0000
0000
0000
0000
0000
0000
0000
0000
0000
0000
0000
0000
0000
0000
0000
0000
0000
1103
0000
0000
0000
0000
0000
0000
0000
0000
0000
0000
0000
0010
0000
0000
0000
0000
0000
0001
0000
0000
0000
0000
0000
0010
0000
0000
0000
0200
0000
0000
0000
0000
0000
0000
0000
0000
0000
0000
0000
0000
0000
0000
0000
0000
0000
0000
0000
0000
0000
0000
0000
0000
0000
0000
0000
0000
0000
0000
0000
0000
0000
0000
0000
0000
0000
0000
0000
0000
0000
0000
0000
0010
0000
0000
0000
0000
0000
0000
0000
0300
0000
0000
0000
1000
0000
0000
0000
0000
0000
0000
0000
0000
0000
0000
0000
,
0110
0001
0020
0000
0000
0000
1000
0000
1001
0000
0000
0000
0000
0000
1130
0010
,
2100
0000
0000
0000
0000
0000
0000
0000
0000
0000
0000
0000
0000
0000
0000
0000
0000
0000
0000
0000
0000
0000
0000
0000
0000
0000
0000
0000
0000
0000
0000
0000
0000
0000
0000
0000
0000
0000
0000
0000
0000
0000
0000
0000
0000
0000
0000
0000
0000
0000
0000
0000
0000
0000
0000
0000
0000
0000
0000
0000
0000
0000
0000
0000
0000
0000
0000
0000
0000
0000
0000
0000
3100
0000
0000
0000
0000
0000
0000
0000
0000
0000
0000
0000
0000
0000
0000
0000
0000
0000
0000
0000
0000
0000
0000
0000
1100
0000
0000
0000
0010
0000
0000
0000
0002
0000
0000
0000
0000
0000
0000
0000
0000
0000
0000
0000
0000
0000
0000
0000
1003
0000
0000
0000
0000
0000
0000
0000
0010
0000
0000
0000
0000
0000
0000
0000
0001
0000
0000
0000
0000
0000
0000
0000
0010
0000
0000
0000
0000
0000
0100
0000
0000
0000
0000
0000
0010
0000
0000
0000
0000
0000
0200
0000
0000
0000
0000
0000
0000
0000
0000
0000
0000
0000
0000
0000
0000
0000
0000
0000
0000
0000
0000
0000
0000
0000
0000
0000
0000
0000
0000
0000
,
2311
0000
0000
0000
0000
0000
0100
0000
0101
0000
0000
0000
0000
3000
0010
0000
,
0010
0000
0000
0000
0100
0000
0000
0000
0001
0000
0000
0000
1100
0000
0000
0000
0101
0000
1000
0100
1000
0010
0002
0000
0000
0000
0003
0010
0100
1000
0100
0010
,
1002
0000
0000
0000
0000
0000
0000
0000
0000
0000
0000
0000
1000
0000
0000
0000
1013
0000
0000
0001
0000
0000
0000
0000
0000
0000
0000
0001
0110
1000
0100
1000
,
0120
0000
0000
0000
0000
0000
0131
1000
0210
0000
0000
0000
0000
0000
0301
0010
,
1002
0000
0000
0103
0020
0000
0100
0000
0131
0000
2000
0000
0000
3001
1010
0100
,
1002
0000
0000
0000
0013
0000
0100
0000
0010
0000
1000
0000
0011
0000
0100
0000
1010
0200
0000
0000
0000
0000
0000
0000
0000
0000
0000
0000
1301
0000
0000
0000
,
0011
0100
0001
1010
1002
0000
0003
1010
,
0011
1000
0100
1001
1100
0010
0001
1200
,
1001
0000
0000
0000
0310
0002
0000
0000
0003
0000
0000
0000
0001
0000
0000
0000
1010
0000
0000
0000
0000
0000
0000
0000
1000
0000
0000
0000
0001
0000
0000
0000
,
1001
0100
1010
0001
0110
0000
1010
0010
,
1001
0100
1100
0010
1001
0010
0101
0010
,
0011
1000
0101
1000
0011
0100
1010
0000
,
1001
0100
0011
0010
1001
0100
1010
0001
,
1001
0100
0011
0010
0101
0100
1010
0000
,
1001
0010
0101
0110
1001
0010
1000
0011
,
0011
0100
1010
1100
0101
0110
0101
1000
,
1101
0010
1100
0001
1010
0001
1100
1001
,
0101
1000
0110
0010
1100
0001
1010
0011
,
1001
1000
0001
0010
1001
0010
0101
0011
,
1001
1000
0001
0100
0011
0100
1010
0000
,
1001
0100
0011
0010
1001
0100
1010
0001
,
1001
0100
0011
1010
0101
0010
1100
0000
,
1001
0100
0011
1010
1001
0010
1000
0011
,
0011
0000
0000
0000
0100
0000
0000
0000
0001
0000
0000
0000
1010
0000
0000
0000
0101
0000
0000
0000
0010
0000
0000
0000
0101
0000
0000
0000
2000
0000
0000
3000
,
2100
0000
0001
0100
0011
0000
0100
0010
,
0010
0000
0001
0100
3011
1000
0100
1100
,
1200
0001
1000
1010
0011
0000
0301
1011
,
0100
0000
1001
0000
0001
0100
1010
0101
1010
0000
0111
0000
1101
0000
1100
0000
,
0000
1000
0011
0100
1010
1100
0110
0101
,
0000
0010
1001
0100
0110
0010
1001
1000
,
0011
0010
1001
0010
0101
0011
1100
0010
,
1100
0100
1010
0001
0110
0110
1001
0010
,
1101
1000
0011
0100
1010
0010
1100
1011
,
0000
0000
0000
0000
0000
0000
0000
0000
0000
0000
0000
0000
0000
0000
0000
0000
0000
0000
0000
0000
0000
0000
0000
0000
0010
0000
0000
0000
0000
0000
0000
0000
0000
0000
0000
0000
0000
0000
0000
0000
0000
0000
0000
0000
0000
0000
0000
0000
1001
0000
0000
0000
0000
0000
0000
0000
0000
0000
0000
0000
0000
0000
0000
0000
0000
0000
0000
0000
0100
0000
0000
0000
0012
0000
0000
0000
0000
0000
0000
0000
0000
0000
0000
0000
0000
0000
0000
0000
0000
0000
0000
0000
0000
0000
0000
0000
1000
0000
0000
0000
0000
0000
0000
0000
0000
0000
0000
0000
0000
0000
0000
0000
0000
0000
0003
0000
0000
0000
0000
0000
1020
0000
0000
0000
0000
0000
0000
0000
0000
0000
0000
0000
0000
0000
0000
0000
0000
0000
0030
0000
0000
0000
0000
0000
0101
0000
0000
0000
0000
0000
0000
0000
0000
0000
0000
0000
1000
0000
0000
0000
0000
0000
0000
0000
0000
0000
0000
0000
0100
0000
0000
0000
0000
0000
0001
0000
0000
0000
0000
0000
1000
0000
0000
0000
0000
0000
0000
0000
0000
0000
0000
0000
,
0011
0001
1100
0010
0100
1100
1100
0000
,
1101
0000
1010
0000
1011
0000
1100
0010
,
1110
0000
1010
0000
1001
1100
0011
0101
,
0000
0000
0000
0000
0000
0000
0000
0000
0000
0000
0000
0000
0000
0000
0000
0000
0000
0000
0000
0000
0000
0000
0000
0000
0010
0000
0000
0000
0000
0000
0000
0000
0000
0000
0000
0000
0000
0000
0000
0000
0000
0000
0000
0000
0000
0000
0000
0000
1001
0000
0000
0000
0000
0000
0000
0000
0000
0000
0000
0000
0000
0000
0000
0000
0000
0000
0000
0000
0100
0000
0000
0000
0012
0000
0000
0000
0000
0000
0000
0000
0000
0000
0000
0000
0000
0000
0000
0000
0000
0000
0000
0000
0000
0000
0000
0000
0110
0000
0000
0000
0000
0000
0000
0000
0000
0000
0000
0000
0000
0000
0000
0000
0000
0000
0003
0000
0000
0000
0000
0000
0020
0000
0000
0000
0000
0000
0000
0000
0000
0000
0000
0000
0000
0000
0000
0000
0000
0000
0030
0000
0000
0000
0000
0000
1001
0000
0000
0000
0000
0000
0000
0000
0000
0000
0000
0000
0100
0000
0000
0000
0000
0000
0000
0000
0000
0000
0000
0000
1000
0000
0000
0000
0000
0000
0001
0000
0000
0000
0000
0000
0100
0000
0000
0000
0000
0000
0000
0000
0000
0000
0000
0000
,
0011
0010
1001
0010
0101
0011
1100
0010
,
1100
0100
1010
0001
0110
0110
1001
0010
,
1101
1000
0011
0100
1010
0010
1100
1011
,
0000
0010
1001
0100
0010
1010
0101
0100
,
0011
0000
0000
0000
0000
0000
0001
0000
0000
0000
0000
0000
1100
0000
0000
0000
0000
0000
0010
0000
0000
0000
0000
0000
1001
0000
0010
0000
0100
0000
1001
0000
0000
0010
0000
0000
1100
0000
0000
0001
0000
0000
0100
0000
0000
1000
0000
0000
,
0111
0001
0011
1000
1110
0000
1100
0001
,
1011
0000
0000
0000
1000
0000
0000
0000
0011
0000
0000
0000
0011
0100
1000
0001
0110
0000
0000
0000
1101
0000
0000
0000
0100
0000
0000
0000
1011
0000
0000
0000
,
0000
0001
1010
0010
1100
0110
1011
0010
,
0101
0000
1011
0011
1010
0110
0011
0010
,
1010
1010
1011
1100
0101
0110
1011
0011
,
0101
1010
1011
0110
1010
1010
1101
0101
,
1010
0000
1001
0000
0110
0000
1010
0000
1100
0000
0111
0000
0111
0000
0111
0110
,
1101
0000
1010
0010
0101
0000
1010
0010
1001
0000
0110
1010
0101
0000
1021
0000
,
0000
0000
1031
0001
1010
0000
0110
0010
1001
0000
0010
1010
0101
0000
1021
0000
,
0000
0000
0000
0000
1031
0000
0001
0000
1010
0000
0000
0000
0110
0000
0010
0000
0101
0000
0000
0000
0110
0001
1000
0010
0101
0000
0000
0000
0010
0000
0000
0000
,
1101
0000
0000
0000
0000
0000
0000
0000
0110
0000
0000
0000
1000
0100
0010
0001
1100
0000
0000
0000
1101
0000
0000
0000
0000
0000
0000
0000
1021
0000
0000
0000
,
0000
0000
0130
0100
0020
0000
1030
0100
,
0010
0010
0001
0010
0200
0000
0320
0000
,
0132
0000
0000
0000
0000
0000
0000
0000
0013
0001
0010
0100
1000
0000
1010
0000
,
0000
0000
0000
1001
0000
0000
0000
0000
0000
0000
0000
0000
1011
0000
0101
0000
1001
0100
0011
0000
0110
0000
1100
0000
,
0210
0000
0000
0000
0000
0000
0000
0000
0311
0011
0100
1000
0011
0000
1001
0000
,
0000
0000
0000
0000
0000
0000
0000
0010
0000
0002
0000
0000
0000
0000
0000
0000
0000
0000
1000
0000
0010
0000
0100
0000
1010
0000
0000
0000
0000
0000
0000
0000
0000
0000
0000
0000
0000
0000
0000
0000
0000
0000
0003
0000
0000
0000
0000
0000
,
0201
0000
0000
0000
0000
0000
0000
0000
0310
0001
0010
0100
1000
0000
1010
0000
,
0000
0000
0000
0000
0000
0000
0102
0000
0000
0000
0000
0000
0000
0000
0000
0000
0000
0000
0000
0000
0000
0000
0000
0000
0000
0000
0000
0000
0000
0000
0000
0000
0000
0000
0000
0000
0000
0000
0000
0000
0000
0000
1000
0000
0010
0003
0100
0000
,
1020
0000
0000
0000
0000
0000
0000
0000
0000
1030
0100
1000
0101
0000
0000
0010
0000
0000
1000
0100
1000
0101
0000
0000
,
0010
0000
0000
1000
0100
1000
0101
0000
0000
1000
0010
1000
0010
0000
0000
0101
0010
0100
0001
0010
0001
0100
0010
0001
,
0110
1000
0010
1000
0110
0001
0010
0001
0100
0010
0001
0010
1100
0110
1000
0100
,
1000
0010
0100
0010
0101
1000
0010
0001
0010
0100
0011
1001
0100
1000
0100
1000
,
0011
1000
0010
1000
0010
0001
0010
0001
1100
1010
0001
0100
0010
0001
0010
1000
,
0101
1000
0010
0100
0010
0001
0100
0010
1100
0001
0010
1100
0011
1000
0100
1000
,
0110
1000
0010
1000
0010
0001
0010
0001
1100
0010
1000
0010
0001
0010
0100
0001
,
0110
1000
0010
0001
1100
0101
1100
0101
1000
0100
1000
0010
1001
0100
0001
0100
,
0010
0001
0100
1000
0101
1010
1101
0000
0000
0000
1001
0110
1000
0100
1011
0000
,
0000
0000
0011
1100
0010
1000
0101
1010
1100
0100
0100
0000
0000
0000
0100
0100
,
0100
0000
0010
0000
0100
0100
0100
0000
0000
0000
0100
0100
0100
0000
1022
0033
,
0100
0100
0100
0000
0000
0000
0100
0100
0100
0000
0010
0000
0100
0100
0100
0000
,
0000
0000
0100
0100
0101
0000
1022
0033
0100
0100
0100
0000
1000
0000
0100
0100
,
0100
0000
1010
0000
0100
0100
0100
0000
1000
0000
0100
0100
0100
0000
1022
0033
,
0100
0100
0100
0000
1000
0000
0100
0100
0100
0000
1020
0030
0100
0100
0100
0000
,
1000
0000
0000
0000
0000
0000
0100
0000
0010
0000
0100
0000
1010
0000
0000
0000
0000
0000
1022
0000
0000
0033
0000
0000
1100
0000
0000
1000
0000
0000
1000
0000
0000
0000
0000
0000
0101
0000
0000
0000
0000
0000
1000
0000
0000
1000
0000
0000
,
1010
0000
0200
0300
1001
1000
1000
0000
0010
0000
1000
1000
1001
0000
0022
0033
,
1100
1000
1000
0000
0101
0000
1000
1000
1010
0000
0200
0300
1001
1000
1000
0000
,
0010
0000
0000
0000
0000
0000
0100
0000
0010
0000
0100
0000
1010
0000
0000
0000
0000
0000
1022
0000
0000
0033
0000
0000
1100
0000
0000
1000
0000
0000
1000
0000
0000
0000
0000
0000
0101
0000
0000
0000
0000
0000
1000
0000
0000
1000
0000
0000
,
1010
0000
0200
0300
1001
1000
1000
0000
0010
0000
1000
1000
1001
0000
0022
0033
,
1100
1000
1000
0000
0101
0000
1000
1000
1010
0000
0200
0300
1001
1000
1000
0000
,
0010
0000
0000
0000
1000
0001
1000
0000
1010
0000
0000
0000
1022
0000
0033
0000
1011
0000
0100
0000
0010
0000
0100
0000
1001
0000
0010
0000
1000
0000
0100
0000
,
1001
0100
0010
0100
1001
0010
1000
0100
1001
0100
0010
0100
1001
0010
1000
0100
,
1001
0100
0010
0100
1001
0010
1100
0001
1000
0001
1100
0010
0001
0010
1100
0001
,
1000
0001
1100
0010
0001
0010
1100
0001
1000
0001
1100
0010
0001
0010
1100
0001
,
0100
1000
0110
0001
0010
1000
0101
0000
1011
0100
0010
0100
1001
0010
1000
0100
,
1001
0100
0010
0100
1001
0010
1000
0100
1001
0100
0010
0100
1001
0010
1000
0100
,
1001
0100
0010
0100
1001
0010
1100
0001
1000
0001
1100
0010
0001
0010
1100
0001
,
1000
0011
1100
0010
0001
0010
1100
0001
1000
0001
1100
0010
0001
0010
1100
0001
,
0100
1000
0110
0001
1010
0100
0011
0000
1011
0000
1000
0000
0011
0000
0100
0000
,
1010
0000
0000
0000
0000
0000
1100
0000
0000
0000
0000
0000
0110
0000
0000
0000
0000
0000
1101
0000
0000
0000
0000
0000
0000
0000
0000
0000
0000
0000
0010
0000
0000
0000
0000
0000
1001
0000
0000
0000
0000
0100
0012
0000
0000
0000
0000
0000
,
0110
0000
0000
0003
0020
0000
0000
0030
1001
0000
0100
0000
1000
0001
0100
0000
0011
0000
0000
0000
0010
0000
0000
0000
1001
0000
0000
0000
0010
0000
0000
0000
,
0101
0011
1100
0010
1100
0100
1010
0001
,
0110
0110
1001
0010
1101
1000
0011
0100
,
1010
0000
0000
0000
0110
0001
1000
0010
1100
0000
0000
0000
1011
0000
0000
0000
0000
0000
0000
0000
0010
0000
0000
0000
1001
0000
0000
0000
0012
0000
0000
0000
,
0010
0000
0000
0003
1020
0000
0000
0030
0101
0000
1000
0000
0100
0001
1000
0000
0011
0000
0000
0000
0001
0000
0000
0000
1100
0000
0000
0000
0010
0000
0000
0000
,
0100
1100
1100
1000
1101
0000
1010
0000
,
1011
0000
1100
0010
0111
1000
0011
0100
,
1010
1100
0110
1101
0000
0010
1001
0012
,
0110
0000
0000
0003
0020
0000
0000
0030
1001
0000
0100
0000
1000
0001
0100
0000
0011
0000
0000
0000
0010
0000
0000
0000
1001
0000
0000
0000
0010
0000
0000
0000
,
0101
0011
1100
0010
1100
0100
1010
0001
,
0110
0110
1001
0010
1101
1000
0011
0100
,
1010
0000
0000
0000
0000
0000
1010
0000
0000
0001
0000
0000
1100
0000
0000
0010
0000
0000
1101
0000
0000
0000
0000
0000
0000
0000
0000
0000
0000
0000
0010
0000
0000
0000
0000
0000
1001
0000
0000
0000
0000
0100
0012
0000
0000
0000
0000
0000
,
0010
0000
0000
0003
1020
0000
0000
0030
0101
0000
1000
0000
0100
0001
1000
0000
0011
0000
0000
0000
0001
0000
0000
0000
1100
0000
0000
0000
0010
0000
0000
0000
,
1001
0000
0000
0000
0000
0000
0000
0000
0010
0000
0000
0000
0000
0000
0000
0000
0100
0000
0000
0000
0000
0000
0000
0000
1001
0000
0000
0000
0000
0000
0000
0000
0000
0000
0000
0000
0010
0000
0000
0000
0000
0000
0000
0000
0000
0000
0000
0000
1100
0000
0000
0000
0000
0000
0000
0000
0000
0000
0000
0000
0001
0000
0000
0000
0000
0000
0000
0000
0000
0000
0000
0000
0100
0000
0000
0000
0000
0000
0000
0000
0000
0000
0000
0000
1000
0000
0000
0000
0000
0000
0000
0000
0000
0000
0000
0000
0111
0000
0000
0000
0000
0000
0000
0000
0000
0000
0000
0000
0000
0000
0000
0000
0000
0000
0000
0000
0000
0000
0000
0000
0001
0000
0000
0000
0000
0000
0000
0000
0000
0000
0000
0000
0000
0000
0000
0000
0000
0000
0000
0000
0000
0000
0000
0000
0011
0000
0000
0000
0000
0000
0000
0000
0000
0000
0000
0000
0000
0000
0000
0000
0000
0000
0000
0000
0000
0000
0000
0000
1000
0000
0000
0000
0000
0000
0000
0000
0000
0000
0000
0000
0001
0000
0000
0000
0000
0000
0100
0000
0000
0000
0000
0000
,
1011
0000
0000
0000
0000
0000
0000
0000
1100
0000
0000
0000
0001
0000
1000
0010
1101
0000
0100
0000
0010
0000
0100
0000
1001
0000
0010
0000
1000
0000
0100
0000
,
1001
0100
0010
0100
1001
0010
1000
0100
1001
0100
0010
0100
1001
0010
1000
0100
,
1001
0100
0010
0100
1001
0010
1100
0001
1000
0001
1100
0010
0001
0010
1100
0001
,
1000
0001
1100
0010
0001
0010
1100
0001
1000
0001
1100
0010
0001
0010
1100
0001
,
0100
1000
0110
0001
0010
1000
0101
0000
0011
0100
0010
0100
1001
0010
1000
0100
,
1001
0100
0010
0100
1001
0010
1000
0100
1001
0100
0010
0100
1001
0010
1000
0100
,
1001
0100
0010
0100
1001
0010
1100
0001
1000
0001
1100
0010
0001
0010
1100
0001
,
1000
0001
1100
0010
0001
0010
1100
0001
1000
0011
1100
0010
0001
0010
1100
0001
,
0100
0000
0000
0000
0010
0000
0000
0000
1101
0000
0000
0000
0000
0000
0000
0000
1110
0000
0000
0000
0000
0000
0000
1000
0011
0000
0000
0000
0000
0000
0000
0000
0000
0000
0000
0000
0000
0000
0000
0000
0000
0000
0000
0000
0000
0000
0000
0000
0000
0000
0000
0000
0000
0000
0000
0000
0000
0000
0000
0000
0000
0000
0000
0000
;
