#TITLE:SPEEDCORE SUNDAY;
#SUBTITLE:;
#ARTIST:INTERRUPT VECTOR;
#TITLETRANSLIT:;
#SUBTITLETRANSLIT:;
#ARTISTTRANSLIT:;
#CREDIT:;
#BANNER:SPEEDCORE SUNDAY.png;
#BACKGROUND:SPEEDCORE SUNDAY-bg.png;
#LYRICSPATH:;
#CDTITLE:;
#MUSIC:SPEEDCORE SUNDAY.ogg;
#OFFSET:-0.587;
#SAMPLESTART:30.587;
#SAMPLELENGTH:12.000;
#SELECTABLE:YES;
#BPMS:0.000=200.000;
#STOPS:;
#BGCHANGES:;
// cache tags:
#FIRSTBEAT:0.000;
#LASTBEAT:465.750;
#SONGFILENAME:Songs/hard shit/SPEEDCORE SUNDAY2/SPEEDCORE SUNDAY.sm;
#HASMUSIC:1;
#HASBANNER:1;
#MUSICLENGTH:105.000;
// end cache tags

//---------------dance-single - ----------------
#NOTES:
     dance-single:
     :
     Hard:
     10:
     1.000,1.000,0.629,0.305,0.600,872.000,66.000,32.000,0.000,7.000:
1000
0100
0010
0001
0010
0001
0010
1000
,
1000
0100
0010
0001
0010
1000
0001
1000
,
0010
0100
0010
0001
1000
0000
1001
0000
,
1000
1000
0010
0001
0100
0010
1000
0000
,
0001
1000
0100
0010
0100
0000
0011
0000
,
0100
0001
0100
0010
0100
0000
0010
0100
,
0010
0100
1000
0001
1000
0000
0110
0000
,
1000
0000
0100
0000
0010
0000
0001
0000
0010
0000
0000
0000
0110
0000
0001
1000
,
0100
0010
0010
0100
1000
0000
1001
0000
,
1000
0100
0001
1000
0010
0001
1000
0100
,
0010
0001
0100
0010
0100
0010
0100
1000
,
1000
0001
1000
0000
1000
0000
1000
0000
0010
0000
0000
0000
0110
0000
0000
0000
,
0001
0000
0110
0000
0000
0010
0100
0010
,
0000
0000
0110
0000
0011
0000
0001
1000
,
0011
0000
0110
0000
0100
0010
0101
0001
,
1000
0001
0100
0010
1000
0100
0010
0001
,
1000
0000
0011
0000
0100
0100
0011
0000
,
0000
0000
1001
0000
0100
0010
0011
0100
,
1000
0000
0100
0010
0100
0000
1000
0000
0001
0000
1000
0001
1000
0000
0010
0000
,
0100
0011
0110
0110
,
1000
0100
1000
0100
1000
0010
1000
0100
,
0001
0000
0100
0000
0010
0100
0010
0000
0001
0000
0001
0000
1000
0000
0000
0000
,
0001
0100
0010
0100
0010
0001
1000
0010
,
0001
1000
0100
0010
0001
1000
0100
0010
0001
0000
0000
0000
1100
0000
0000
0000
,
2002
0000
0100
0000
0000
3003
0000
0000
,
0000
0000
0000
2200
,
0000
0010
3301
0000
,
1000
0100
0010
0001
0100
0010
0000
2000
,
0000
0010
3001
0100
1000
0001
0100
0020
,
0000
1030
0100
0010
0001
0010
0100
0200
,
0000
0301
1000
0100
0010
0100
0010
0002
,
0000
1003
0010
0100
0100
0000
0010
0100
,
2000
0000
0100
0000
0010
3000
0100
0000
0001
0000
1000
0000
0010
0000
0200
0000
,
0000
0301
1000
0010
0100
0110
0001
2200
,
3300
0010
0001
0100
0010
0100
0010
0002
,
0000
0103
0010
1000
0100
0010
0001
0100
,
1000
0000
0000
0100
0000
0100
0010
0001
0000
0010
0100
0001
,
0100
0000
1000
0100
0000
0001
0100
0010
1000
0010
0000
0001
,
1000
0010
0100
0001
0000
0000
1000
0001
0000
0010
0100
0000
,
0010
0001
0000
0100
0000
0001
0100
0000
0000
1000
0000
0000
,
0000
0100
1000
0100
1000
0100
0010
0200
0000
0300
0000
0000
0000
0000
0000
0000
,
0000
0100
0010
0100
0010
0100
0001
0020
0000
0030
0000
0000
1000
0000
0010
0001
,
0010
0000
0100
0000
0010
0000
0100
2000
0000
0000
3000
0000
0010
0000
0000
0000
,
0100
0000
0001
0000
0010
0001
0000
0002
0000
0000
0003
0000
0100
0000
0001
0000
,
0000
0100
0010
0001
0000
0000
0010
0022
0000
0000
0033
0000
0000
0010
0001
0000
,
0010
0000
0100
0000
0010
0000
0000
0010
0000
0000
0000
0000
0000
0000
0001
0000
,
0010
0000
0100
0000
0100
0000
0001
2002
0000
0000
0000
3003
0000
0000
0100
0000
,
0010
0000
0100
0000
0100
0000
0001
2000
0000
0000
0000
3000
0010
0000
0100
0000
,
0010
0000
0001
1000
0010
0100
0010
0020
0000
0000
0000
0030
0000
0000
0000
0000
,
1000
0010
0010
0100
0010
0100
0010
0100
,
0010
1000
1000
0010
0010
0100
0010
0100
,
0100
0010
0100
0001
0100
0100
0001
0100
,
0010
0100
1000
0010
0001
0010
0100
0001
,
0100
0100
0010
0100
0010
0100
0010
0100
,
0010
0000
0001
0000
1000
0000
0001
0000
1000
0000
0010
0000
0100
0000
0001
1000
,
0010
0000
0100
0000
0010
0010
0010
1000
,
1100
1100
1100
1100
1100
1100
1100
1100
,
0011
0011
0011
0011
0011
0011
0011
0011
,
1000
0000
0010
0100
0000
0000
0010
1000
0010
1000
0010
1000
0010
1000
0010
1000
,
0100
1000
0100
1000
0100
1000
0100
1000
0000
0000
0110
0000
0110
0000
0110
0000
,
1100
0000
0110
0000
0000
0001
0010
0000
,
0110
0000
0011
0000
0000
1000
0100
0000
,
1001
0000
0011
0000
0000
0100
0010
0000
,
0011
0000
1100
0000
1000
0000
0100
0010
,
0001
0010
0100
0010
0100
0010
0100
0010
,
0001
1000
1000
0000
0100
0010
0001
0100
,
0010
0010
0001
1000
0001
1000
0010
0001
,
0010
0001
0010
1000
1000
0001
0100
0100
,
1000
0100
0010
0001
0100
0010
0100
0010
,
1000
0010
0001
0100
0010
0100
1000
0010
,
0100
0100
1000
0010
0100
0001
0010
1000
,
0100
0100
1000
0010
0001
0100
0010
1000
,
1000
0100
0010
0100
0010
0100
1000
0010
,
0010
0100
0010
1000
0010
0001
0100
0010
,
0010
0010
1000
0010
0010
1000
0100
0001
,
0100
0100
1000
1000
0001
0001
0100
0100
,
1000
0000
0100
0000
0001
0000
0100
0010
,
0000
1000
0100
0100
,
2000
0000
0200
0000
,
0020
0000
0000
0000
0002
0000
0000
3333
,
0100
0000
0010
0000
0100
0000
0001
0100
,
0000
1000
0100
0000
,
0020
0000
0200
0000
,
0002
0000
0000
0000
2000
0000
0000
3333
,
1000
0001
1000
0001
1000
0001
1000
0001
1000
0001
0000
0000
0001
0100
0001
0100
,
0001
0000
0011
0000
0110
0110
0110
0010
,
0001
0000
0010
0100
0000
0000
0000
1000
0100
1000
0001
1000
0001
1000
0001
1000
,
0001
1000
0010
1000
0010
1000
0010
1000
0010
0000
1100
0000
1100
0000
1100
0000
,
0100
0010
0100
0010
0100
0010
0100
0010
,
0110
1000
0100
0010
0001
0100
0010
0100
,
1000
0010
0001
0100
0010
0001
0100
1000
,
0001
1000
0001
1000
1001
0001
0001
0001
,
0010
0100
0010
0100
0010
0100
0010
0100
0010
0000
0001
1000
0001
1000
0100
1000
,
0001
0000
0011
0000
0110
0110
0100
0000
,
0100
0000
0010
1000
0000
0000
1000
0100
1000
0100
1000
0100
1000
0001
1000
0001
,
1000
0001
1000
0100
1000
0100
1000
0100
0010
1000
0010
0000
0010
0000
0110
0000
,
1000
0100
1000
0001
1000
0010
1000
1000
,
0001
0010
0001
0001
0010
0001
0010
0001
,
0010
0001
0010
0010
0100
0100
1000
1000
,
0100
0010
0100
0010
0100
0010
0100
0010
,
1000
0000
0100
0000
0001
1000
0001
0000
0010
0000
0100
0000
0010
0000
0100
0000
,
0001
0010
0100
1000
0010
0100
0010
0001
,
1000
0100
0010
0001
0010
0100
0010
0100
,
1000
0100
0010
0001
0010
1000
0001
1000
,
0001
1000
0010
1000
0100
1000
0100
0001
,
0010
0100
0010
0100
0001
0010
0010
0001
,
0001
0010
0001
0001
0001
0010
0001
0001
,
0100
0000
0100
0000
0001
0000
0100
0000
0100
0000
0001
0000
0100
0000
0010
0100
,
0010
0100
0010
0100
0010
0100
0010
0100
0010
0100
0010
0100
0010
0100
0010
0100
,
0010
1000
0010
1000
0010
1000
0010
1000
0010
1000
0010
1000
0010
1000
0010
0000
,
1000
0001
1000
0001
1000
0001
1000
0001
1000
0001
1000
0001
1000
0001
1000
0000
,
0001
0010
0001
0010
0001
0010
0001
0010
0001
0010
0001
0010
0001
0010
0001
0010
,
1000
1000
0010
0010
0001
0001
0010
0010
,
0100
0100
0010
0010
0100
1000
0010
1000
,
1000
0000
0010
0001
0010
0000
1000
0000
0010
0000
0100
0000
0010
0000
0100
0000
,
0001
0000
1000
0000
0001
0000
1000
0000
0001
0000
1000
0000
0001
0200
0000
0000
,
0000
0000
0000
0000
0000
0000
0000
0300
0000
0000
0000
0000
0000
0000
0000
0000
;

//---------------dance-single - Copied from----------------
#NOTES:
     dance-single:
     Copied from:
     Challenge:
     12:
     1.000,1.000,0.952,0.324,1.000,1062.000,100.000,34.000,0.000,7.000:
1000
0000
0100
0000
0010
0000
0001
0000
0010
0000
0001
0000
0010
0000
1000
0001
,
1000
0000
0100
0000
0010
0000
0001
0000
0010
0000
1000
0010
0001
0000
1000
0100
,
0010
0100
0010
0001
1000
0000
1001
0000
,
1000
0000
1000
0000
0010
0000
0001
0000
0100
0000
0010
0000
1000
0001
0000
0100
,
0001
1000
0100
0010
0100
0000
0011
0000
,
0100
0000
0001
0000
0100
0000
0010
0000
0100
0000
0000
0000
0010
0000
0100
0001
,
0010
0100
1000
0001
1000
0000
0110
0000
,
1000
0000
0100
0000
0010
0000
0001
0000
0010
0000
0000
0000
0110
0000
0001
1000
,
0100
0010
0010
0100
1000
0000
1001
0000
,
1000
0100
0001
1000
0010
0001
1000
0100
,
0010
0001
0100
0010
0100
0010
0100
1000
,
1000
0001
1000
0010
1000
0100
1000
0000
0010
0000
0000
0000
0110
0000
0000
0000
,
0001
0000
0110
0000
0000
0010
0100
0010
,
0000
0000
0110
0000
0011
0000
0001
1000
,
0011
0000
0110
0000
0100
0010
0101
0001
,
1000
0001
0100
0010
1000
0100
0010
0001
,
1000
0000
0011
0000
0100
0110
0011
0000
,
0000
0000
1001
0000
0110
0010
0011
0100
,
1000
0000
0100
0010
0100
0000
1000
0000
0001
0000
1000
0001
1000
0000
0010
0000
,
0100
0000
0011
0000
0110
0011
0110
0000
,
1000
0100
1000
0100
1000
0010
1000
0100
,
0001
0000
0100
0000
0010
0100
0010
0000
0001
0000
0001
0000
1000
0000
0000
0000
,
0001
0100
0010
0100
0010
0001
1000
0010
,
0001
1000
0100
0010
0001
1000
0100
0010
0001
0000
0000
0000
1100
0000
0000
0000
,
2002
0000
0100
0000
0000
3003
0000
0000
,
0000
0000
0000
2200
,
0000
0010
3301
0000
,
1000
0100
0010
0001
0100
0010
0000
2000
,
0000
0010
3001
0100
1000
0001
0100
0020
,
0000
1030
0100
0010
0001
0010
0100
0200
,
0000
0301
1000
0100
0010
0100
0010
0002
,
0000
0000
1003
0000
0010
0000
0100
0010
0100
0000
0000
0000
0010
0000
0100
0000
,
2000
0000
0100
0000
0010
3000
0100
0000
0001
0000
1000
0000
0010
0000
0200
0000
,
0000
0301
1000
0010
0100
0110
0001
2200
,
3300
0010
0001
0100
0010
0100
0010
0002
,
0000
0103
0010
1000
0100
0010
0001
0100
,
1000
0100
0001
0100
1000
0100
0010
0001
0100
0010
0100
0001
,
0100
0010
1000
0100
0010
0001
0100
0010
1000
0010
0100
0001
,
1000
0010
0100
0001
0100
0100
1000
0001
0100
0010
0100
0000
,
0010
0001
1000
0100
0010
0001
0100
0010
0100
1000
0010
0100
,
0000
0100
1000
0100
1000
0100
0010
0200
0000
0300
0000
0000
0000
0000
0000
0000
,
0000
0100
0010
0100
0010
0100
0001
0020
0000
0030
0000
0100
1000
0100
0010
0001
,
0010
0100
0010
0100
0010
0001
0100
2000
0000
0000
3000
0001
0010
0100
0000
1000
,
0100
0010
0001
0100
0010
0001
0000
0002
0000
0000
0003
1000
0100
0010
0001
0010
,
0000
0100
0010
0001
0000
0100
0010
0022
0000
0000
0033
0000
0100
0010
0001
0000
,
0010
0100
0010
0100
0010
0100
0110
0220
0000
0000
0000
0330
0000
1000
0001
0100
,
0010
0000
0100
1000
0100
0010
0001
2002
0000
0000
0000
3003
0000
1000
0100
0010
,
0100
0010
0100
1000
0100
0010
0001
2000
0000
0000
0000
3000
0010
0100
0010
0100
,
0010
0100
0001
1000
0010
0100
0010
0020
0000
0000
0000
0030
0000
0000
0000
0000
,
1000
0100
0010
0001
0010
0100
0010
0100
0010
0100
0010
0100
0010
0100
0010
0100
,
0010
0001
1000
0001
1000
0001
0010
0001
0010
0001
0100
0001
0010
0001
0100
0001
,
0100
0001
0010
0001
0100
0010
0001
0010
0100
1000
0100
0010
0001
0010
0100
1000
,
0010
0100
0010
0100
0010
0100
0010
0100
0010
0100
0010
1000
0100
0010
0001
0010
,
0100
1000
0100
0010
0100
0010
0100
0010
0100
0010
0100
0010
0100
0010
0100
0010
,
0100
0010
0001
1000
0001
1000
0001
1000
0001
1000
0010
0100
0010
0100
0001
1000
,
0010
0000
0100
0000
0010
0010
0010
1000
,
1100
1100
1100
1100
1100
1100
1100
1100
,
0011
0011
0011
0011
0011
0011
0011
0011
,
1000
0000
0010
0100
0000
0000
0010
1000
0010
1000
0010
1000
0010
1000
0010
1000
,
0100
1000
0100
1000
0100
1000
0100
1000
0000
0000
0110
0000
0110
0000
0110
0000
,
1100
0000
0110
0000
0000
0001
0010
0000
,
0110
0000
0011
0000
0000
1000
0100
0000
,
1001
0000
0011
0000
0000
0100
0010
0000
,
0011
0000
1100
0000
1000
0000
0100
0010
,
0001
0010
0100
0010
0100
0010
0100
0010
,
0001
1000
1000
0000
0100
0010
0001
0100
,
0010
0100
0010
0000
1000
0100
1000
0000
1000
0001
1000
0000
0010
0100
0010
0000
,
0010
0001
0010
0000
0010
0100
0010
0000
1000
0001
1000
0000
0100
0010
0100
0000
,
1000
0100
0010
0001
0100
0010
0100
0010
,
1000
0010
0001
0100
0010
0100
1000
0010
,
0100
0010
0100
0000
1000
0010
1000
0000
0100
0010
0001
0000
0010
0100
1000
0000
,
0100
0010
0100
0000
1000
0100
0010
0000
0001
0010
0100
0000
0010
0100
1000
0000
,
1000
0100
0010
0100
0010
0100
1000
0010
,
0010
0100
0010
1000
0010
0001
0100
0010
,
0010
0100
0010
0000
1000
0100
0010
0000
0010
0100
1000
0000
0100
0010
0001
0000
,
0100
0010
0100
0000
1000
0001
1000
0000
0001
1000
0001
0000
0100
0010
0100
0000
,
1000
0000
0100
0000
0001
0000
0100
0010
,
0000
1000
0100
0100
,
2000
0000
0200
0000
,
0020
0000
0000
0000
0002
0000
0000
3333
,
0100
0000
0010
0000
0100
0000
0001
0100
,
0000
1000
0100
0000
,
0020
0000
0200
0000
,
0002
0000
0000
0000
2000
0000
0000
3333
,
1000
0001
1000
0001
1000
0001
1000
0001
1000
0001
0000
0000
0001
0100
0001
0100
,
0001
0000
0011
0000
0110
0110
0110
0010
,
0001
0000
0010
0100
0000
0000
0000
1000
0100
1000
0001
1000
0001
1000
0001
1000
,
0001
1000
0010
1000
0010
1000
0010
1000
0010
0000
1100
0000
1100
0000
1100
0000
,
0110
0110
0110
0110
0110
0110
0110
0110
,
0110
1000
0100
0010
0001
0100
0010
0100
,
1000
0010
0001
0100
0010
0001
0100
1000
,
1000
1000
1000
1000
1001
0001
0001
0001
,
0010
0100
0010
0100
0010
0100
0010
0100
0110
0000
0001
1000
0001
1000
0100
1000
,
0001
0000
0011
0000
0110
0110
0100
0000
,
0100
0000
0010
1000
0000
0000
1000
0100
0010
0001
0010
0100
1000
0001
1000
0001
,
1000
0001
1000
0100
1000
0100
1000
0100
0010
1000
0010
0000
0010
0000
0110
0000
,
1100
1100
1100
1100
1100
1100
1100
1100
,
0011
0011
0011
1001
0011
1001
0011
1001
,
0010
0001
0011
0010
0100
1100
1000
1000
,
0100
0100
0100
0100
0110
0100
0110
0100
,
1000
0000
0100
0000
0001
1000
0001
0000
0010
0000
0100
0010
0100
0010
0100
0000
,
0001
0000
0010
0000
0100
0000
1000
0100
0010
0100
0010
0100
0010
0100
0001
0000
,
1000
0000
0100
0000
0010
0000
0001
0000
0010
0000
0100
0010
0100
0010
0100
0000
,
1000
0000
0100
0000
0010
0000
0001
0000
0010
0000
1000
0001
1000
0001
1000
0000
,
1000
0001
1000
0001
0010
0100
1000
0010
1000
0100
1000
0010
0100
0010
0001
0100
,
0010
1000
0100
1000
0010
1000
0100
1000
0001
0100
0010
1000
0010
0100
0001
1000
,
0001
0100
0010
0100
0001
1000
0001
1000
0001
1000
0010
0100
0001
1000
0001
0010
,
0100
1000
0100
0010
0001
0010
0100
1000
0100
0010
0001
0010
0100
1000
0010
0100
,
0010
0100
0010
0100
0010
0100
0010
0100
0010
0100
0010
0100
0010
0100
0010
0100
,
0010
1000
0010
1000
0010
1000
0010
1000
0010
1000
0010
1000
0010
1000
0010
0000
,
1000
0001
1000
0001
1000
0001
1000
0001
1000
0001
1000
0001
1000
0001
1000
0000
,
0001
0010
0001
0010
0001
0010
0001
0010
0001
0010
0001
0010
0001
0010
0001
0010
,
1000
0100
1000
0000
0010
0100
0010
0000
0001
1000
0001
0000
0010
0100
0010
0000
,
0100
1000
0100
0000
0010
0001
0010
0000
0100
0001
1000
0000
0010
0100
1000
0000
,
1000
0100
0010
0001
0010
0100
1000
0010
0100
0010
0100
0010
0100
0010
0100
0010
,
0001
1000
0001
1000
0001
0100
0001
0100
0001
0100
0001
0100
0001
0200
0000
0000
,
0000
0000
0000
0000
0000
0000
0000
0300
0000
0000
0000
0000
0000
0000
0000
0000
;
