#TITLE:The legend of 桜;
#SUBTITLE:;
#ARTIST:RevenG vs. Jihnsius;
#TITLETRANSLIT:The legend of SAKURA;
#SUBTITLETRANSLIT:;
#ARTISTTRANSLIT:;
#CREDIT:;
#BANNER:LOSham.png;
#BACKGROUND:LOSham-bg.png;
#LYRICSPATH:;
#CDTITLE:!title.png;
#MUSIC:LOSham.mp3;
#OFFSET:-0.031;
#SAMPLESTART:64.300;
#SAMPLELENGTH:12.000;
#SELECTABLE:YES;
#BPMS:0.000=310.000,63.000=300.000,191.000=145.000,193.000=140.000,195.000=135.000,197.000=130.000,199.000=125.000,200.000=120.000,201.000=115.000,201.500=110.000,202.000=105.000,202.500=100.000,203.000=95.000,203.250=90.000,203.500=85.000,203.750=80.000,204.000=75.000,204.250=70.000,204.500=65.000,204.750=60.000,208.625=150.001,229.000=153.001,238.500=150.001,239.000=145.001,239.500=140.001,240.000=135.001,240.500=110.001,241.000=150.001,241.250=200.001,241.500=240.001,241.750=280.001,242.000=310.000,402.000=300.000,402.500=290.000,403.000=280.000,403.500=270.000,404.000=260.000,404.500=250.000,405.000=240.000,405.500=230.000,406.000=220.000,406.500=200.000,406.750=190.000,407.000=180.000,407.250=170.000,407.500=160.000,407.750=150.000,408.000=140.000,408.250=130.000,408.500=120.000,408.750=110.000,409.000=100.000,409.250=95.000,409.500=90.000,409.750=85.000,410.000=80.000,410.250=75.000;
#STOPS:208.625=2.080
,240.500=1.880
;
#BGCHANGES:;
// cache tags:
#FIRSTBEAT:31.000;
#LASTBEAT:410.500;
#SONGFILENAME:Songs/toune/LOSham/LOSham.sm;
#HASMUSIC:1;
#HASBANNER:1;
#MUSICLENGTH:102.989;
// end cache tags

//---------------dance-single - MANIAC----------------
#NOTES:
     dance-single:
     MANIAC:
     Hard:
     10:
     0.806,1.000,0.320,0.087,0.155,539.000,33.000,9.000,0.000,0.000:
0000
0000
0000
0000
,
0000
0000
0000
0000
,
0000
0000
0000
0000
,
0000
0000
0000
0000
,
0000
0000
0000
0000
,
0000
0000
0000
0000
,
0000
0000
0000
0000
,
0000
0000
0000
1000
,
0000
0001
0000
0000
1000
0000
0001
0100
,
0010
1000
0001
1000
,
0000
0010
0000
0000
0100
0000
0001
0100
,
0010
1000
0001
0100
,
0000
0010
0000
0000
1000
0000
0001
0100
,
0010
1000
0001
1000
,
0000
1001
0000
0000
0100
0000
0001
0000
,
0000
0110
0000
0000
0001
0000
1000
0000
,
0001
1000
1001
0100
,
0010
0100
0110
1000
,
0001
1000
1001
0100
,
0010
0000
0100
0000
0110
0000
1000
0001
,
0100
0000
0001
1000
0010
0000
1000
0001
,
0100
0000
0001
1000
0010
0000
0001
0100
,
0010
1000
0010
0000
0100
0000
0110
0000
,
0000
1010
0000
0000
0101
0000
0100
0001
,
0100
0001
0010
0000
1000
0000
0010
0100
,
0010
0100
0001
0000
1000
0000
0001
0100
,
0001
0100
0010
0000
1000
0000
0001
1000
,
0001
1000
0010
0000
0100
0000
0001
0100
,
0010
0000
1000
0010
0100
0000
0001
1000
,
0010
0000
1000
0001
0100
0000
0010
1000
,
0001
0100
0010
1000
0001
0000
0100
0000
,
0001
1000
0000
1000
0001
0000
0001
0100
,
0010
0000
1000
0010
0100
0000
1000
0001
,
0100
0000
1000
0010
0100
0000
0001
0100
,
0010
0000
0100
0010
0100
0000
0001
1000
,
0100
0000
0001
1000
0010
0000
1000
0001
,
0100
0010
0100
0000
0110
0000
0001
1000
,
0010
0100
0001
0000
1001
0000
1000
0001
,
0100
0010
1000
0000
0001
0000
1010
0000
,
0000
0110
0000
0000
0101
0000
1000
0010
,
0100
0001
0100
0010
0100
0010
1000
0001
,
0100
0001
2000
0000
0000
0000
3001
0100
,
0010
1000
0010
0100
0001
0010
0001
1000
,
0010
0100
0002
0000
0000
0000
1003
0010
,
0100
0001
0200
0000
0000
0000
0301
1000
,
0010
0100
0020
0000
0000
0000
1030
0001
,
1000
0001
0100
0010
0100
0010
1000
0010
,
0100
0001
2002
0000
0000
3003
1000
0001
,
0100
0010
0100
0001
1000
0010
0100
0001
,
1000
0010
0100
0001
0100
0010
1000
0010
,
1000
0001
0010
0100
1000
0001
0100
0010
,
1000
0000
0000
0000
0001
0000
0000
1000
0001
0100
0000
0000
0000
0000
0000
0001
0000
0000
0000
2000
0000
0000
0000
0000
0000
0000
0000
0000
0000
0000
0000
0000
,
0000
0000
0000
0000
0000
0002
3003
0000
1000
0000
0000
0000
0000
0000
0000
0000
0110
0000
0000
0000
0000
0000
0000
0000
1000
0000
0001
0000
0100
0000
0000
0000
,
0000
0010
0000
0110
0000
1000
0001
0100
,
0010
0000
1000
0000
0001
0000
0000
0000
1001
0000
0000
0000
0100
0010
1000
0000
,
0000
0000
1000
0001
0100
0000
0100
0010
1000
0000
1000
0001
0010
0000
0000
0100
,
0000
1000
0010
0000
0100
0000
0001
0001
,
1000
0000
1000
0000
0010
1000
0000
1000
0001
0000
0001
0100
0000
0100
0010
0000
,
0010
1000
0001
0000
0001
0100
0010
0000
0010
1000
0001
0000
0001
0010
0100
0000
,
0100
0001
1000
0000
0010
0000
0000
0100
0000
0000
0010
1000
0001
0000
0000
0100
,
0000
0002
0000
0000
1003
0000
0001
0000
,
0100
0010
1000
0001
,
0100
0000
0001
1000
0010
0000
0100
0000
,
0001
1000
0001
0100
,
0010
0000
1000
0010
0100
0000
0001
0000
,
1000
0001
0100
0010
,
1000
0000
0010
0100
0001
0000
1000
0000
,
0010
1000
0001
0100
,
0010
1000
0001
0100
0010
0000
0010
0000
,
1000
1000
0001
0001
,
0100
0100
0010
0010
,
1000
1000
0100
0100
,
0010
0010
0001
1000
,
0010
0000
1000
0001
0100
0000
0010
0000
,
1000
0000
0001
0100
0010
1000
0001
0000
,
0100
0010
1000
0000
0001
0100
0001
1000
,
0010
1000
1001
0000
0001
1000
0010
0000
,
0001
1000
0010
0000
1000
0001
0010
0000
,
1000
0001
0100
0000
0001
1000
0010
0000
,
1000
0001
0100
0000
0001
1000
0010
0000
,
1000
0001
0100
0000
0001
0000
0100
0000
,
0010
1000
0001
0100
,
0010
1000
0001
1000
,
0001
0000
0100
0000
0010
1000
0001
0100
,
0010
0000
1001
0000
1000
0010
0100
0000
,
0001
0100
0010
0000
1000
0001
0100
0001
,
1000
0000
1001
0000
0100
0001
1000
0000
,
0010
1000
0001
0000
0100
0001
1000
0010
,
0100
0000
0110
0000
0001
0100
0010
1000
,
0100
1000
0001
0000
0010
1000
0001
0000
,
0100
0001
1000
0000
0001
0010
0100
1000
,
0010
0000
0110
0000
0010
1000
0100
0010
,
0001
0000
1001
0000
1000
0001
0100
0010
,
1000
0010
0100
0000
0001
0100
0001
0010
,
0001
0100
0010
0000
1000
0001
0100
0001
,
1000
0001
0010
0000
0001
1000
0001
0100
,
0010
0100
0010
0000
1001
0000
0000
0101
,
0000
0000
1000
0001
1001
0000
0000
1010
,
0000
0000
1000
0001
0101
0000
0000
1001
,
0000
0000
1000
0010
1010
0000
0000
1001
,
0000
0000
0110
0000
0001
0100
0001
0100
,
0010
0000
0000
0000
0000
0000
0000
0000
1000
0000
0000
0000
0000
0000
0000
0000
0010
0000
0000
0000
0000
0000
0000
0000
1000
0000
0000
0000
0000
0000
0000
0000
0010
0000
0000
0000
0000
0000
0000
0000
0100
0000
0000
0000
0000
0000
0000
0010
0000
0000
0000
0000
0000
0000
0100
0000
0000
0000
0000
0000
0000
0001
0000
0000
,
0000
0000
0000
0000
0000
0000
0000
0000
0000
1000
0000
0000
0000
0000
0000
0000
0000
0000
0000
0000
0000
0000
0000
0000
0001
0000
0000
0000
0000
0000
0000
0000
0000
0000
0000
0000
0000
0000
0000
0000
1000
0000
0000
0000
0000
0000
0000
0000
0000
0000
0000
0000
0000
0000
0000
0000
0010
0000
0000
0000
0000
0000
0000
0000
0000
0000
0000
0000
0100
0000
0000
0000
0000
0000
0000
0000
0000
0000
0000
0000
0000
0000
0000
0000
0010
0000
0000
0000
0000
0000
0000
0000
0000
0000
0000
0000
0100
0000
0000
0000
0000
0000
0000
0000
0000
0000
0000
0000
0001
0000
0000
0000
0000
0000
0000
0000
0000
0000
0000
0000
1000
0000
0000
0000
0000
0000
0000
0000
0000
0000
0000
0000
0000
0000
0000
0000
0000
0000
0000
0000
0000
0000
0000
0000
0000
0000
0000
0000
0000
0000
0000
0000
0000
0000
0000
0000
0000
0000
0000
0000
0000
0000
0000
0000
0000
0000
0000
0000
0000
0000
0000
0000
0000
0000
0000
0000
0000
0000
0000
0000
0000
0000
0000
0000
0000
0000
0000
0000
0000
0000
0000
0000
;

//---------------dance-single - TRICKY----------------
#NOTES:
     dance-single:
     TRICKY:
     Medium:
     8:
     0.484,0.598,0.097,0.087,0.029,330.000,10.000,9.000,0.000,0.000:
0000
0000
0000
0000
,
0000
0000
0000
0000
,
0000
0000
0000
0000
,
0000
0000
0000
0000
,
0000
0000
0000
0000
,
0000
0000
0000
0000
,
0000
0000
0000
0000
,
0000
0000
0000
1000
,
0000
0001
0000
0100
,
0001
1000
0000
0010
,
0000
1000
0000
0001
,
1000
0010
0000
0100
,
0000
0001
0000
1000
,
0010
0100
0000
0001
,
1000
0001
0000
0100
,
0010
0100
0000
0001
,
0000
0001
0000
1000
,
0000
1000
0000
0010
,
0000
0010
0000
0100
,
0000
0100
0000
1000
,
0001
1000
0000
0001
,
1000
0001
0000
0100
,
0010
0100
0000
0110
,
0000
0110
0000
0100
,
0001
0100
0001
0100
,
0000
0101
0000
0010
,
1000
0010
1000
0010
,
0000
1010
0000
0001
,
1000
0010
0000
1000
,
0010
0100
0000
0100
,
0001
0100
1000
0010
,
0001
0010
0000
0001
,
0100
0001
1000
0001
,
0100
0001
0000
0100
,
0010
1000
0010
0100
,
0010
1000
0000
1000
,
0001
1000
0001
0100
,
0010
0100
0010
1000
,
0010
0100
0001
1000
,
0100
0010
0001
1000
,
0010
1000
0000
1000
,
1000
2000
0000
3001
,
0100
0001
0000
0001
,
0001
0002
0000
0103
,
0100
0200
0000
0310
,
0010
0020
0000
1030
,
1000
0001
0001
1000
,
0001
2002
3003
1000
,
0100
0001
0100
1000
,
0100
0001
0100
1000
,
0010
0001
0010
1000
,
0001
0000
0000
0000
0000
0000
0000
2000
0000
0000
0000
0000
0000
0000
0000
0000
0000
0000
0000
0000
0000
0000
0000
0000
0000
0000
0000
0000
0000
0000
0000
0000
,
0000
3000
1000
0000
1000
0000
0001
0000
,
0001
0000
0100
0010
0100
0010
0100
0000
,
0010
0100
0100
0010
,
0010
0000
1000
0001
1000
0001
1000
0000
,
0010
1000
0001
0100
,
0010
0000
1000
0001
1000
0001
1000
0001
,
0100
0010
1000
0001
,
0100
0000
0000
0000
0001
0000
0000
1000
0000
0000
0001
0000
1000
0000
0000
0001
,
0000
2002
3003
0000
1000
0000
0001
0000
,
1000
0001
0100
0010
,
0100
0000
0010
0100
,
0010
0100
0001
1000
,
0001
0000
1000
0010
,
1000
0010
0100
0001
,
0100
0000
1000
0100
,
1000
0000
0001
0100
,
0001
0000
1000
0010
,
1000
1000
0001
0100
,
0001
0001
0010
0100
,
0010
0010
0001
1000
,
0001
0001
1000
0010
,
1000
0001
1000
0010
,
1000
0000
0001
0010
,
0001
1000
0001
0010
,
0001
0000
0001
0001
,
1000
1000
0010
0010
,
0100
0100
0001
0001
,
1000
1000
0001
0001
,
1000
1000
0001
0100
,
0001
0000
1000
0010
,
1000
0000
0001
1000
,
0001
1000
0010
0100
,
0010
0100
0001
0001
,
1000
1000
1001
0000
,
1001
0000
0100
0100
,
0010
0010
0110
0000
,
0110
0000
0001
0100
,
0010
1000
0001
0100
,
0010
1000
0001
0010
,
0100
1000
0100
0010
,
0001
1000
0001
0100
,
0001
0100
0010
1000
,
0010
1000
0001
1000
,
0001
1000
0010
0100
,
0010
0000
0100
0000
0001
0000
0000
0001
,
0000
0000
0001
0000
1000
0000
0000
1000
,
0000
0000
1000
0000
0010
0000
0000
0010
,
0000
0000
0010
0000
0100
0000
0000
0100
,
0000
0100
0001
1000
,
0100
0000
0000
0000
0010
0000
0000
0000
0001
0000
0000
1000
0000
0000
0010
0000
,
0000
0100
0000
0000
0001
0000
0000
1000
0000
0000
0010
0000
0000
0000
0000
0000
;

//---------------dance-single - BASIC----------------
#NOTES:
     dance-single:
     BASIC:
     Easy:
     5:
     0.295,0.448,0.029,0.117,0.005,198.000,3.000,12.000,0.000,0.000:
0000
0000
0000
0000
,
0000
0000
0000
0000
,
0000
0000
0000
0000
,
0000
0000
0000
0000
,
0000
0000
0000
0000
,
0000
0000
0000
0000
,
0000
0000
0000
0000
,
0000
0000
0000
1000
,
0000
0000
0000
0100
,
0000
0000
0000
0010
,
0000
0000
0000
0001
,
0000
0000
0000
0100
,
0000
0001
0000
0100
,
0000
0001
0000
1000
,
0000
0010
0000
0100
,
0000
0001
0000
1000
,
0000
0000
0000
0001
,
0000
0000
0000
1000
,
0000
0000
0000
0010
,
0000
0000
0000
1000
,
0000
0100
0000
1000
,
0000
0000
0000
0001
,
0000
0010
0000
0001
,
0000
0000
0000
0100
,
0000
0100
0000
0010
,
0000
0010
0000
1000
,
0000
1000
0000
0001
,
0000
0001
0000
0100
,
0000
0001
0000
0100
,
0000
0000
0000
0010
,
0000
1000
0000
0010
,
0000
0000
0000
0001
,
0000
0001
0000
0100
,
0100
0100
0000
0010
,
0000
0010
0000
1000
,
1000
1000
0000
1000
,
0000
0001
0000
1000
,
0000
0001
0000
0100
,
0000
0010
0000
0100
,
0000
0010
0000
1000
,
0000
1000
0000
1000
,
1000
2000
0000
3001
,
0000
0001
0000
0001
,
0001
0002
0000
0103
,
0000
0200
0000
0310
,
0000
0020
0000
1030
,
0000
0001
0000
1000
,
0000
2002
3003
1000
,
0000
0001
0000
1000
,
0000
0001
0000
0100
,
0000
0010
0000
0100
,
0000
0000
0000
0000
0000
0000
0000
0020
0000
0000
0000
0000
0000
0000
0000
0000
0000
0000
0000
0000
0000
0000
0000
0000
0000
0000
0000
0000
0200
0000
0000
0000
,
0000
0030
0000
0000
0301
0000
0000
0000
,
0001
0000
0100
0000
,
0100
0000
1000
0000
,
1000
0000
0001
1000
,
0001
0000
0100
0000
,
0100
0000
0010
0000
,
0010
0000
1000
0001
,
0100
0010
1000
0001
,
2002
3003
0000
0000
1000
0000
0000
0000
,
0010
0000
0100
0000
,
0001
0000
0100
0000
,
0010
0000
1000
0000
,
0001
0000
1000
0000
,
0010
0000
0100
0000
,
0001
0000
0100
0000
,
0100
0000
0010
0000
,
0010
0000
1000
0000
,
0010
0000
1000
0000
,
0010
0000
0100
0000
,
0001
0000
0100
0000
,
0001
0000
1000
0000
,
0001
0000
1000
0000
,
0001
0000
0100
0000
,
0010
0000
0100
0000
,
0010
0000
1000
1000
,
1000
0000
0001
0001
,
0001
0000
0100
0100
,
0100
0000
0010
0010
,
0010
0000
1000
0000
,
0001
0000
1000
0000
,
0001
0000
0100
0000
,
0010
0000
0100
0000
,
0010
0000
1000
1000
,
1000
0000
0010
0010
,
0010
0000
0100
0100
,
0100
0000
0001
0001
,
0001
0000
1000
0000
,
0010
0000
0100
0000
,
0001
0000
1000
0000
,
0001
0000
0100
0000
,
0010
0000
1000
0100
,
1000
0100
1000
0000
,
0001
0000
0001
0010
,
0001
0010
0001
0000
,
1000
0000
0001
0100
,
0001
0000
1000
0010
,
1000
0000
0010
0100
,
0010
0000
1000
0001
,
1000
0000
2002
0000
,
0000
0000
0000
0000
,
0000
0000
0000
0000
0000
3003
0000
0000
;
