#TITLE:DISREGARD;
#SUBTITLE:;
#ARTIST:THE BERZERKER;
#TITLETRANSLIT:;
#SUBTITLETRANSLIT:;
#ARTISTTRANSLIT:;
#CREDIT:;
#BANNER:Disregard.png;
#BACKGROUND:Disregard-bg.png;
#LYRICSPATH:;
#CDTITLE:!tear-cdtitle.png;
#MUSIC:The Berzerker - Disregard.mp3;
#OFFSET:-9.542;
#SAMPLESTART:40.786;
#SAMPLELENGTH:12.000;
#SELECTABLE:YES;
#BPMS:0.000=300.050;
#STOPS:;
#BGCHANGES:;
// cache tags:
#FIRSTBEAT:0.000;
#LASTBEAT:351.000;
#SONGFILENAME:Songs/Fabulously Fresh Flock of Fantastic Files F5/(Tear) Disregard/Disregard.sm;
#HASMUSIC:1;
#HASBANNER:1;
#MUSICLENGTH:80.909;
// end cache tags

//---------------dance-single - ----------------
#NOTES:
     dance-single:
     :
     Hard:
     14:
     1.000,1.000,0.803,0.000,1.000,972.000,65.000,0.000,0.000,0.000:  // measure 1
0101
0000
0000
0000
,  // measure 2
0000
0000
0000
0000
,  // measure 3
1001
0000
0000
0000
,  // measure 4
0000
0000
1100
0000
,  // measure 5
0101
0000
0000
0000
,  // measure 6
0000
0000
0000
0000
,  // measure 7
1001
0000
0000
0000
,  // measure 8
0100
0000
0010
0000
0100
0001
1000
0100
0010
0001
1000
0000
0010
0000
0100
0000
,  // measure 9
1001
0100
1010
0100
0011
1000
0110
0001
,  // measure 10
1100
0010
0101
0010
1001
0100
0011
1000
,  // measure 11
0110
0001
1100
0010
0101
1000
0110
0001
,  // measure 12
1010
0000
0100
0000
0011
0000
1000
0000
0100
0010
0001
1000
0100
1000
0010
0100
,  // measure 13
1001
0100
1010
0001
1100
0010
0101
0010
,  // measure 14
1001
0100
1010
0100
0011
1000
0110
0001
,  // measure 15
1000
0110
0001
1100
0010
1001
0100
0011
,  // measure 16
1000
0000
0110
0000
0001
0000
1100
0000
0001
0100
0001
1000
0010
0100
0001
0010
,  // measure 17
1001
0100
0010
1000
0001
0010
0100
1000
,  // measure 18
0010
0100
0001
0010
0100
0010
0001
0100
,  // measure 19
0010
1000
0010
0100
0001
1000
0010
0100
,  // measure 20
0001
0010
0100
1000
0110
0000
0000
0000
,  // measure 21
1000
0001
0100
0010
1000
0100
1000
0001
,  // measure 22
0100
0010
1000
0100
0010
0001
0100
0010
,  // measure 23
1000
0001
0010
0100
1000
0010
0100
0010
,  // measure 24
1001
1001
1001
1001
,  // measure 25
1000
0100
0010
0001
0100
0010
0100
0001
1000
0100
1000
0010
0100
0010
1000
0100
,  // measure 26
0010
0001
1000
0100
1000
0001
0100
0010
1000
0001
0010
0100
1000
0010
0100
0010
,  // measure 27
1000
0100
1000
0001
0100
0010
0100
0001
1000
0100
0010
0001
1000
0010
0100
0001
,  // measure 28
0010
0100
1000
0001
0010
0001
1000
0100
0010
0100
1000
0010
0100
0010
1000
0001
,  // measure 29
0010
0001
0100
0010
1000
0100
0010
0001
1000
0010
0100
0001
1000
0100
1000
0001
,  // measure 30
0100
0010
1000
0001
0010
0100
1000
0001
0010
0001
0100
0010
1000
0001
0010
0100
,  // measure 31
1000
0010
0100
0010
1000
0001
0100
0010
1000
0100
1000
0001
0010
0100
1000
0010
,  // measure 32
0100
0001
0010
0100
1000
0010
0100
0001
1000
0100
0010
0001
1000
0100
0010
0001
,  // measure 33
0100
0010
0100
0001
0010
0100
0010
0001
0100
0010
1000
0001
1000
0010
0100
0010
,  // measure 34
1000
0100
0010
0001
0100
0010
1000
0001
0010
0100
1000
0010
0100
0001
1000
0010
,  // measure 35
0100
0010
1000
0001
0010
0100
1000
0010
0100
0010
1000
0100
0010
0001
0100
0010
,  // measure 36
1000
0001
0010
0001
1000
0100
1000
0010
0100
0001
1000
0100
0010
0001
0100
0010
,  // measure 37
1000
0010
0100
0001
0010
0100
1000
0010
0100
0010
1000
0001
0100
0001
0010
0100
,  // measure 38
1000
0001
0100
0010
1000
0100
1000
0001
0010
0100
1000
0001
0100
0010
1000
0100
,  // measure 39
1000
0010
0100
0010
1000
0001
0010
0100
1000
0010
0100
0010
1000
0100
0010
0001
,  // measure 40
1000
0010
0100
0001
1000
0010
1000
0001
0100
0010
1000
0001
0010
0100
1000
0010
,  // measure 41
0100
0001
1000
0100
0010
0001
1000
0010
0100
0001
0010
0001
0100
0010
1000
0100
,  // measure 42
1000
0001
0100
0010
0100
0001
1000
0100
1000
0010
0100
0001
1000
0100
0010
0001
,  // measure 43
1000
0001
0010
0100
0010
0001
1000
0010
0100
0010
1000
0001
0010
0100
1000
0010
,  // measure 44
0100
0001
1000
0100
1000
0010
0100
0001
0010
0100
1000
0001
0100
0010
0100
0001
,  // measure 45
1000
0100
0010
0001
1000
0010
0100
0001
1000
0100
1000
0010
0100
0001
0010
0100
,  // measure 46
1000
0001
0100
0010
1000
0001
0010
0100
1000
0010
0100
0001
1000
0100
0010
0001
,  // measure 47
1000
0010
0100
0001
1000
0100
1000
0010
0100
0001
1000
0100
0010
0001
0100
0010
,  // measure 48
1000
0100
1000
0001
0010
0100
1000
0010
0100
0000
0000
0000
0000
0000
0000
0000
,  // measure 49
0001
0010
0100
1000
0010
0100
0001
1000
0100
1000
0010
0100
0010
1000
0001
0010
,  // measure 50
0001
0100
0010
0100
0001
1000
0100
0010
0001
0100
0010
1000
0001
0010
0001
0100
,  // measure 51
0010
1000
0100
0010
0001
1000
0010
1000
0100
0010
0001
1000
0010
0100
0001
0010
,  // measure 52
0001
0100
0010
1000
0100
0010
0001
0010
0100
0010
0001
1000
0100
0010
0001
0100
,  // measure 53
0010
1000
0001
0010
0100
1000
0010
0100
0001
1000
0100
0010
0001
0100
0010
1000
,  // measure 54
0100
0010
0001
1000
0010
0100
0001
1000
0100
0010
0001
1000
0010
0100
0001
0010
,  // measure 55
0100
1000
0001
0100
0010
1000
0001
0010
0100
1000
0010
0100
0001
1000
0100
0010
,  // measure 56
0001
0100
0010
1000
0001
0010
0100
1000
0001
0000
0000
0000
0000
0000
0000
0000
,  // measure 57
1000
0010
0100
0001
0010
0100
1000
0010
0100
0001
1000
0100
1000
0010
0100
0001
,  // measure 58
1000
0010
0100
0010
1000
0001
0010
0100
0010
0001
1000
0010
0100
0001
0010
0100
,  // measure 59
1000
0010
0100
0001
1000
0100
0010
0001
0100
0010
1000
0001
0010
0100
1000
0001
,  // measure 60
0100
0001
0010
0100
1000
0010
0100
0010
1000
0100
1000
0010
1000
0100
0010
0001
,  // measure 61
0100
0010
1000
0001
0010
0100
1000
0001
0100
0010
0100
0001
0010
0001
1000
0100
,  // measure 62
0010
0001
1000
0010
0100
0001
0010
0001
1000
0100
0010
0100
1000
0001
0100
0010
,  // measure 63
0100
1001
0000
0000
0000
0000
0000
0000
0000
0000
0000
0000
1001
0000
0000
0000
,  // measure 64
1001
0000
0000
0000
0000
0000
1000
0000
0100
0010
0001
0100
0010
0000
0000
0000
,  // measure 65
1001
0000
0110
0000
1000
0010
0100
0001
,  // measure 66
1100
0000
0110
0000
0001
1000
0100
1000
,  // measure 67
0011
0000
1010
0000
0001
0100
0010
1000
,  // measure 68
0110
0000
0000
0000
1001
0000
0000
0000
0100
0010
1000
0100
0010
0000
0000
0000
,  // measure 69
1001
0000
0110
0000
0001
1000
0010
0100
,  // measure 70
1010
0000
0011
0000
1000
0100
0010
0100
,  // measure 71
1000
0110
0000
0000
0000
0000
0000
0000
0000
0000
0000
0000
1001
0000
0000
0000
,  // measure 72
1001
0000
0000
0000
0000
0000
1000
0000
0100
0010
0001
0100
0010
0000
0000
0000
,  // measure 73
1000
0100
0010
0001
1000
0010
0100
0010
,  // measure 74
1000
0001
0010
0100
1000
0010
0100
0001
,  // measure 75
1000
0100
0010
0001
0100
0010
1000
0001
,  // measure 76
0010
0100
0010
0001
1000
0010
0100
0010
,  // measure 77
1000
0001
0010
0100
0010
0001
1000
0010
,  // measure 78
0100
0010
0001
0010
0100
0001
0010
0100
,  // measure 79
1000
0010
0100
0001
1000
0100
0010
0100
,  // measure 80
1001
1001
1001
1001
,  // measure 81
1000
0010
1000
0010
1000
0010
1000
0010
0100
0001
0100
0001
0100
0001
0100
0001
,  // measure 82
1000
0001
1000
0001
0100
0010
0100
0010
1000
0001
1000
0001
1000
0001
1000
0001
,  // measure 83
0100
0001
0100
0001
0100
0001
0100
0001
0010
0100
0010
0100
0010
0100
0010
0100
,  // measure 84
1000
0010
1000
0010
0100
0001
0100
0001
1000
0010
1000
0010
1000
0010
1000
0010
,  // measure 85
0100
0001
0010
0100
1000
0010
0100
0001
1000
0100
0010
0001
1000
0010
0100
0010
,  // measure 86
1000
0001
0100
0010
1000
0100
1000
0001
0100
0010
0100
0001
1000
0100
0010
0001
,  // measure 87
0100
0010
0100
0001
1000
0100
0010
0001
0100
0010
1000
0100
0010
0001
0100
0010
,  // measure 88
1001
1001
1001
1001
;
