#TITLE:Deep Unknown;
#SUBTITLE:Polaris (2009);
#ARTIST:Stratovarius;
#TITLETRANSLIT:;
#SUBTITLETRANSLIT:;
#ARTISTTRANSLIT:;
#CREDIT:;
#BANNER:Deep Unknown BN.png;
#BACKGROUND:Deep Unknown BG.png;
#LYRICSPATH:;
#CDTITLE:Joe Dcd title.png;
#MUSIC:01-stratovarius-deep_unknown.mp3;
#OFFSET:0.000;
#SAMPLESTART:75.000;
#SAMPLELENGTH:12.000;
#SELECTABLE:YES;
#BPMS:0.000=200.000,165.000=399.998,170.000=200.000,422.000=399.998,427.000=200.000,803.000=195.000,804.000=189.000,805.000=178.000,806.000=146.000,807.000=121.000,808.000=134.600,809.500=106.300,811.000=102.000;
#STOPS:165.000=0.080
,166.000=0.100
,167.000=0.140
,168.000=0.140
,422.000=0.060
,423.000=0.100
,424.000=0.120
,425.000=0.140
;
#BGCHANGES:;
// cache tags:
#FIRSTBEAT:5.000;
#LASTBEAT:824.000;
#SONGFILENAME:Songs/Astronomic Metal Collection 2/(Joe D) Deep Unknown/01-stratovarius-deep_unknown.sm;
#HASMUSIC:1;
#HASBANNER:1;
#MUSICLENGTH:268.408;
// end cache tags

//---------------dance-single - ----------------
#NOTES:
     dance-single:
     :
     Challenge:
     11:
     1.000,1.000,1.000,0.458,1.000,1723.000,352.000,123.000,0.000,20.000:
0000
0000
0000
0000
,
0000
0000
0001
0100
0010
0001
0100
0010
,
0001
0100
0010
0001
0100
0010
1000
0100
,
0010
1000
0100
0010
1000
0100
0010
1000
,
0100
0010
1000
0100
0001
1000
0100
0001
,
1000
0100
0001
1000
0100
0010
0001
0100
,
0010
0001
0100
0010
0001
0100
0010
0001
,
0100
0010
0001
1000
0010
0001
1000
0010
,
0001
1000
0100
0001
1000
0100
0001
1000
,
2002
0000
3113
0110
1001
1000
1000
0100
,
0011
0001
0001
0100
0110
1000
0001
0001
,
1010
0100
1001
1001
0110
1000
1000
1000
,
0101
0010
2200
3300
0011
2200
3300
0002
,
2023
3030
0010
0100
1010
0002
0000
0013
,
0101
2000
3000
0100
1010
0100
0010
0001
,
0110
0100
1010
1010
0102
0000
0000
0000
,
0100
0000
0003
0011
1100
0110
0000
0011
,
1010
0000
0100
0000
0001
0000
0010
0000
0101
0000
1000
0000
0020
0230
0320
0230
,
1301
0000
0100
0000
1000
0000
0100
0000
0011
0000
0020
0230
0320
0230
1300
0000
,
0011
0100
1000
1000
0101
1000
1000
0011
,
1100
0010
0101
0000
1100
1010
0000
0011
,
2200
0000
3320
0230
1310
0012
0000
0013
,
0101
2000
0000
3001
0011
1000
0010
0001
,
0110
0100
1010
1010
0102
0000
0000
0000
,
0100
0000
0000
0113
1001
1100
0000
0101
,
0010
0000
0100
0000
0012
0000
0003
0000
0120
0001
0130
0000
1200
0000
0300
0000
,
2001
0000
0000
3010
0001
0010
0100
1000
0001
0010
0000
0000
,
0000
0000
0000
0010
0001
0010
0100
1000
0001
0110
0000
0000
,
0000
0000
0000
0000
0000
0000
0000
0000
0000
0000
0000
0000
0010
0000
0000
0000
0001
0000
0000
0000
0010
0000
0000
0000
0100
0000
1000
0000
0100
0000
1000
0000
0001
0000
1000
0000
0100
0000
0000
0001
0000
0000
1000
0000
0010
0000
1000
0000
,
0001
0000
0000
0000
0000
0000
0000
0000
0000
0000
0000
0000
0100
0000
0000
0000
0000
0000
0000
0000
0000
0000
0000
0000
0001
0000
0000
0000
0000
0000
0000
0000
0010
0000
0000
0000
0000
0000
0000
0000
0100
0000
0000
0000
0000
0000
0000
0000
1000
0000
0000
0000
0000
0000
0000
0000
0010
0000
0000
0000
0000
0000
0000
0000
1000
0000
0000
0000
0000
0000
0000
0000
0100
0000
0000
0000
0000
0000
0000
0000
0010
0000
0000
0000
0000
0000
0000
0000
0001
0000
0000
0000
0000
0000
0000
0000
0010
0000
0000
0000
0000
0000
0000
0000
0000
0000
0000
0000
1000
0000
0000
0000
0000
0000
0000
0000
0000
0000
0000
0000
0100
0000
0000
0000
0000
0000
0000
0000
0000
0000
0000
0000
1000
0000
0000
0000
0000
0000
0001
0000
0000
0000
0000
0000
0010
0000
0000
0000
0000
0000
0000
0000
0000
0000
0000
0000
0001
0000
0000
0000
0000
0000
0000
0000
0000
0000
0000
0000
1000
0000
0000
0000
0000
0000
0000
0000
0000
0000
0000
0000
0001
0000
0000
0000
0000
0000
0000
0000
0000
0000
0000
0000
,
1000
0100
0001
0010
0100
1000
0010
1000
0001
1000
0100
1000
0020
0000
0000
0000
,
0031
0000
0100
0100
1010
0100
0000
0100
,
1010
0100
0000
0100
1010
0001
0000
0010
,
1100
0001
0100
0100
1001
0100
0000
0100
,
0011
0100
1000
0000
1001
0000
0010
0100
,
1010
0000
0100
0000
0011
0000
0100
1001
,
1001
1001
0110
0010
1001
0010
0000
0010
,
1100
0010
0000
0010
1100
0001
0000
0010
,
1100
0001
0010
0010
0101
0010
0000
0010
,
0101
0010
0001
0000
1001
0000
1000
0100
,
1010
0000
0000
0001
1000
0001
0010
0100
1000
0010
1000
0001
,
0100
0010
1000
0010
0000
0000
0101
0000
0000
0101
0000
0000
,
0101
0101
1010
0011
,
1000
1000
0110
0000
0001
0000
1010
0000
,
0100
0100
1001
0110
1000
1000
0001
1000
,
0110
0000
0011
0000
1000
0100
1001
0010
,
0100
1000
0110
0001
0101
0000
1010
0000
,
0100
0100
0011
0000
1000
0000
1010
0000
,
0001
0001
1010
0100
1100
0001
1000
0010
,
0001
0000
0000
0010
0000
0000
1001
0000
0000
0000
0000
0000
1000
0000
0100
0000
0010
0000
0001
0000
1000
0000
0010
0000
,
1000
0001
0010
0100
1000
0001
1010
0000
0000
1001
0000
0000
,
0010
0100
1100
1100
0000
0010
0011
0000
,
1100
0000
0000
0110
0000
0000
0011
0000
1001
0000
0000
0000
1100
0000
0000
0000
,
0001
1000
0110
0100
1001
1001
0100
0010
,
0001
0100
0010
0100
1001
0000
0000
1000
,
1100
0000
0001
0101
0000
0010
1000
0000
,
0101
0000
1100
0000
0000
0100
1010
0000
,
0010
0011
0000
1000
0100
0000
0011
0000
,
1010
0000
0000
1000
1010
0000
0001
1001
,
0000
0010
0100
0000
1001
0000
0110
0000
,
0000
0000
0000
0001
0000
0000
0110
0000
0000
0000
0000
0000
0110
0000
0000
0000
0000
0000
0100
0000
0010
0000
0100
0000
,
1000
0000
0100
0000
0010
0000
0001
0000
1000
0000
0001
0000
1100
0000
0000
0010
0000
0000
0100
0000
0000
1000
0000
0000
,
0001
1000
0100
0010
0101
0010
1001
0010
,
0101
1000
0001
1000
0110
0001
1000
0001
,
0110
0010
0100
0001
1010
0010
0100
0001
,
1010
0001
1000
0010
1001
0010
0101
1000
,
0001
1000
0001
0100
0110
0001
1010
0100
,
0011
0100
0001
0010
0101
0010
1000
0010
,
0101
0010
0100
0010
1100
0001
0100
0001
,
1100
0010
0100
1000
0101
0110
1100
0001
,
1000
0001
0010
0100
1001
0010
0101
0100
,
1001
0100
1010
0001
1100
0010
0001
1000
,
0011
1000
0100
1000
0110
1000
0100
0001
,
1010
1001
1001
1001
0011
0010
0100
1000
,
1100
0000
0000
1000
0000
0000
0001
0000
0000
1000
0000
0000
0110
0000
1000
0000
0010
0000
0001
0000
0010
0000
1000
0000
,
0001
0000
0010
0000
0100
0000
0010
0000
0100
0000
1000
0000
0110
0000
0000
0000
0000
0000
0000
0000
0000
0010
0000
0000
,
0110
0000
1000
0001
1010
0100
0101
0000
,
1100
0000
0001
0001
0110
1000
0000
0100
,
1001
0000
0000
0000
0000
0000
0100
0000
0000
0010
0000
0000
0100
0000
0000
0010
0000
0000
1000
0000
0000
0001
0000
0000
1000
0000
0000
0000
0100
0000
0000
0000
1000
0000
0000
0000
0100
0000
0000
0000
0010
0000
0000
0000
0001
0000
0000
0000
,
1000
0000
0010
0000
0100
0000
0001
0000
1000
0000
0010
0000
1001
0000
0000
0010
0000
0000
0001
0000
0000
0100
0000
0000
,
0010
0001
0100
0010
0001
0100
0010
0001
,
0100
0010
0001
1000
0010
0001
1000
0010
,
0001
1000
0010
0001
0220
0330
1000
1100
,
0000
0001
0101
1010
0100
0100
1010
0002
,
0000
1003
0110
2000
0000
3100
1001
0100
,
1000
0001
1010
0100
1100
1100
0120
0000
,
0000
0000
0001
0000
0030
0101
1100
0110
,
0000
0011
0110
1000
0002
0023
1230
2300
,
0000
0000
0000
0000
0001
0000
0000
0000
3010
0000
0100
0000
1010
0000
0002
0203
,
0302
0203
0310
0000
1100
0000
0001
0000
1000
0000
1000
0000
0110
0000
1000
0000
,
1000
0011
1100
1000
0110
0000
0011
0101
,
0000
1000
2200
3300
2001
3200
0320
1032
,
0000
1003
1100
0010
0001
0010
1001
0010
,
0100
1000
0101
0010
1100
1100
0021
0000
,
0000
0000
0001
0000
0030
0011
0000
1100
,
0001
0000
0010
0000
0100
0000
1000
0000
0010
0000
1000
0000
0010
0000
0000
0010
0000
0000
0101
0000
0000
0010
0000
0000
,
0000
0010
0101
0010
0000
0010
1100
0001
,
0000
0010
1100
0001
0010
0010
1001
0010
,
0000
0010
0101
0010
0100
0000
1001
0000
,
0010
0100
1010
0000
0100
0011
0011
0011
,
1010
1010
1010
0000
0110
0100
1010
0100
,
0000
0100
1010
0100
0000
0100
1010
0001
,
0000
0010
1100
0001
0100
0100
1001
0100
,
0000
0100
1010
0100
0001
0000
1001
0000
,
1000
0000
0000
0100
0000
0000
1010
0000
0000
0000
0000
0000
0001
0000
1000
0000
0001
0000
0010
0000
0100
0000
1000
0000
,
0010
1000
0001
0100
0010
1000
0010
0000
0000
1010
0000
0000
,
1010
1010
1010
1100
,
0110
0000
0001
0001
0110
0000
1000
0000
,
0101
0000
0010
0010
1001
0100
0011
0001
,
1000
0001
0110
0000
1100
0000
0001
0010
,
1001
0100
0010
0001
0110
1000
0110
0000
,
0101
0000
0010
0010
1100
0000
0001
0000
,
0101
0000
1000
1000
0101
1000
0011
1000
,
0001
0000
0000
0100
0000
0000
1000
0000
0000
0100
0000
0000
1001
0000
0000
0000
0000
0000
0001
0000
0010
0000
0100
0000
,
1000
0010
0100
0010
1000
0100
0010
0001
1000
0110
0000
0000
,
1001
0000
0100
0010
0011
0011
0000
0100
,
1100
0000
0000
0000
0011
0000
0000
0110
0000
0000
1100
0000
1001
0000
1001
0000
,
0011
0000
0000
0000
0000
0000
0000
0000
0000
0000
0000
0000
0000
0000
0000
0000
0000
0000
0000
0000
0000
0000
0000
0000
0000
0000
0000
0000
0000
0000
0000
0000
0000
0000
0000
0000
1000
0000
0000
0000
0000
0000
0000
0000
0000
0000
0000
0000
0001
0000
0000
0000
0000
0000
0010
0000
0000
0000
0000
0000
0000
0000
0000
0000
0000
0000
0000
0000
0000
0000
0000
0000
1000
0000
0000
0000
0000
0000
0000
0000
0100
0000
0000
0000
0000
0000
0000
0000
0010
0000
0000
0000
0000
0000
0000
0000
0001
0000
0000
0000
0000
0000
0000
0000
0000
0000
0000
0000
0000
0000
0000
0000
0000
0000
0000
0000
0000
0000
0000
0000
0100
0000
0000
0000
0000
0000
0000
0000
0000
0000
0000
0000
0010
0000
0000
0000
0000
0000
0000
0000
0000
0000
0000
0000
1001
0000
0000
0000
0000
0000
0000
0000
0000
0000
0000
0000
0000
0000
0000
0000
0000
0000
0000
0000
0000
0000
0000
0000
1001
0000
0000
0000
0000
0000
0000
0000
0000
0000
0000
0000
0000
0000
0000
0000
0000
0000
0000
0000
0000
0000
0000
0000
,
0010
0000
0100
0000
1000
0000
0001
0000
1000
0000
0010
0000
1000
0100
0010
0001
,
1000
0100
0010
0001
0100
0010
1000
0001
1000
0100
0010
0001
1000
0100
0010
0001
,
0100
0010
1000
0001
1000
0100
0010
0001
1000
0100
0010
1000
0002
0000
0000
0000
,
0000
0000
0003
0000
0100
0200
0000
0000
,
0301
0000
2000
0000
0000
0000
0000
0000
0000
0000
0000
0000
3010
0000
0000
0001
0000
0000
0010
0000
0000
0100
0000
0000
0001
0000
0000
0010
0000
0000
0100
0000
0000
1000
0000
0000
0010
0000
0000
0100
0000
0000
0001
0000
0000
1000
0000
0000
,
0100
0010
0100
0010
0001
1000
0100
0010
0001
0010
0100
1000
0100
0010
0100
0010
,
0001
0000
0010
0000
0100
1000
0001
0000
0100
0000
0010
1000
0200
0000
0000
0000
0000
0000
0320
0000
0000
0000
0000
0000
,
0031
0100
1000
0010
1000
0001
0002
0000
,
0003
0000
0000
0000
0000
0000
0010
0000
0000
0100
0000
0000
0020
0000
0000
0000
0000
0000
0030
0000
0000
0020
0000
0000
0000
0000
0000
0000
0000
0000
0000
0000
0000
0030
0000
0000
1000
0000
0100
0000
0010
0000
0001
0000
0010
0000
0100
0000
,
0001
0000
0010
0000
0100
0000
1000
0000
0000
0100
0000
0000
0001
0000
0000
0010
0000
0000
0100
0000
0000
1000
0000
0000
0001
0000
0010
0000
0100
0000
0010
0000
0100
0000
1000
0000
0001
0000
0000
0100
0000
0000
0010
0000
0000
0001
0000
0000
,
1000
0100
0010
0001
0100
0010
1000
0001
0100
1000
0001
0010
1002
0000
0000
0000
,
0000
0000
0000
0000
0000
0000
0000
0000
0000
0003
0000
0000
0001
1000
0001
0010
0100
1000
0001
0010
0001
0010
0100
0000
,
1000
0000
0000
0010
0000
0000
1000
0000
0100
0000
0010
0000
0001
0000
0000
0010
0000
0000
0100
0000
0000
0010
0000
0000
1000
0000
0000
0000
0001
0000
0000
0000
0010
0000
0000
0000
1000
0000
0000
0000
0001
0000
0000
0000
0010
0000
0000
0000
,
0001
0000
0000
1000
0000
0000
0001
0000
0100
0000
0001
0000
0010
0000
0100
0000
1000
0000
0001
0000
0100
0000
0010
0000
1000
0000
0001
0000
1000
0000
0020
0000
0000
0000
0000
0000
0230
0000
0000
0000
0000
0000
0000
0000
0000
0000
0000
0000
,
0310
0000
1000
0000
0010
0000
0002
0000
0000
0000
0000
0000
0000
0000
0000
0000
0000
0000
0000
0000
0000
0000
0000
0000
0000
0000
0000
0000
0000
0000
0000
0000
0000
0000
0000
0000
0013
0000
0000
0001
0000
0000
0010
0000
0000
0100
0000
0000
,
1000
0000
0000
0000
0000
0000
0001
0000
0000
0010
0000
0000
0100
0000
0000
1000
0000
0000
0100
0000
0000
0001
0000
0000
1000
0000
0000
0001
0000
0000
0010
0000
0000
0100
0000
0000
1000
0000
0010
0000
0100
0000
0001
0000
1000
0000
0001
0000
,
0010
0000
0100
0000
1000
0000
0010
0000
0000
0100
0000
0000
0001
0000
0000
0010
0000
0000
0100
0000
0000
1000
0000
0000
0100
0000
0000
0010
0000
0000
0001
0000
0000
0010
0000
0000
0100
0000
0000
1000
0000
0000
0200
0000
0000
0000
0000
0000
,
1300
0000
0000
0100
0000
0000
0010
0000
0000
0001
0000
0000
0100
0000
0000
0010
0000
0000
1000
0000
0000
0001
0000
0000
1000
0000
0000
0100
0000
0000
0010
0000
0000
0001
0000
0000
1000
0000
0000
0000
0100
0000
0000
0000
0010
0000
0000
0000
,
1000
0100
0010
0100
0010
0001
0100
0001
0010
0001
0010
0100
,
1000
0100
0010
0001
0010
0100
1000
0100
0010
0001
0010
0100
,
1000
0010
0001
1000
0010
0001
1000
0100
0010
0001
0100
0001
,
1000
0100
1000
0001
0100
0001
1000
0100
1000
0001
0100
0001
,
1000
0100
0010
1000
0100
0010
1000
0100
0010
0001
0010
0100
,
1000
0100
0010
0001
0100
0001
1000
0010
1000
0001
0010
0100
,
1000
0010
0001
1000
0010
0001
1000
0100
0010
0001
0010
0100
,
0001
0010
0100
0001
0010
0100
1000
0100
0010
0001
0100
1000
,
0001
0000
0000
0000
0100
0000
0000
0000
1000
0000
0000
0000
0010
0000
0000
0000
0100
0000
0000
0000
1000
0000
0000
0000
0010
0000
0000
0000
0100
0000
0000
0000
1000
0000
0000
0000
0010
0000
0000
0000
0000
0000
0001
0000
0000
0010
0000
0000
,
0001
0000
1000
0010
2000
0000
0000
3000
0001
0010
0100
1000
0001
0010
0001
0010
,
0100
0000
1000
0010
1000
0000
0001
0010
0200
0000
0300
0000
1000
0000
0010
0001
,
0010
0000
1000
0001
1000
0000
0100
0010
0001
1000
0001
1000
0010
0000
1000
0100
,
1000
0000
0010
0001
0010
0000
1000
0001
0010
0000
0100
0010
1001
0000
0100
0000
,
0010
0000
0001
0000
0010
0000
0001
0000
0100
0000
1000
0000
0100
0010
0001
0010
,
0100
0000
0000
1000
0000
0000
0001
0000
0000
1000
0000
0000
0100
0000
0000
1000
0000
0000
0011
0000
0000
0000
0010
0000
,
0001
1000
0010
0000
1000
0100
0010
0001
1000
0010
1000
0001
,
0100
0000
0010
0000
0100
0000
0001
0000
1000
0000
0100
0000
1000
0000
0001
0000
0100
0000
1010
0000
0000
0010
0000
0000
,
0100
1000
0001
1000
0100
0010
0101
0010
,
1001
0010
0101
1000
0001
1000
0110
0001
,
1000
0001
0110
0010
0100
0001
1010
0010
,
0100
0001
1010
0001
1000
0010
1001
0010
,
0101
1000
0001
1000
0001
0100
0110
0001
,
1010
0100
0011
0100
0001
0010
0101
0010
,
1000
0010
0101
0010
0100
0010
1100
0001
,
0100
0001
1100
0010
0100
1000
0101
0110
,
1100
0001
1000
0001
0010
0100
1001
0010
,
0101
0100
1001
0100
1010
0001
1100
0010
,
0001
1000
0011
1000
0100
1000
0110
1000
,
0100
0001
1010
0100
0001
1000
0011
0010
,
0100
0000
0000
1000
0000
0000
1100
0000
0000
1000
0000
0000
0001
0000
0000
1000
0000
0000
0110
0000
0000
0000
0001
0000
,
1000
0001
1000
0010
1000
0001
0010
0001
0100
1001
0100
0010
,
0101
1000
0001
0010
0100
1000
0011
1000
0001
0100
0001
0010
,
1100
0001
0010
1000
0001
0100
1001
0010
0100
1000
0010
1000
,
0110
0001
0100
0001
1000
0100
1010
0100
0010
0001
0010
0100
,
1010
0001
0100
0001
0010
1000
0011
0100
1000
0110
1000
0001
,
1010
0001
0010
0100
1000
0010
1001
0010
0100
0001
0010
0001
,
1100
0010
1000
0001
0100
1000
0011
0100
1000
0010
1000
0001
,
0110
1000
0001
0010
0100
1000
0011
1000
0001
0100
0001
0100
,
1010
0001
1000
0010
0001
0100
0011
1000
0100
1001
0010
1000
,
0011
1000
0100
0001
0100
0001
1010
0100
0010
0001
1000
0100
,
1010
0001
0100
0001
0010
1000
0110
0001
1000
0101
1000
0010
,
1100
0001
0100
0001
0010
0100
1001
0010
1000
0001
0100
0001
,
1010
0100
1000
0010
1000
0001
0110
0001
0010
0101
1000
0010
,
1001
0010
0100
0001
0010
0100
1010
0100
0010
1000
0100
0010
,
0001
1000
0100
0010
0001
1000
0100
0010
0001
0120
0000
0000
,
0100
0000
0100
2030
,
3210
0320
2031
3002
,
0100
0000
0000
0003
0000
0000
0010
0100
0020
0000
0000
0000
1000
0000
0000
0000
0000
0000
0230
0000
0010
0000
0001
0000
,
0010
0000
0001
0000
0310
0000
2000
0000
0001
0000
0100
0000
0001
0000
0100
0000
3001
0000
0210
0000
0000
0320
0000
0000
,
1032
0000
0000
0000
1000
0003
2000
0000
,
3210
0320
2130
3002
,
0010
0000
0000
0003
0000
0000
0020
0000
0001
0000
0100
0000
0001
0000
0100
0000
0031
0000
0200
0000
0010
0000
1000
0000
,
0010
0000
0000
0000
1000
0000
0000
0000
0310
0000
0000
0000
2000
0000
0000
0000
0100
0000
0000
0000
0010
0000
0000
0000
0100
0000
0000
0000
0010
0000
3000
0000
0100
0000
0000
0000
0010
0000
0000
0100
0000
0000
1000
0000
0000
0100
0000
0000
,
0021
0000
0100
2030
,
3120
0032
2103
3002
,
1000
0000
0000
0003
0000
0000
0010
0100
0020
0000
0000
0000
1000
0000
0000
0030
0000
0000
0200
0000
0010
0000
0001
0000
,
0010
0000
0001
0000
0010
0000
2300
0000
0001
0000
0100
0000
3001
0000
0100
0000
0001
0000
0210
0000
0000
0300
0200
0000
,
1310
0000
0002
0003
0000
0020
1031
0000
0200
0300
0000
2000
,
3011
0000
0200
0311
0000
0021
1130
0010
0001
0010
0100
1000
,
0001
0000
0000
0000
0010
0000
0000
0000
0001
0000
0000
0000
0010
0000
0000
0000
0001
0000
0000
0000
0010
0000
0000
0000
0100
0000
0000
0000
1000
0000
0000
0000
0100
0000
0000
0000
0020
0030
0000
0000
0100
0000
0000
0000
1000
0000
0000
0000
,
0001
0010
0100
1000
0001
0010
0100
1000
0001
0100
0001
0100
,
0010
0100
0010
1000
0010
1000
0001
0010
0100
1000
0001
1000
,
0001
0100
0010
1000
0001
0010
0100
1000
0100
0010
0001
0100
,
0010
1000
0010
0100
0001
0100
0010
1000
0100
0010
0100
0010
,
0001
0000
0100
0000
0010
0000
1000
0000
0001
0000
0100
0000
0010
0000
1000
0000
0010
0000
2002
0000
0000
3003
0000
0000
,
0022
0000
0000
0000
0033
0000
0000
0000
0220
0000
0000
0000
0330
0000
0000
0000
2200
0000
0000
0000
3300
0000
0000
0000
0022
0000
0000
0000
0000
0033
0000
0000
,
2020
0000
0000
0000
0000
0000
3030
0000
0000
0202
0000
0000
0000
0000
0000
0000
0303
0000
2020
0000
0000
0000
0000
0000
,
0000
0000
0000
3030
2200
0000
0000
0000
0000
0000
0000
0000
0000
0000
0000
0000
,
0000
0000
0000
0000
,
0000
0000
0000
0000
,
3300
0000
0000
0000
;
