#TITLE:THE LAST MAXX FOREVER;
#SUBTITLE:;
#ARTIST:HELGEN-X;
#TITLETRANSLIT:;
#SUBTITLETRANSLIT:;
#ARTISTTRANSLIT:;
#CREDIT:;
#BANNER:thelastmaxxforever.png;
#BACKGROUND:thelastmaxxforever-bg.png;
#LYRICSPATH:;
#CDTITLE:;
#MUSIC:thelastmaxxforever.mp3;
#OFFSET:-10.425;
#SAMPLESTART:20.660;
#SAMPLELENGTH:15.000;
#SELECTABLE:YES;
#DISPLAYBPM:*;
#BPMS:0.000=185.000,32.000=369.998,224.000=739.997,226.000=184.999,227.000=92.499,245.000=369.997;
#STOPS:228.000=0.815
;
#BGCHANGES:;
// cache tags:
#FIRSTBEAT:0.000;
#LASTBEAT:473.000;
#SONGFILENAME:Songs/keyboard/The Last MaxX Forever/thelastmaxxforever.sm;
#HASMUSIC:1;
#HASBANNER:1;
#MUSICLENGTH:103.870;
// end cache tags

//---------------dance-single - ----------------
#NOTES:
     dance-single:
     :
     Beginner:
     3:
     0.231,0.339,0.173,0.000,0.000,150.000,18.000,0.000,0.000,0.000:  // measure 1
1000
0000
0000
0000
,  // measure 2
0001
0000
0000
0000
,  // measure 3
0010
0000
0000
0000
,  // measure 4
0100
0000
0000
0000
,  // measure 5
0010
0000
0000
0000
,  // measure 6
0100
0000
0000
0000
,  // measure 7
1000
0000
0000
0000
,  // measure 8
0001
0000
0000
0000
,  // measure 9
1000
0000
0000
0000
,  // measure 10
1000
0000
0000
0000
,  // measure 11
1000
0000
0000
0000
,  // measure 12
0001
0001
0001
0000
,  // measure 13
0001
0000
0000
0000
,  // measure 14
0001
0000
0000
0000
,  // measure 15
0001
0000
0000
0000
,  // measure 16
0010
0010
0010
0000
,  // measure 17
0010
0000
0000
0000
,  // measure 18
0010
0000
0000
0000
,  // measure 19
0010
0000
0000
0000
,  // measure 20
0100
0100
0100
0000
,  // measure 21
0100
0000
0000
0000
,  // measure 22
0100
0000
0000
0000
,  // measure 23
0100
0000
0000
0000
,  // measure 24
1000
1000
1000
0000
,  // measure 25
0001
0000
0000
0000
,  // measure 26
1000
0000
0000
0000
,  // measure 27
0001
0000
0000
0000
,  // measure 28
0010
0000
0000
0000
,  // measure 29
0001
0000
0000
0000
,  // measure 30
1000
0000
0000
0000
,  // measure 31
0001
0000
0000
0000
,  // measure 32
0100
0000
0000
0000
,  // measure 33
0010
0000
0000
0000
,  // measure 34
0100
0000
0000
0000
,  // measure 35
0010
0000
0000
0000
,  // measure 36
1000
0000
0000
0000
,  // measure 37
0010
0000
0000
0000
,  // measure 38
0100
0000
0000
0000
,  // measure 39
0010
0000
0000
0000
,  // measure 40
0001
0000
0000
0000
,  // measure 41
1000
0000
0000
0000
,  // measure 42
0001
0000
0000
0000
,  // measure 43
1000
0000
0000
0000
,  // measure 44
0001
0001
0001
0000
,  // measure 45
0010
0000
0000
0000
,  // measure 46
0100
0000
0000
0000
,  // measure 47
0010
0000
0000
0000
,  // measure 48
0100
0100
0100
0000
,  // measure 49
1000
0000
0000
0000
,  // measure 50
0001
0000
0000
0000
,  // measure 51
1000
0000
0000
0000
,  // measure 52
0001
0001
0001
0000
,  // measure 53
0100
0000
0000
0000
,  // measure 54
0010
0000
0000
0000
,  // measure 55
0100
0000
0000
0000
,  // measure 56
0010
0010
0010
0000
,  // measure 57
0110
0000
0000
0000
,  // measure 58
0000
1001
0000
0000
,  // measure 59
0000
0110
0000
0110
,  // measure 60
0000
0110
0000
0000
,  // measure 61
0000
1001
0000
1001
,  // measure 62
0000
1000
0000
0000
,  // measure 63
0000
1000
0000
0000
,  // measure 64
0000
1000
0000
0000
,  // measure 65
0000
1000
0000
0000
,  // measure 66
0000
0001
0000
0000
,  // measure 67
0000
0001
0000
0000
,  // measure 68
0000
0001
0000
0000
,  // measure 69
0000
0001
0000
0000
,  // measure 70
0000
0010
0000
0000
,  // measure 71
0000
0010
0000
0000
,  // measure 72
0000
0010
0000
0000
,  // measure 73
0000
0010
0000
0000
,  // measure 74
0000
0100
0000
0000
,  // measure 75
0000
0100
0000
0000
,  // measure 76
0000
0100
0000
0000
,  // measure 77
0000
0100
0000
0000
,  // measure 78
0000
1001
0000
0000
,  // measure 79
0000
1001
0000
0000
,  // measure 80
0000
1001
0000
0000
,  // measure 81
0000
0000
0000
0000
,  // measure 82
0000
0110
0000
0000
,  // measure 83
0000
0110
0000
0000
,  // measure 84
0000
0110
0000
0000
,  // measure 85
0000
0000
0000
0000
,  // measure 86
0000
1001
0000
0000
,  // measure 87
0000
0110
0000
0000
,  // measure 88
0000
0010
0000
0000
,  // measure 89
0000
0010
0000
0000
,  // measure 90
0000
0110
0000
0000
,  // measure 91
0000
1001
0000
0000
,  // measure 92
0000
1000
0000
0000
,  // measure 93
0000
1000
0000
0000
,  // measure 94
0000
0001
0000
0000
,  // measure 95
0000
0001
0000
0000
,  // measure 96
0000
1000
0000
0000
,  // measure 97
0000
1000
0000
0000
,  // measure 98
0000
0010
0000
0000
,  // measure 99
0000
0010
0000
0000
,  // measure 100
0000
0100
0000
0000
,  // measure 101
0000
0100
0000
0000
,  // measure 102
0000
0001
0000
0000
,  // measure 103
0000
0001
0000
0000
,  // measure 104
0000
1000
0000
0000
,  // measure 105
0000
1000
0000
0000
,  // measure 106
0000
0100
0000
0000
,  // measure 107
0000
0100
0000
0000
,  // measure 108
0000
0010
0000
0000
,  // measure 109
0000
0010
0000
0000
,  // measure 110
0000
0001
0001
0001
,  // measure 111
0000
1000
1000
1000
,  // measure 112
0000
0010
0010
0010
,  // measure 113
0000
0100
0100
0100
,  // measure 114
0000
0001
0001
0001
,  // measure 115
0000
1000
1000
1000
,  // measure 116
0000
0100
0100
0100
,  // measure 117
0000
0010
0010
0010
,  // measure 118
0000
0110
0000
0000
;

//---------------dance-single - ----------------
#NOTES:
     dance-single:
     :
     Easy:
     7:
     0.530,0.683,0.087,0.067,0.000,369.000,9.000,7.000,0.000,0.000:  // measure 1
1000
0001
1000
0000
,  // measure 2
0010
0100
0010
0000
,  // measure 3
0100
0001
1000
0000
,  // measure 4
0100
1000
0001
1000
,  // measure 5
0001
0100
0010
0000
,  // measure 6
0010
0100
0001
0000
,  // measure 7
1000
0010
1000
0000
,  // measure 8
0001
0010
0100
1000
,  // measure 9
0010
0100
0010
0000
,  // measure 10
1000
0001
1000
0000
,  // measure 11
0100
0010
0100
0000
,  // measure 12
1000
0010
0100
0001
,  // measure 13
1000
0100
0010
0000
,  // measure 14
0100
0010
0001
0000
,  // measure 15
0100
0001
1000
0000
,  // measure 16
0010
0100
0001
1000
,  // measure 17
0100
0010
0100
0000
,  // measure 18
1000
0010
0100
0000
,  // measure 19
0001
0010
0100
0000
,  // measure 20
0010
0100
1000
0001
,  // measure 21
0100
0010
1000
0000
,  // measure 22
0010
0100
0001
0000
,  // measure 23
1000
0100
1000
0000
,  // measure 24
0010
0100
0001
0010
,  // measure 25
0100
0010
0100
0000
,  // measure 26
1000
0010
0100
0000
,  // measure 27
1000
0100
0010
0000
,  // measure 28
0100
0001
0010
1000
,  // measure 29
0010
0100
0010
0000
,  // measure 30
1000
0010
0100
0000
,  // measure 31
1000
0010
0100
0000
,  // measure 32
0001
0100
1000
0100
,  // measure 33
0001
0010
0100
0000
,  // measure 34
0010
0100
1000
0000
,  // measure 35
0010
0100
0001
0000
,  // measure 36
0010
0100
0010
0001
,  // measure 37
0100
1000
0100
0000
,  // measure 38
0010
1000
0010
0000
,  // measure 39
0100
0010
1000
0000
,  // measure 40
0001
0010
1000
0010
,  // measure 41
0001
0100
1000
0000
,  // measure 42
0100
0010
1000
0000
,  // measure 43
0001
0010
0100
0000
,  // measure 44
0010
0100
1000
0010
,  // measure 45
0100
0001
0100
0000
,  // measure 46
1000
0100
0010
0000
,  // measure 47
0100
0001
0010
0000
,  // measure 48
0100
0010
0001
0010
,  // measure 49
1000
0010
0001
0000
,  // measure 50
0100
0010
0100
0000
,  // measure 51
1000
0100
0010
0000
,  // measure 52
0100
0001
0010
1000
,  // measure 53
0010
0100
0010
0000
,  // measure 54
0001
0100
0010
0000
,  // measure 55
1000
0100
0010
0000
,  // measure 56
0001
0010
1000
0010
,  // measure 57
0002
0000
0000
0000
,  // measure 58
0003
1000
0001
1000
,  // measure 59
1001
0010
0100
0110
,  // measure 60
0010
1001
0100
0010
,  // measure 61
0001
0101
0100
1010
,  // measure 62
1001
0001
0010
0100
,  // measure 63
0000
0010
0100
1000
,  // measure 64
0000
0010
0100
0001
,  // measure 65
1000
0100
0010
0100
,  // measure 66
0000
1000
0010
0100
,  // measure 67
0000
0001
0100
0010
,  // measure 68
0000
0100
0001
0010
,  // measure 69
0100
0010
1000
0010
,  // measure 70
0000
0100
1000
0001
,  // measure 71
0000
0100
1000
0100
,  // measure 72
0000
0010
0100
0001
,  // measure 73
0010
1000
0010
0001
,  // measure 74
0000
0100
0001
0100
,  // measure 75
0000
1000
0100
1000
,  // measure 76
0000
0100
0010
0100
,  // measure 77
0010
0100
0010
0100
,  // measure 78
0000
0001
0010
0000
,  // measure 79
0000
0100
1000
0000
,  // measure 80
0000
0001
1000
0000
,  // measure 81
0000
0010
0100
0001
,  // measure 82
1000
0100
0010
0000
,  // measure 83
0000
0001
0100
0000
,  // measure 84
0000
0010
1000
0000
,  // measure 85
0100
0010
0001
1000
,  // measure 86
0000
0010
0100
0000
,  // measure 87
0000
0001
1000
0000
,  // measure 88
0000
0220
0000
0000
,  // measure 89
0330
0100
0010
0000
,  // measure 90
0000
0001
0100
0000
,  // measure 91
0000
0010
1000
0000
,  // measure 92
0000
2002
0000
0000
,  // measure 93
3003
0010
0001
0000
,  // measure 94
0000
0100
0010
1000
,  // measure 95
0010
0100
0000
0001
,  // measure 96
0010
0100
0010
0001
,  // measure 97
0000
1000
0000
0010
,  // measure 98
0000
0100
0010
1000
,  // measure 99
0000
0100
0010
0001
,  // measure 100
0000
0100
0010
1000
,  // measure 101
0100
0010
0001
0100
,  // measure 102
0000
0001
0010
0100
,  // measure 103
0010
1000
0010
0100
,  // measure 104
0000
1000
0001
0100
,  // measure 105
1000
0100
0001
0100
,  // measure 106
0000
0001
0010
1000
,  // measure 107
0000
0010
0100
1000
,  // measure 108
0000
0001
0100
1000
,  // measure 109
0100
0010
1000
0000
,  // measure 110
0000
0001
0010
0100
,  // measure 111
0010
0100
1000
0010
,  // measure 112
0100
0001
0010
1000
,  // measure 113
0010
0001
0100
0010
,  // measure 114
0100
0001
1000
0100
,  // measure 115
1000
0001
1000
0010
,  // measure 116
0100
0001
0010
1000
,  // measure 117
0010
0001
0100
1000
,  // measure 118
0100
0022
0000
0000
,  // measure 119
0000
0033
0000
0000
;

//---------------dance-single - ----------------
#NOTES:
     dance-single:
     :
     Medium:
     10:
     0.872,1.000,0.895,0.587,0.010,480.000,93.000,61.000,0.000,0.000:  // measure 1
1000
0010
0100
0001
0000
0000
0000
0000
,  // measure 2
0100
0010
1000
0001
0000
0000
0000
0000
,  // measure 3
0010
0100
1000
0001
0000
0000
0000
0000
,  // measure 4
0100
0001
0010
0100
1000
0010
0100
0010
,  // measure 5
1000
0001
0010
0100
0000
0000
0000
0000
,  // measure 6
0010
0100
1000
0001
0000
0000
0000
0000
,  // measure 7
0100
0010
1000
0001
0000
0000
0000
0000
,  // measure 8
1000
0001
1000
0010
0100
0001
1000
0000
,  // measure 9
0100
0010
0001
0100
,  // measure 10
0010
1000
0010
0100
,  // measure 11
0001
0010
0100
1000
,  // measure 12
0010
0010
0100
0100
,  // measure 13
0001
0010
0100
1000
,  // measure 14
0010
0100
0001
1000
,  // measure 15
0100
0010
0001
1000
,  // measure 16
1000
0001
0001
0010
,  // measure 17
0100
0010
0001
0100
,  // measure 18
0010
1000
0100
0010
,  // measure 19
0001
0100
0010
0000
,  // measure 20
0110
1010
1001
0110
,  // measure 21
0001
0010
0100
1000
,  // measure 22
0001
0100
0010
1000
,  // measure 23
0001
0010
0100
0000
,  // measure 24
0110
1100
1010
1001
,  // measure 25
0001
0100
0010
1000
,  // measure 26
0100
0010
0001
0100
,  // measure 27
0010
1000
0100
0000
,  // measure 28
1100
1001
0110
0101
,  // measure 29
0100
0010
0001
0100
,  // measure 30
0010
1000
0100
0010
,  // measure 31
0001
0100
0010
0000
,  // measure 32
1010
0110
0011
0110
,  // measure 33
0001
0100
0010
1000
,  // measure 34
0100
0010
0001
0100
,  // measure 35
0010
1000
0100
0000
,  // measure 36
1010
0110
0101
0110
,  // measure 37
0001
0100
0010
1000
,  // measure 38
0100
0010
0001
0100
,  // measure 39
0001
0010
0100
0010
,  // measure 40
1000
0010
0100
1000
,  // measure 41
2002
0000
3003
0100
,  // measure 42
0220
0000
0330
0010
,  // measure 43
2002
0000
3003
0100
,  // measure 44
0220
0000
0330
1000
,  // measure 45
0202
0000
0303
0010
,  // measure 46
2020
0000
3030
1000
,  // measure 47
0220
0000
0330
0001
,  // measure 48
2002
0000
3003
0010
,  // measure 49
0220
0000
0330
1000
,  // measure 50
0202
0000
0303
1000
,  // measure 51
2002
0000
3003
0010
,  // measure 52
0220
0000
0330
0100
,  // measure 53
2020
0000
3030
0001
,  // measure 54
0022
0000
0033
1000
,  // measure 55
0220
0000
0330
1000
,  // measure 56
0001
0100
0010
1000
,  // measure 57
0220
0000
0000
0000
,  // measure 58
0000
0030
0000
0000
0000
0000
0000
0000
0000
0000
0000
0000
0000
0000
0000
0000
0310
0000
0000
0000
0000
0000
0000
0000
0000
0000
0000
0000
0000
0000
0000
0000
0001
0000
0000
0000
0000
0000
0000
0000
0000
0000
0000
0000
0000
0000
0000
0000
0100
0000
0000
0000
0000
0000
0000
0000
0000
0000
0000
0000
0000
0000
0000
0000
,  // measure 59
0010
1001
0010
0110
,  // measure 60
0100
0010
1001
0000
0001
0000
1000
0000
,  // measure 61
0200
0000
0310
0000
0001
0000
0100
0010
,  // measure 62
1000
0001
1000
0000
0010
0000
0100
0000
,  // measure 63
0001
0010
0100
0010
,  // measure 64
0100
1000
0010
0100
,  // measure 65
0001
1000
0100
0010
,  // measure 66
0100
1000
0010
0100
,  // measure 67
0001
0010
0100
0010
,  // measure 68
1000
0010
0100
1000
,  // measure 69
0010
0100
1000
0100
,  // measure 70
0001
0010
0100
0010
,  // measure 71
0100
0010
1000
0010
,  // measure 72
0100
0010
0001
0100
,  // measure 73
1000
0100
0010
1000
,  // measure 74
0100
0010
0001
0010
,  // measure 75
0100
0010
0100
1000
,  // measure 76
0010
0100
0010
0100
,  // measure 77
0010
0100
0002
2000
,  // measure 78
3003
0110
0220
0330
,  // measure 79
0000
0110
0220
0330
,  // measure 80
0000
1001
2002
3003
,  // measure 81
0100
0100
0100
0100
,  // measure 82
0100
0110
0220
0330
,  // measure 83
0000
1001
2002
3003
,  // measure 84
0000
0110
0220
0330
,  // measure 85
0010
0010
0010
0110
,  // measure 86
0110
0010
0220
0000
,  // measure 87
0330
1001
0220
0000
,  // measure 88
0330
0000
0100
0000
0000
0100
0000
0000
,  // measure 89
0100
0000
0000
0000
0010
0000
0000
0000
0000
2002
0000
0000
0000
0000
0000
0000
,  // measure 90
3003
1010
0220
0000
,  // measure 91
0330
0110
0022
0000
,  // measure 92
0033
0000
1001
0000
0000
1001
0000
0000
,  // measure 93
1001
0000
0000
0000
0110
0000
0000
0000
0000
0220
0000
0000
0000
0000
0000
0000
,  // measure 94
0330
0000
1000
0001
1000
0001
1000
0001
,  // measure 95
1000
0001
0100
0010
0100
0010
0100
0010
,  // measure 96
0100
0010
1000
0010
1000
0010
1000
0010
,  // measure 97
1000
0010
0100
0001
0100
0001
0100
0001
,  // measure 98
0100
0001
1000
0001
1000
0001
1000
0001
,  // measure 99
1000
0001
1000
0100
1000
0100
1000
0100
,  // measure 100
1000
0100
0010
0100
0010
0100
0010
0100
,  // measure 101
0010
0100
0010
0001
0010
0001
0010
0001
,  // measure 102
0010
0001
1000
0100
1000
0100
1000
0100
,  // measure 103
1000
0100
0010
0100
0010
0100
0010
0100
,  // measure 104
0010
0100
0001
0100
0001
0100
0001
0100
,  // measure 105
0001
0100
1000
0100
1000
0100
1000
0100
,  // measure 106
1000
0100
0010
0100
0010
0100
0010
0100
,  // measure 107
0010
0100
0010
0001
0010
0001
0010
0001
,  // measure 108
0010
0001
1000
0001
1000
0001
1000
0001
,  // measure 109
1000
0001
1000
0100
1000
0100
1000
0100
,  // measure 110
1000
0100
0011
0000
0110
0000
1100
0000
,  // measure 111
0110
1100
0110
0011
,  // measure 112
0101
1001
1010
1100
,  // measure 113
0110
0101
1001
1010
,  // measure 114
0110
0101
0110
1010
,  // measure 115
1100
0110
0101
1010
,  // measure 116
0110
0101
1001
0010
,  // measure 117
0100
1000
0100
0010
,  // measure 118
0001
2002
0000
0000
,  // measure 119
0000
3003
0000
0000
;

//---------------dance-single - ----------------
#NOTES:
     dance-single:
     :
     Hard:
     14:
     1.000,1.000,0.741,0.395,0.318,623.000,77.000,41.000,0.000,0.000:  // measure 1
1000
0100
0010
0001
0000
0010
0100
0000
,  // measure 2
0010
0100
1000
0001
0000
0100
0001
0000
,  // measure 3
1000
0010
0100
0010
0000
0100
0010
0000
,  // measure 4
1000
0010
0100
0001
0010
0100
0010
0100
,  // measure 5
1000
0010
0100
0001
0000
1000
0001
0000
,  // measure 6
0010
0100
1000
0001
0000
1000
0001
0000
,  // measure 7
0100
0010
0100
0010
1000
0001
0100
0000
,  // measure 8
0001
0100
0010
1000
0100
0010
0001
0000
,  // measure 9
1001
0010
0100
1000
,  // measure 10
0100
0010
0001
0010
,  // measure 11
0100
1000
0010
0100
,  // measure 12
0011
1001
1010
0110
,  // measure 13
0010
1000
0001
0100
,  // measure 14
0010
0100
0001
0010
,  // measure 15
0100
1000
0010
0100
,  // measure 16
0110
0000
1010
0000
1000
0001
1000
0001
,  // measure 17
1000
0010
0100
0010
,  // measure 18
1000
0100
0010
0100
,  // measure 19
1000
0001
0100
0010
,  // measure 20
0110
0110
1100
1010
,  // measure 21
0101
0001
0100
0001
,  // measure 22
0010
0100
1000
0001
,  // measure 23
0100
0010
1000
0100
,  // measure 24
1100
0000
0011
0000
0100
0010
0100
0010
,  // measure 25
0100
0010
1000
0010
,  // measure 26
0100
0001
0010
0100
,  // measure 27
1000
0001
0100
0001
,  // measure 28
0101
0110
1010
1100
,  // measure 29
0010
0100
1000
0001
,  // measure 30
0100
0001
1000
0100
,  // measure 31
0010
0010
0100
1000
,  // measure 32
1100
0110
0011
1100
,  // measure 33
0001
1000
0010
0100
,  // measure 34
0001
0010
0100
0010
,  // measure 35
0001
0100
0010
1000
,  // measure 36
1100
0000
0110
0000
0001
0010
0100
1000
,  // measure 37
0100
1000
0010
0100
,  // measure 38
0001
0010
0100
1000
,  // measure 39
0010
0100
0001
1000
,  // measure 40
1100
0000
0110
0000
1000
0100
0010
0001
,  // measure 41
1000
0000
0010
0000
0100
0001
0000
0001
,  // measure 42
1000
0000
0001
0000
1000
0010
0000
0010
,  // measure 43
0100
0000
0010
0000
1000
0001
0000
0001
,  // measure 44
1000
0100
0001
0100
,  // measure 45
0101
0000
0010
0000
1000
0100
0000
0100
,  // measure 46
1000
0000
0010
0000
0100
0001
0000
0001
,  // measure 47
1000
0100
1000
0010
,  // measure 48
0110
0010
1000
0100
,  // measure 49
0110
0001
1000
0110
,  // measure 50
1010
0010
0100
0010
,  // measure 51
0011
0100
1000
0100
,  // measure 52
0110
0010
1000
0001
,  // measure 53
0110
0100
0010
0001
,  // measure 54
0110
0010
1000
0100
,  // measure 55
0110
0001
0100
0001
,  // measure 56
0101
0010
1000
0010
,  // measure 57
2002
0000
0000
0000
,  // measure 58
0000
3003
0000
0000
0000
0000
0000
0000
0000
0000
0000
0000
0000
0000
0000
0000
2002
0000
0000
0000
0000
0000
0000
0000
0000
0000
0000
0000
0000
0000
0000
0000
0000
0000
0000
0000
0000
0000
0000
0000
0000
0000
0000
0000
0000
0000
0000
0000
0000
0000
0000
0000
0000
0000
0000
0000
0000
0000
0000
0000
0000
0000
0000
0000
,  // measure 59
3003
0220
0330
2200
,  // measure 60
3300
0220
0000
0000
,  // measure 61
0330
0022
0033
2200
,  // measure 62
3300
1000
0010
0100
,  // measure 63
0001
1000
0001
0010
,  // measure 64
0100
1000
0010
0100
,  // measure 65
0010
0100
0001
0010
,  // measure 66
0100
1000
0010
1000
,  // measure 67
0010
1000
0010
0100
,  // measure 68
0001
0010
0100
0010
,  // measure 69
0100
1000
0010
0100
,  // measure 70
1000
0001
0100
0010
,  // measure 71
1000
0010
0100
0010
,  // measure 72
1000
0100
0010
0001
,  // measure 73
0100
0010
0100
0010
,  // measure 74
1000
0100
1000
0010
,  // measure 75
0100
0001
0010
0100
,  // measure 76
0010
0100
1000
0010
,  // measure 77
0100
0001
0010
0200
,  // measure 78
0300
1100
2020
0000
,  // measure 79
3030
1100
2002
0000
,  // measure 80
3003
0110
2020
0000
,  // measure 81
3030
1010
0001
0100
,  // measure 82
0000
0110
0220
0000
,  // measure 83
0330
1010
2020
0000
,  // measure 84
3030
1100
2200
0000
,  // measure 85
3300
0000
1001
0000
1001
0000
1000
0001
,  // measure 86
1000
0001
0010
0000
0022
0000
0000
0000
,  // measure 87
0033
0110
0220
0000
,  // measure 88
0330
0000
1010
0000
0000
1001
0000
0000
,  // measure 89
0101
0000
0000
0000
0110
0000
0000
0000
0000
0220
0000
0000
0000
0000
0000
0000
,  // measure 90
0330
0110
0220
0000
,  // measure 91
0330
1001
2002
0000
,  // measure 92
3003
0000
1100
0000
0000
0011
0000
0000
,  // measure 93
0110
0000
0000
0000
1001
0000
0000
0000
0000
2002
0000
0000
0000
0000
0000
0000
,  // measure 94
3003
0000
1000
0100
0010
0001
0010
0100
,  // measure 95
1000
0100
1000
0100
0010
0100
0010
0001
,  // measure 96
0010
0001
1000
0001
0100
0010
1000
0010
,  // measure 97
0100
0010
0100
0010
1000
0001
1000
0001
,  // measure 98
0100
0001
0100
0001
1000
0100
1000
0100
,  // measure 99
0010
0001
0010
0100
0010
0100
0010
0100
,  // measure 100
0010
1000
0010
0100
0001
0010
0001
0010
,  // measure 101
0001
0010
0100
0010
0100
0001
1000
0001
,  // measure 102
1000
0010
0100
0010
0100
0010
1000
0001
,  // measure 103
0100
0010
0100
0010
0100
0001
1000
0010
,  // measure 104
1000
0100
1000
0100
1000
0100
1000
0001
,  // measure 105
1000
0100
1000
0010
0100
0001
0010
0001
,  // measure 106
0010
0001
0100
0010
0100
0010
1000
0001
,  // measure 107
1000
0001
0010
0100
0010
0100
0001
1000
,  // measure 108
0010
0100
0001
1000
0010
1000
0100
1000
,  // measure 109
0010
0100
0001
1000
0001
0010
0001
0010
,  // measure 110
0100
0000
1000
0000
0001
0010
0100
0010
0100
1000
0100
0010
0100
0010
0100
0010
,  // measure 111
0001
0010
0001
0010
0001
0010
0100
1000
0100
1000
0100
1000
0100
1000
0100
0010
,  // measure 112
0100
0010
0100
0010
0001
0010
0001
0010
0100
0010
0100
1000
0100
1000
0100
1000
,  // measure 113
0100
0010
0100
0010
0001
0010
0001
0010
0001
0010
0100
1000
0100
0010
0001
0010
,  // measure 114
0100
1000
0100
1000
0100
0010
0100
0010
0100
0010
0001
0010
0100
1000
0100
1000
,  // measure 115
0100
0010
0001
0010
0001
0010
0100
0010
0100
0010
0100
1000
0001
1000
0001
0010
,  // measure 116
0001
0010
0100
0010
0100
1000
0100
1000
0100
0010
0001
0010
0100
1000
0100
0010
,  // measure 117
0001
0010
0100
1000
0100
1000
0100
1000
0100
0010
0100
0010
0001
0010
0001
0010
,  // measure 118
0100
1000
0100
0010
2002
0000
0000
0000
0000
0000
0000
0000
0000
0000
0000
0000
,  // measure 119
0000
3003
0000
0000
;
