#TITLE:12 days  of StarCraft;
#SUBTITLE:Starcraft;
#ARTIST:Unknow Artist;
#TITLETRANSLIT:;
#SUBTITLETRANSLIT:;
#ARTISTTRANSLIT:;
#CREDIT:;
#BANNER:12daysofstarcraft.png;
#BACKGROUND:12daysofstarcraft_BG.png;
#LYRICSPATH:12daysofstarcraft.lrc;
#CDTITLE:fixx-title.png;
#MUSIC:12daysofstarcraft.mp3;
#OFFSET:-1.510;
#SAMPLESTART:5.315;
#SAMPLELENGTH:12.000;
#SELECTABLE:YES;
#BPMS:0.000=110.000;
#STOPS:;
#BGCHANGES:;
// cache tags:
#FIRSTBEAT:0.000;
#LASTBEAT:453.000;
#SONGFILENAME:Songs/DDRExtreme.co.uk presents ChristmasMix/12 Days Of Starcraft - FiXx/12daysofstarcraft.sm;
#HASMUSIC:1;
#HASBANNER:1;
#MUSICLENGTH:251.269;
// end cache tags

//---------------dance-single - ----------------
#NOTES:
     dance-single:
     :
     Hard:
     7:
     0.367,0.383,0.020,0.398,0.022,540.000,5.000,100.000,0.000,0.000:
0000
0100
0001
0010
1000
0100
0001
0010
,
0200
0000
0300
0000
0000
0000
0001
0001
,
0010
0100
0010
0001
,
0001
1000
0010
0100
0001
0000
0000
0001
,
0020
0030
0100
1000
0100
0010
0002
0003
,
0010
0000
1001
0000
0110
0000
0000
0100
,
0010
0000
1000
0001
0000
0001
0000
0100
0010
0000
0001
0000
0000
0000
0000
0000
,
0001
0000
0010
0000
0200
0300
0000
1000
0200
0000
0300
0000
0000
0000
0000
0000
,
0000
0001
0000
0000
0010
0000
0100
0000
1000
0000
0000
0000
1000
0000
0100
0000
,
0020
0030
0100
1000
0100
0000
0010
0000
,
0001
0000
0000
0000
1001
0000
0000
1001
0110
0000
0000
0000
1000
0000
0100
0000
,
0010
0000
0010
0100
1000
0000
1000
0000
,
0100
0010
0100
0010
0001
0000
0000
0000
,
0001
0020
0130
0001
,
0010
0100
1000
0000
1000
0100
0020
0030
,
0100
1000
0100
0000
0010
0000
0002
0000
,
0000
0000
0003
0000
1000
0100
0010
0000
,
0010
0001
0010
0000
0100
0000
0100
0001
,
0010
1000
0100
0000
0000
0000
0002
0000
,
1003
0100
0010
0000
0020
0000
0130
0001
,
1000
0000
0200
0000
1300
0100
0010
0000
,
0001
0010
0200
0300
1000
0000
0100
0000
,
0010
0002
0003
0000
,
1000
0100
0010
0000
0010
0001
0010
0000
,
1000
0000
1000
0100
1000
0100
1000
0000
,
0000
2000
0000
3200
,
0320
0000
0230
0000
0000
0300
0000
0000
,
0000
0000
2000
0000
3010
0100
0010
0000
,
0002
0013
0100
0002
,
0013
0100
1000
0000
1000
0100
0010
0000
,
0001
0010
0100
2000
,
0000
3000
0000
0000
1000
0100
0010
0000
,
0010
0100
0010
0000
1000
0000
0100
0010
,
1000
0100
0010
0000
0000
0000
0001
0000
,
0001
1000
0001
1000
0002
0000
0000
0000
,
0023
0230
0320
0000
,
0000
0000
0030
0000
2000
0000
3100
0010
,
0001
0200
0310
1000
,
0020
0000
0031
0010
0100
0000
1000
0100
,
0010
0001
0010
0100
,
1000
0000
0000
0000
0000
0000
1000
0100
,
0010
0001
0010
0100
1000
0000
0100
0000
,
0001
0010
0100
1000
0100
0000
0000
0000
,
1000
0100
1000
0100
0010
0001
2000
0000
,
3100
0010
0001
0010
0002
0000
0000
0000
,
0023
0230
2300
0000
,
0000
3000
0000
0000
2000
0000
3100
0001
,
0010
0200
0310
1000
,
2000
0000
3001
0010
0001
0000
0001
0100
,
0010
0001
0010
0100
,
1000
0000
0000
0000
0000
0000
1000
0100
,
0010
0000
1000
0001
0010
0000
0010
0000
,
0010
0100
0010
0001
0010
0000
0000
0000
,
2000
0000
3100
0010
0001
0010
1000
0100
,
0010
0001
0010
0100
2000
0000
3010
0100
,
1000
0100
0002
0000
0000
0000
0023
0000
,
0230
0320
0000
0000
,
0030
0000
0002
0000
0013
1000
0100
0000
,
2000
3100
0100
0002
,
0013
0100
1000
0000
1000
0100
0010
0000
,
1000
0100
1000
0020
,
0000
0030
0000
0000
1000
0100
0010
0000
,
0010
0100
0010
0000
0001
0000
0100
1000
,
0100
0010
0100
0000
0000
0000
2000
0000
,
3100
0010
0100
1000
0200
0000
0310
0001
,
0010
0100
0010
0001
0010
0100
1000
0100
,
0020
0000
0031
0010
0100
1000
0002
0000
,
0000
0023
0230
0320
,
0000
0000
0030
2000
,
3001
0010
0100
0000
0200
0000
0310
0000
,
0001
0000
0020
0030
0010
0100
1000
0000
,
0100
0010
0001
0000
0001
0000
0010
0000
,
0100
0000
2000
0000
0000
3000
0000
0000
,
1000
0100
0010
0000
0001
0010
0001
0000
,
0010
0000
0100
1000
0100
0010
0001
0000
,
0000
0000
0002
0000
0013
0100
1000
0000
,
0020
0000
1030
0001
1000
0001
0200
0000
,
1300
0100
0010
0001
0010
0100
0010
0001
,
0010
0100
2000
0000
3100
0010
0001
0100
,
0002
0000
0023
0230
,
0320
0000
0000
0030
,
2000
0000
3100
0010
0100
0000
2000
0000
,
3100
0000
0010
0000
0002
0000
0013
0100
,
1000
0000
1000
0100
0010
0000
0001
0000
,
0010
0100
2000
3000
,
0000
0010
1000
0100
1000
0100
0010
0001
,
0010
0000
0001
0000
0010
0100
1000
0100
,
0010
0000
0000
1000
0100
0010
0001
0010
,
0100
1000
0002
0000
0013
0100
1000
0000
,
0200
0000
1300
0100
0010
0001
0020
0000
,
1030
0100
0001
0010
0200
0000
1300
0100
,
0010
0001
0020
0000
1030
0100
0010
0001
,
0002
0000
0023
0230
,
0320
0000
0000
0030
,
2000
0000
3100
0010
0001
0000
0002
0000
,
0013
0000
0100
0000
2000
0000
3100
0010
,
0001
0000
1000
0100
0010
0000
0100
0000
,
1000
0010
0002
0000
,
0003
0000
1000
0100
0010
0000
0001
0010
,
0001
0010
0000
0000
0001
0010
0200
0300
,
0100
0010
0000
0000
0000
0000
0000
0000
2000
0000
0000
0000
3000
0100
0000
0010
,
0000
0001
0000
0000
1000
0000
0000
0000
0100
0000
0000
0000
0010
0000
0000
0000
0001
0000
0000
0000
0010
0000
0000
0000
0100
0000
0000
0000
1000
0000
0000
0000
,
0200
0000
0301
0010
0100
0000
2000
0000
,
3100
0010
0001
0010
0200
0000
1300
0001
,
1000
0001
1000
0100
0010
0001
0010
0100
,
2000
0000
3001
0010
0001
0010
2000
0000
,
0000
3200
0320
0230
,
0000
0000
0300
2000
,
3100
0010
0001
0000
0020
0000
0130
0000
,
1000
0000
2000
0000
3100
0010
0001
0000
,
1000
0100
0010
0000
0002
0000
0023
0000
,
0230
0000
0300
2000
0000
0000
0000
0000
,
0000
0000
0000
0000
0000
0001
0010
0000
,
0100
0000
0000
0010
3001
0000
0000
0000
0000
0000
0000
0000
0000
0000
0000
0000
;

//---------------dance-single - ----------------
#NOTES:
     dance-single:
     :
     Medium:
     5:
     0.264,0.270,0.275,0.103,0.000,370.000,69.000,26.000,0.000,0.000:
1100
0000
1001
0110
,
1001
0000
0000
0000
,
1001
0001
1000
0100
,
0001
0010
1000
0000
,
0010
0100
1000
0100
,
0010
1100
0110
0000
,
0010
1000
0010
0001
,
0100
0010
0001
0000
,
1001
0010
1000
0010
,
1000
0010
0100
0010
,
0001
1001
0110
0000
,
1001
0010
1000
1000
,
0100
0100
0001
0000
,
1001
0010
0100
1001
,
0010
1000
0100
0010
,
0100
1000
0100
0010
,
0000
0000
1001
0010
,
0100
1000
0010
0100
,
0001
1000
0000
1001
,
1000
0010
1001
0100
,
1000
1001
1000
0010
,
0001
0100
1000
0100
,
0010
0001
0000
0000
,
0100
0010
0100
0010
,
1000
0100
1000
0010
,
0000
2000
0000
3200
,
0000
0320
0000
0030
,
0000
1001
0010
0100
,
1001
0010
0100
1001
,
0010
1000
1000
0010
,
0001
0010
0100
1000
,
0000
0000
1000
0010
,
0001
0010
1000
0100
,
1000
0010
0000
1001
,
1000
0001
2000
0000
,
3200
0000
0320
0000
,
0030
0000
1001
0100
,
0001
1001
0010
1000
,
1001
0001
0100
1000
,
0010
0001
0010
0100
,
1000
0000
0000
1000
,
0010
0010
1000
0100
,
0001
0010
0100
0000
,
1001
1000
0010
1001
,
0100
0010
0200
0000
,
2300
0000
3200
0000
,
0300
0000
1001
0100
,
0010
1001
0010
0100
,
1001
0001
0001
0001
,
0010
0001
0010
0100
,
1000
0000
0000
1000
,
0010
1000
0001
0001
,
0010
0010
0001
0000
,
1001
0100
0001
1001
,
0010
0010
1001
0010
,
1000
0200
0000
0320
,
0000
0032
0000
0003
,
0000
1001
0010
0100
,
1001
0100
0100
1001
,
0010
1000
1000
0010
,
1000
0100
1000
0100
,
0000
0000
1000
0010
,
0100
0010
0001
0100
,
0100
0100
0000
1001
,
1000
0001
1001
0001
,
1000
1001
0100
0010
,
1001
0001
0100
0002
,
0000
0023
0000
0230
,
0000
0300
0000
1001
,
0001
0100
1001
0010
,
0001
1001
0010
1000
,
0010
0001
0001
0010
,
0100
0010
0000
0000
,
0100
0010
0001
0001
,
0010
1000
1000
0100
,
0000
1001
0010
1000
,
1001
1000
1000
1001
,
0001
0001
1001
0010
,
0010
1001
0100
0100
,
0020
0000
0230
0000
,
2300
0000
3000
0000
,
1001
0100
0100
1001
,
0100
0010
1001
0010
,
1000
1000
0010
0001
,
0010
0100
1000
0000
,
0000
1000
1000
0010
,
0010
0001
0010
1000
,
0010
0000
1001
0001
,
0100
1001
0010
1000
,
1001
1000
0010
1001
,
1000
0001
1001
1000
,
0010
1001
1000
0010
,
0002
0000
0023
0000
,
0230
0000
0300
0000
,
1001
0100
0001
1001
,
0010
0100
1001
0100
,
0001
1000
0010
0100
,
1000
0010
0001
0000
,
0000
1000
0010
0001
,
0001
0000
0001
0010
,
0100
0000
1001
0100
,
0010
1001
0001
0100
,
1001
0001
0100
1001
,
0100
0001
1001
1000
,
1000
1001
0010
0010
,
1001
0001
0001
2000
,
0000
3002
0000
2003
,
0000
3000
0000
1001
,
0100
0001
1001
0100
,
1000
1001
0100
0001
,
1000
0010
0001
0010
,
0100
0000
0000
2000
0000
0000
0000
0000
,
0000
0000
0200
0000
,
0000
3300
0000
0000
;

//---------------dance-single - Copied from----------------
#NOTES:
     dance-single:
     Copied from:
     Easy:
     3:
     0.193,0.270,0.107,0.231,0.002,254.000,27.000,58.000,0.000,0.000:
0100
0000
1000
0001
,
1000
0000
0000
0000
,
1001
0000
1000
0000
,
0001
0000
1000
0000
,
0010
0100
1000
0100
,
0010
0100
0001
0000
,
0010
0000
0010
0000
,
0100
0000
0001
0000
,
0000
0001
0000
0000
0000
0000
0000
0000
1000
0000
0000
0000
0000
0000
0000
0000
,
1000
0100
0010
0001
,
0020
0000
0030
0000
,
1001
0000
1000
0000
,
0100
0000
0001
0000
,
1001
0000
0100
0001
,
0000
1000
0000
1000
,
0100
0010
0001
0010
,
0000
0000
0000
0010
,
0000
1000
0000
0100
,
0000
1000
0000
1001
,
0200
0300
0000
0002
,
0003
0000
0200
0300
,
0001
0100
1000
0100
,
0010
0001
0000
0000
,
0000
0010
0000
0010
,
0000
0100
0000
0010
,
0000
2000
0000
3200
,
0000
0320
0000
0030
,
0000
1000
0000
0100
,
0010
0000
0000
1000
,
0010
1000
0000
0010
,
0001
0010
0100
1000
,
0000
0000
0000
0010
,
0000
0010
0000
0100
,
0000
0010
0000
1000
,
0002
0003
2000
0000
,
3200
0000
0320
0000
,
0030
0000
1000
0000
,
0001
1000
0000
0000
,
0100
0001
0100
0000
,
0010
0001
0010
0100
,
1000
0000
0000
0000
,
0010
0000
1000
0000
,
0001
0000
0100
0000
,
1001
0020
0030
1001
,
0020
0030
0200
0000
,
2300
0000
3200
0000
,
0300
0000
1000
0000
,
0010
0001
0000
0000
,
1000
0001
0001
0000
,
0010
0001
0010
0100
,
1000
0000
0000
0000
,
0010
0000
0001
0000
,
0010
0000
0001
0000
,
1000
0200
0300
1000
,
0020
0030
1000
2000
,
3000
0200
0000
0320
,
0000
0032
0000
0003
,
0000
1000
0000
0100
,
1000
0000
0000
1000
,
0010
1000
0000
0010
,
1000
0100
0010
0100
,
0000
0000
0000
0010
,
0000
0010
0000
0100
,
0000
0100
0000
1000
,
0002
0003
1000
2000
,
3000
0100
0020
0030
,
1000
0200
0300
0002
,
0000
0023
0000
0230
,
0000
0300
0000
1001
,
0000
0100
1000
0000
,
0000
1000
0010
1000
,
0000
0001
0001
0010
,
0100
0010
0000
0000
,
0000
0010
0000
0001
,
0000
1000
0000
0100
,
0000
1000
2000
3000
,
1001
2000
3000
1001
,
0002
0003
1001
0020
,
0030
1001
0200
0300
,
0020
0000
0230
0000
,
2300
0000
3000
0000
,
1001
0000
0100
1000
,
0000
0000
0100
0010
,
1000
0000
0010
0001
,
0010
0100
1000
0000
,
0000
0000
1000
0000
,
0010
0000
0100
0000
,
0010
0000
1001
0200
,
0300
1001
2000
3000
,
1001
0020
0030
1001
,
0002
0003
1001
0020
,
0030
1001
0200
0300
,
0002
0000
0023
0000
,
0230
0000
0300
0000
,
1001
0000
0001
1000
,
0000
0000
1000
0100
,
0010
0000
0010
0100
,
1000
0010
0001
0000
,
0000
0000
0010
0000
,
0001
0000
0001
0000
,
0100
0000
1001
0020
,
0030
1001
0200
0300
,
1001
0200
0300
1001
,
0002
0003
1001
2000
,
3000
1001
0020
0030
,
1001
0002
0003
2000
,
0000
3002
0000
2003
,
0000
3000
0000
1001
,
0000
0001
1000
0000
,
0000
0001
0100
0000
,
1000
0010
0001
0010
,
0100
0000
0000
2000
0000
0000
0000
0000
,
0000
0000
0002
0000
,
0000
3003
0000
0000
;

//---------------dance-single - Copied from Copied f----------------
#NOTES:
     dance-single:
     Copied from Copied f:
     Beginner:
     1:
     0.112,0.135,0.004,0.271,0.000,128.000,1.000,68.000,0.000,0.000:
2002
0000
0000
0000
,
3003
0000
0000
0000
,
1000
0000
0000
0000
,
0001
0000
0000
0000
,
0010
0000
1000
0000
,
0010
0000
0000
0000
,
0001
0000
0000
0000
,
0100
0000
0000
0000
,
0001
0000
0000
0000
,
1000
0000
0010
0000
,
0010
0000
0000
0000
,
0001
0000
0000
0000
,
0100
0000
0000
0000
,
2000
3000
0000
0002
,
0003
0000
0000
1000
,
0000
0010
0000
0100
,
0000
0000
0000
0010
,
0000
0000
0000
0100
,
0000
0000
0000
2000
,
3000
0000
0002
0003
,
0000
0200
0300
0000
,
0001
0000
1000
0000
,
0010
0000
0000
0000
,
0000
0010
0000
0000
,
0000
0100
0000
0000
,
0000
2000
0000
0000
,
0000
0000
0000
3000
,
0000
2000
3000
0000
,
0020
0030
0000
2000
,
3000
0000
0000
0010
,
0000
0010
0000
1000
,
0000
0000
0000
0010
,
0000
0000
0000
0100
,
0000
0000
0000
0200
,
0300
0000
2000
0000
,
0000
0000
0000
0000
,
3000
0000
2000
3000
,
0000
0200
0300
0000
,
0002
0003
0000
0000
,
0010
0000
0010
0000
,
1000
0000
0000
0000
,
0010
0000
0000
0000
,
0001
0000
0000
0000
,
0020
0030
0000
2000
,
3000
0000
2000
0000
,
0000
0000
0000
0000
,
3000
0000
2000
3000
,
0000
0200
0300
0000
,
2000
3000
0000
0000
,
0010
0000
0100
0000
,
0001
0000
0000
0000
,
0010
0000
0000
0000
,
0010
0000
0000
0000
,
2000
3000
0000
0200
,
0300
0000
0020
0030
,
0000
0200
0000
0000
,
0000
0000
0000
0300
,
0000
0002
0003
0000
,
0020
0030
0000
0200
,
0300
0000
0000
0010
,
0000
0100
0000
0010
,
0000
0000
0000
0010
,
0000
0000
0000
0100
,
0000
0000
0000
2000
,
3000
0000
0020
0030
,
0000
0200
0300
0000
,
0020
0030
0000
0002
,
0000
0000
0000
0000
,
0000
0003
0000
0020
,
0030
0000
0200
0300
,
0000
2000
3000
0000
,
0000
0001
0000
0010
,
0000
0010
0000
0000
,
0000
0010
0000
0000
,
0000
1000
0000
0000
,
0000
2000
3000
0000
,
0200
0300
0000
0020
,
0030
0000
0002
0003
,
0000
0020
0030
0000
,
0200
0000
0000
0000
,
0000
0000
0300
0000
,
2000
3000
0000
0200
,
0300
0000
0020
0030
,
0000
0000
0010
0000
,
0010
0000
1000
0000
,
0000
0000
1000
0000
,
0000
0000
0100
0000
,
0000
0000
0020
0030
,
0000
0200
0300
0000
,
2000
3000
0000
0200
,
0300
0000
0020
0030
,
0000
0002
0003
0000
,
0020
0000
0000
0000
,
0000
0000
0030
0000
,
0200
0300
0000
0002
,
0003
0000
0020
0030
,
0000
0000
0010
0000
,
1000
0000
0001
0000
,
0000
0000
0010
0000
,
0000
0000
0001
0000
,
0000
0000
0002
0003
,
0000
0020
0030
0000
,
0200
0300
0000
2000
,
3000
0000
0020
0030
,
0000
2000
3000
0000
,
0020
0030
0000
2000
,
0000
0000
0000
0000
,
0000
3000
0000
2000
,
3000
0000
0020
0030
,
0000
0002
0003
0000
,
1000
0000
0001
0000
,
0100
0000
0000
2000
0000
0000
0000
0000
,
0000
0000
0000
0000
,
0000
3000
0000
0000
;

//---------------dance-single - Copied from----------------
#NOTES:
     dance-single:
     Copied from:
     Challenge:
     9:
     0.536,0.608,1.000,0.458,0.022,541.000,287.000,115.000,0.000,54.000:
0000
1100
0011
0110
1010
0110
1001
0110
,
0220
0000
0330
0000
0000
0000
1001
0001
,
1010
0100
0110
0001
,
1001
1000
0010
0100
1001
0000
0000
0001
,
0120
0030
0101
1000
0110
0010
2002
3003
,
0010
0000
1001
0000
0110
0000
0000
0100
,
0110
0000
1000
0001
0000
0001
0000
0100
1010
0000
0001
0000
0000
0000
0000
0000
,
0101
0000
0010
0000
0200
0300
0000
1000
0200
0000
0300
0000
0000
0000
0000
0000
,
0000
0011
0000
0000
1010
0000
0110
0000
1001
0000
0000
0000
1000
0000
0100
0000
,
0022
0033
0110
1000
0101
0000
0110
0000
,
1001
0000
0000
0000
1001
0000
0000
1001
0110
0000
0000
0000
1000
0000
0100
0000
,
0011
0000
0010
0100
1100
0000
1000
0000
,
1001
0010
0100
0010
1001
0000
0000
0000
,
1001
0000
0110
0011
1100
0000
1001
0000
,
0110
0011
1001
0000
1000
0100
0022
0033
,
0110
1000
1100
0000
0110
0000
0012
0000
,
0000
0000
0003
0000
1000
0100
1010
0000
,
0010
0001
0110
0000
0100
0000
0110
0001
,
0010
1000
0101
0000
0000
0000
1002
0000
,
1103
0110
0011
0000
0020
0000
1130
0011
,
1100
0000
0200
0000
1310
0101
1010
0000
,
0001
0010
0200
0300
1100
0000
0110
0000
,
0011
0002
0003
0000
,
1000
0100
1010
0000
0010
0001
0110
0000
,
1000
0000
1001
0100
1000
0100
1001
0000
,
0000
2002
0000
3200
,
0320
0000
0230
0000
0000
0300
0003
0000
,
0000
0000
2001
0000
3010
0100
0011
0000
,
1002
0013
0110
1002
,
0013
0100
1000
0000
1010
0100
0011
0000
,
0011
0110
1100
2200
,
0000
3300
0000
0000
1000
0100
0011
0000
,
0010
0100
0110
0000
1000
0000
0110
0010
,
1000
0100
0011
0000
0000
0000
0001
0000
,
0101
1010
0101
1000
2002
0000
0000
0000
,
0023
0230
0320
0000
,
0000
0000
3030
0000
2100
0000
3100
0010
,
1001
0210
0310
1010
,
1100
0000
0101
0010
0101
0000
1100
0100
,
0011
0011
0110
1100
,
1010
0000
0000
0000
0000
0000
1000
0100
,
1010
0001
0010
0100
1001
0000
0100
0000
,
0011
0010
0100
1000
0101
0000
0000
0000
,
1000
0100
1100
0110
0011
0001
2000
0000
,
3110
0011
0101
0010
2002
0000
0000
0000
,
0023
0230
0302
0000
,
3003
0000
0000
0000
2001
0000
3100
0001
,
0110
1200
0310
1000
,
2100
0000
3011
0010
0011
0000
0001
0100
,
1010
0011
0110
0110
,
1100
0000
0000
0000
0000
0000
1000
0100
,
0011
0000
1000
0001
0110
0000
0010
0000
,
0011
0100
0010
0001
1010
0000
0000
0000
,
2000
0000
3110
0010
0011
0010
1000
0100
,
0110
0011
0110
0100
2000
0000
3011
0110
,
1100
0100
2002
0000
0000
0000
0023
0000
,
0230
0320
0000
0000
,
3030
0000
1002
0000
0013
1000
0110
0000
,
2100
3100
0110
0012
,
0113
0100
1100
0000
1000
0100
0011
0000
,
1100
0110
1001
0220
,
0000
0330
0000
0000
1000
0100
1010
0000
,
0010
0100
0011
0000
0001
0000
0110
1000
,
0100
0010
1100
0000
0000
0000
2000
0000
,
3110
0011
0110
1000
0200
0000
1310
0101
,
1010
0100
0010
0001
0011
0110
1100
0100
,
0020
0000
0131
0011
0110
1000
2002
0000
,
0000
0023
0230
0320
,
0000
0000
3030
2001
,
3001
0010
1100
0000
0210
0000
0310
0000
,
0011
0000
0120
0030
0110
0100
1000
0000
,
1100
0010
0011
0000
0011
0000
0110
0000
,
1100
0000
2200
0000
0000
3300
0000
0000
,
1000
0100
1010
0000
0001
0010
0101
0000
,
0010
0000
0110
1000
0100
0010
1001
0000
,
0000
0000
0002
0000
0113
1100
1001
0000
,
0020
0000
1130
0011
1100
0001
0200
0000
,
1310
0110
0110
0001
0010
1100
0110
0011
,
0010
0100
2000
0000
3110
1010
0011
0100
,
2002
0000
0023
0230
,
0320
0000
0000
3030
,
2100
0000
3100
0010
1100
0000
2100
0000
,
3100
0000
0110
0000
0012
0000
0113
0100
,
1000
0000
1100
0100
0010
0000
0011
0000
,
0110
1100
2200
3300
,
0000
0010
1000
0100
1010
0100
0010
0001
,
1010
0000
0001
0000
0110
0100
1000
0100
,
0011
0000
0000
1000
0110
0010
0001
0110
,
0110
1100
0002
0000
0113
0110
1001
0000
,
0200
0000
1310
0101
0110
0001
0020
0000
,
1130
0110
0101
0010
0200
0000
1310
0101
,
0110
0001
0020
0000
1130
0110
0011
0001
,
2002
0000
0023
0230
,
0320
0000
0000
3030
,
1100
0000
0100
0010
0101
0000
0012
0000
,
0013
0000
0110
0000
2100
0000
3110
0010
,
0001
0000
1100
0100
0011
0000
0110
0000
,
1100
0110
0022
0000
,
0033
0000
1000
0100
0110
0000
1001
0010
,
0101
0010
0000
0000
1001
0010
0200
0300
,
1100
0010
0000
0000
0000
0000
0000
0000
2000
0000
0000
0000
3000
0110
0000
0110
,
0000
0011
0000
0000
1000
0000
0000
0000
0100
0000
0000
0000
0010
0000
0000
0000
0011
0000
0000
0000
0011
0000
0000
0000
0110
0000
0000
0000
1000
0000
0000
0000
,
0200
0000
0311
0011
1100
0000
2000
0000
,
3110
0011
0101
0010
0200
0000
1310
0101
,
1010
0001
1000
0100
0110
1001
0110
0100
,
2000
0000
3011
0110
1001
0010
2002
0000
,
0000
3200
0320
0230
,
0000
0000
0303
2100
,
3100
0010
0101
0000
0021
0000
0130
0000
,
1100
0000
2100
0000
3110
0010
0001
0000
,
1100
0100
0011
0000
0012
0000
0123
0000
,
1230
0000
0300
2200
0000
0000
0000
0000
,
0000
0000
0000
0000
0000
0301
0010
0000
,
0100
0000
0000
0010
3001
0000
0000
0000
0000
0000
0000
0000
0000
0000
0000
0000
;

//---------------dance-single - ----------------
#NOTES:
     dance-single:
     :
     Edit:
     10:
     0.500,0.537,0.692,0.673,0.002,536.000,174.000,169.000,0.000,25.000:
1001
2000
0010
0100
0010
0001
0010
0100
,
0020
0000
3030
0000
0000
0000
1001
1001
,
0001
0000
0010
0001
0200
0000
1300
0100
,
0010
0001
0010
0100
2000
3000
0000
1000
,
0200
0300
0001
0000
0010
1000
0100
0000
,
0010
0000
1001
0000
0110
0000
1001
1001
,
0220
0330
1000
0100
2000
3000
1000
0100
,
1000
0100
0010
0001
0020
0030
0000
0000
,
0002
0003
1100
0101
1010
0000
2002
3003
,
0001
0000
0010
0000
0100
0010
1000
0000
,
0100
0000
0000
0000
1001
0000
0000
0110
0110
0000
0000
0000
1100
0000
1100
0000
,
2002
3003
0001
0100
0020
0030
1000
0010
,
0100
1000
0010
0100
0002
0003
0000
0000
,
0002
0003
1010
0101
1010
0000
0200
0300
,
0011
1100
0011
0000
0010
1000
0100
0000
,
0010
0100
0001
0000
1000
0000
0200
0000
,
0300
0000
0000
0000
1010
0110
0002
0003
,
0100
0010
0002
0003
1000
0100
0010
0100
,
0001
0010
2000
3000
0000
0000
2000
3000
,
0011
0110
1100
0000
0200
0300
1001
0110
,
1001
0000
0020
0030
0101
1010
1100
0000
,
0010
0001
0100
0000
0010
0001
0010
0010
,
0100
0000
0020
0030
0000
0000
0220
0000
,
0330
0000
2000
3000
0001
1000
0020
0030
,
0010
0001
0100
0010
1000
0100
0020
0030
,
0000
2020
0000
3232
,
0023
0000
2332
0000
0000
3003
0000
0000
,
0000
0000
1000
0100
0010
0001
0010
0000
,
2002
3003
0000
0000
1000
0000
0001
0010
,
0100
0010
0001
0000
0001
0010
0100
0000
,
1000
0100
0010
0001
0010
0000
0200
0300
,
0000
0000
0000
0000
1010
0101
2020
3030
,
0001
0010
0200
0300
0001
0010
0001
0100
,
0001
0010
0002
0000
0003
0000
0200
0300
,
0011
0110
0011
0000
2200
0000
0000
0000
,
3322
0000
2030
0000
3223
0000
0000
0330
,
0000
0000
0000
0000
0100
0001
1000
0010
,
1000
0000
0220
0330
0000
0000
0100
0000
,
0010
1000
0001
1000
0010
0000
0010
1000
,
0001
0000
0100
0001
1000
0010
1000
0000
,
0002
0003
0000
0000
0000
0000
0110
0110
,
2002
3003
0001
0010
0200
0300
1000
0001
,
0100
0010
1000
0001
0020
0030
0000
0000
,
0002
0003
1100
1100
1100
0000
2000
3000
,
0101
1001
0101
0000
2020
0000
0000
0000
,
3232
0000
0023
0000
2332
0000
0000
3003
,
0000
0000
0000
0000
1000
0100
0010
0001
,
0010
0000
2002
3003
0000
0000
1000
0000
,
0001
0010
0100
0010
0001
0000
0001
0010
,
0100
0000
1000
0100
0010
0001
0010
0000
,
0200
0300
0000
0000
0000
0000
0011
1100
,
0220
0330
0001
0001
0002
0003
0001
0010
,
0100
1000
1000
1000
2000
3000
0000
0000
,
2000
3000
0110
1001
0110
0000
2000
3000
,
0011
0011
0011
0000
0002
0003
1010
1001
,
1010
0202
0000
2323
,
3200
0000
2332
0000
0000
3003
0000
0000
,
0000
0000
0001
0010
0100
1000
0100
0000
,
2002
3003
0000
0000
0001
0000
1000
0100
,
0010
0100
1000
0000
1000
0100
0010
0000
,
0001
0010
0100
1000
0100
0000
0020
0030
,
0000
0000
0000
0000
1001
0110
2002
3003
,
0100
0010
0002
0003
0010
0100
1000
0100
,
0010
0001
0020
0030
0000
0000
0200
0300
,
0011
0101
1001
0000
0200
0300
0101
0011
,
0101
0000
0200
0300
1010
1100
0110
0000
,
2000
3000
0110
0101
1010
0000
2020
0000
,
0000
3232
0320
2233
,
0000
3300
0000
0000
0000
0000
0001
0001
,
0010
1000
0100
0000
2200
3300
0000
0000
,
0100
0000
1000
0010
0010
0100
0010
0000
,
0100
1000
0010
0000
0001
0100
0010
1000
,
0100
0000
0002
0003
0000
0000
0000
0000
,
1001
1001
0220
0330
0001
1000
0002
0003
,
0001
0010
0100
1000
0100
0010
0002
0003
,
0000
0000
0020
0030
1001
1001
1001
0000
,
0002
0003
1010
0011
0110
0000
0002
0003
,
0011
1010
0011
0000
0002
0003
1100
0101
,
1001
0000
0200
0300
1001
0011
1100
0000
,
2200
0000
3322
2003
,
3232
0000
0000
0303
0000
0000
0000
0000
,
0010
0010
1000
0100
0001
0000
0202
0303
,
0000
0000
0001
0000
0100
1000
1000
0001
,
1000
0000
0001
0100
1000
0000
0010
0001
,
1000
0100
0001
0000
0020
0030
0000
0000
,
0000
0000
0011
1100
0202
0303
0100
0010
,
0200
0300
1000
0100
0001
0010
1000
0100
,
0002
0003
0000
0000
2000
3000
0101
1010
,
0101
0000
0002
0003
1100
1100
1100
0000
,
2000
3000
0101
1001
0011
0000
2000
3000
,
1001
0101
1001
0000
2000
3000
0110
1010
,
1100
0000
0020
0030
1100
1001
0110
0000
,
0220
0000
2332
3200
,
2323
0000
0000
3030
0000
0000
0000
0000
,
0001
0001
0100
0010
1000
0000
2020
3030
,
0000
0000
1000
0000
0010
0100
0100
1000
,
0100
0000
1000
0010
0100
0000
0001
1000
,
0100
0010
1000
0000
0002
0003
0000
0000
,
0000
0000
0110
0110
2002
3003
1000
0100
,
0020
0030
1000
0100
0010
0001
1000
0100
,
0020
0030
0000
0000
2000
3000
1100
0110
,
0011
0000
2000
3000
0101
1010
0101
0000
,
2000
3000
1100
0110
1001
0000
0200
0300
,
1010
1010
0110
0000
0200
0300
0101
1100
,
0110
0000
0200
0300
0011
1100
1010
0000
,
0002
0003
0101
0101
0011
0000
0022
0000
,
0000
2233
0320
3232
,
0000
0303
0000
0000
0000
0000
0010
0010
,
0100
1000
0001
0000
0202
0303
0000
0000
,
0100
0000
0100
0010
0001
1000
0100
0000
,
0100
0010
1000
0000
0010
0100
0100
0001
,
0000
0010
0000
2202
0000
0000
0000
0000
,
0000
0000
0000
3303
0000
0000
0000
0000
;
