#TITLE:Rose;
#SUBTITLE:Remastered;
#ARTIST:cornandbeans;
#TITLETRANSLIT:;
#SUBTITLETRANSLIT:;
#ARTISTTRANSLIT:;
#CREDIT:;
#BANNER:rose-bn.jpg;
#BACKGROUND:rose-bg.jpg;
#LYRICSPATH:;
#CDTITLE:!cartoonTitle.png;
#MUSIC:Rose - cornandbeans.mp3;
#OFFSET:0.000;
#SAMPLESTART:99.960;
#SAMPLELENGTH:12.000;
#SELECTABLE:YES;
#BPMS:0.000=175.000;
#STOPS:;
#BGCHANGES:;
// cache tags:
#FIRSTBEAT:0.000;
#LASTBEAT:444.000;
#SONGFILENAME:Songs/Definitive Keyboard Megapack/Rose(Cartoon)/Rose - cornandbeans.sm;
#HASMUSIC:1;
#HASBANNER:1;
#MUSICLENGTH:153.652;
// end cache tags

//---------------dance-single - Blank----------------
#NOTES:
     dance-single:
     Blank:
     Medium:
     15:
     1.000,1.000,1.000,0.970,0.944,1036.000,392.000,149.000,0.000,214.000:

1100
0000
0000
0000
0000
0011
0000
0000
,
1010
0000
0000
0000
0000
0110
0000
0000
,
0101
0000
0000
0000
0000
0011
0000
0000
,
1100
0000
0000
0000
0000
0110
0000
0000
,
1001
0000
0010
0000
0010
0000
0010
1000
,
0100
0000
0100
0000
0001
0100
1000
0000
,
0011
0000
0110
0000
0101
0000
1010
0101
,
0110
0000
0101
0000
0011
0110
0101
0000
,
1010
0000
1100
0000
1001
0000
0011
1100
,
0011
0000
0110
0000
1001
0110
1001
0000
,
1100
0000
0101
0000
0110
0000
0110
1001
,
0110
0000
0101
0000
0011
1100
0011
0000
,
1100
0000
0110
0000
1010
0000
1010
0101
,
1010
0000
1100
0000
1001
0110
1001
0000
,
0101
2000
3110
2000
3011
2000
3011
2100
,
3011
2000
3110
2000
3110
1002
0113
0002
,
0113
2000
3101
2000
3110
2000
3101
2010
,
3101
2000
3110
2000
3101
0012
1103
0002
,
1103
0020
0131
0020
1130
0020
0131
1020
,
0131
0020
1130
0020
1031
0210
1301
0200
,
1301
0020
1130
0020
0131
0020
1130
0021
,
2130
0020
0131
0020
0131
0210
0311
3200
,
1311
0000
1101
0000
0110
0000
1110
0001
,
0110
0000
1011
0000
0002
0113
1102
0003
,
1100
0000
0111
0000
1001
0000
1101
0010
,
0110
0000
1110
0000
1020
0130
1021
0030
,
0120
0030
1110
0000
0011
0000
1110
0001
,
0110
0000
1011
0000
0120
0031
1120
0030
,
0110
0000
1101
0000
0110
0000
1011
1000
,
0011
0000
0111
0000
0110
0001
1110
0000
,
1111
2000
3110
2000
3011
2000
3110
2001
,
3110
0000
2000
0000
3101
0000
2000
0000
3110
0000
1002
0000
1103
0000
0020
0030
,
0111
1000
0010
0100
1011
0100
0010
0001
1110
0001
0010
1000
0111
1000
0010
0100
,
1011
0100
0010
0001
1110
0001
0100
0001
1110
0001
0100
1000
0111
1000
0100
0000
,
2000
3000
0200
0320
0032
0003
2000
0000
3000
0020
0230
0320
0030
0200
0300
0000
,
0111
1000
0010
0100
0011
1000
0111
1000
0101
0010
0001
1000
0111
1000
0100
0010
,
1001
0100
0010
0001
1010
0100
1000
0001
0110
0001
0010
1000
0111
1000
0010
0001
,
1110
0001
0010
0100
1010
0001
1110
0001
1010
0100
0010
0001
1110
0001
0010
0100
,
1010
0100
1000
0100
0011
0100
0010
0001
1110
0001
0010
1000
0111
1000
0010
0100
,
1011
0100
0010
0001
1010
0100
1011
0100
0011
0100
0010
0100
1011
0100
0010
0001
,
1100
0010
0001
0100
1010
0001
0010
0100
1011
0100
0010
1000
0111
1000
0100
0010
,
1101
0010
1000
0010
0101
0010
1101
0010
0101
1000
0001
0010
1101
0010
0100
1000
,
0011
1000
0100
0010
1100
0001
0100
0001
1110
0001
0010
1000
0111
1000
0010
0001
,
1110
0001
0010
0100
1010
0001
1110
0001
1100
0010
0100
0001
1110
0001
0010
0100
,
0011
0100
1000
0001
0110
0001
0010
0100
1010
0100
0010
0001
1110
0001
0100
1000
,
0111
1000
0100
1000
0110
1000
0111
1000
0011
0100
0001
1000
0111
1000
0010
0001
,
0110
0001
0010
0100
1001
0010
0100
1000
0111
1000
0001
0100
1011
0100
0001
0010
,
1101
0010
0001
0100
1001
0010
1101
0010
0101
0010
1000
0010
1101
0010
0100
0001
,
0110
1000
0100
0010
0101
0010
0100
1000
0111
1000
0100
0001
1110
0001
0010
1000
,
0111
1000
0100
0001
0110
1000
0111
1000
0101
0010
0100
1000
0111
1000
0100
0010
,
0101
0010
0001
0010
1100
0001
0100
0010
1101
0010
0001
0100
1011
0100
0010
0001
,
2000
0000
0001
0000
0001
0000
0001
3000
,
2000
3001
0001
0001
,
0001
0001
0001
0001
,
0001
0001
0001
0001
,
0111
0020
1131
0002
1113
2000
3111
0200
,
1311
0020
1131
0020
1131
0002
1113
0200
,
1311
0200
1311
0020
1131
0200
1311
0002
,
1113
2000
3111
0200
1311
0002
1113
2011
,
3111
0002
1113
0200
1311
0200
1311
0020
,
1131
2000
3111
0002
1113
0002
1113
2000
,
3111
0002
1113
0200
1311
2000
3111
2000
,
3111
0002
1113
2000
3111
1101
0111
1110
,
0111
1000
0100
0011
1000
0010
0101
0010
,
1010
0010
1000
0101
0100
0001
1010
0001
,
0110
1000
0010
0101
0010
0100
1001
0010
,
0011
0100
0001
0110
0001
0100
1001
0010
,
0110
0001
1000
0110
0100
0010
1001
0010
,
0101
0100
0001
1010
0001
0100
0011
0001
,
1100
0001
0100
0011
1000
0100
0011
0001
,
1100
0001
1000
0110
0001
1000
0011
0100
,
2010
3001
0111
0020
1030
0100
0211
1300
,
0002
0013
1110
0020
0031
0010
1210
0301
,
0020
0130
1101
0020
0130
0010
1102
0103
,
0020
0130
1011
0200
0301
0010
1012
0013
,
0200
0301
0111
2000
3010
0100
0211
1300
,
0002
0013
1110
0002
0103
0010
1120
0031
,
0200
0301
1011
0002
0103
0010
2011
3100
,
0020
0031
1101
0200
0310
0010
1102
0013
,
2100
3010
0101
2000
3110
0001
2110
3010
,
0101
0010
0111
0010
1100
0010
1102
0013
,
0210
0301
1110
0200
0311
0001
1210
0310
,
1100
0010
1101
0010
0102
0013
2101
3001
,
0120
1030
1101
0020
1130
0001
1120
0031
,
1100
0010
0111
0100
1010
0100
0112
0013
,
2001
0100
3010
1000
0111
1000
0200
1000
0311
0100
0010
0100
2011
0100
3010
0100
,
0011
1000
0100
0001
1110
0001
0100
0001
2010
0100
3001
0010
1201
0010
0301
1000
,
0111
1000
0010
0001
0110
1000
0111
1000
0101
0010
0100
1000
0111
1000
0010
0100
,
1010
0100
0001
0100
1010
0001
0100
0010
0101
0010
0100
1000
0111
1000
0100
0001
,
1110
0001
0100
0001
1010
0001
1110
0001
0110
1000
0100
0001
1110
0001
1000
0100
,
0011
0100
0010
1000
0110
0001
0010
0100
1011
0100
0001
0010
1101
0010
0001
0100
,
1011
0100
0010
0001
1010
0100
1011
0100
1010
0001
1000
0100
1011
0100
0010
0001
,
1100
0010
0001
0100
1010
0100
0001
0010
1101
0010
0100
0001
1110
0001
0100
0010
,
1101
0010
0001
1000
0101
0010
1101
0010
0101
0010
1000
0010
1101
0010
0100
0001
,
1100
0010
0100
1000
0011
0100
0010
1000
0111
1000
0010
0100
1011
0100
0010
1000
,
0111
1000
0100
0001
0110
1000
0111
1000
0101
0010
0100
1000
0111
1000
0100
0001
,
1010
0100
0010
0001
0110
1000
0001
0100
0011
1000
0100
0010
1101
0010
0100
0001
,
1110
0001
0010
0100
1010
0001
1110
0001
0110
1000
0010
0001
1110
0001
0010
0100
,
1001
0010
0100
0001
0110
1000
0001
0100
1011
0100
0010
0001
1110
0001
0010
0100
,
1011
0100
0010
0001
1010
0100
1011
0100
1001
0010
0001
0100
1011
0100
0010
1000
,
0011
0100
0001
0010
1100
0001
0010
0100
1011
0100
0001
0010
1101
0010
0100
1000
,
0111
1000
0100
0001
0110
1000
0111
1000
0101
0010
0001
1000
0111
1000
0100
0001
,
0110
0001
0010
0100
0011
1000
0100
0001
1110
0001
0010
1000
0111
1000
0010
0000
,
0002
0000
0003
0002
0000
0003
0002
0000
,
0003
0000
0000
0000
0000
0000
0020
0030
,
2000
0000
3000
2000
0000
3000
2000
0000
,
3000
0000
0000
0000
0002
0003
2000
3000
,
0020
0000
0030
0020
0000
0030
0020
0000
,
0030
0000
0000
0000
0000
0000
0020
0030
,
0200
0000
0300
0200
0000
0300
0200
0000
,
0300
0000
0000
0000
0002
0003
0200
0300
,
1111
0000
0000
0000
;
