#TITLE:Dies Irae;
#SUBTITLE:Day of Wrath;
#ARTIST:DM Ashura vs. Mozart;
#TITLETRANSLIT:;
#SUBTITLETRANSLIT:;
#ARTISTTRANSLIT:;
#CREDIT:;
#BANNER:Dies Irae.png;
#BACKGROUND:DIes Irae BG.png;
#LYRICSPATH:;
#CDTITLE:;
#MUSIC:Dies Irae.mp3;
#OFFSET:-0.700;
#SAMPLESTART:35.300;
#SAMPLELENGTH:16.833;
#SELECTABLE:YES;
#BPMS:0.000=175.000,182.000=87.500,200.000=175.000;
#STOPS:;
#BGCHANGES:;
// cache tags:
#FIRSTBEAT:16.000;
#LASTBEAT:320.000;
#SONGFILENAME:Songs/new/Dies Irae/Dies Irae.sm;
#HASMUSIC:1;
#HASBANNER:1;
#MUSICLENGTH:118.000;
// end cache tags

//---------------dance-single - ----------------
#NOTES:
     dance-single:
     :
     Hard:
     8:
     0.671,1.000,0.915,0.720,0.004,361.000,108.000,85.000,0.000,9.000:
0000
0000
0000
0000
,
0000
0000
0000
0000
,
0000
0000
0000
0000
,
0000
0000
0000
0000
,
2200
0000
3300
0100
1000
0100
1000
0100
,
1000
0100
1000
0100
1000
0000
1100
0000
,
0011
0000
0000
0001
0100
0000
1000
0000
,
1100
0000
0000
0010
0001
0000
0100
0000
,
0202
0000
0303
0100
0001
0100
0001
0100
,
0001
0100
0001
0100
0001
0000
0101
0000
,
0110
0000
0000
0010
0100
0000
1000
0000
,
1010
0000
0000
0100
0010
0000
0010
0000
,
2020
3030
1010
0000
0001
0010
0011
0000
,
1000
0100
1100
0000
0110
0000
1001
0000
,
0202
0303
0101
0000
1000
0100
1100
0000
,
0001
0010
0011
0000
0220
0000
0330
0000
,
2002
0000
0000
0000
3003
0000
0000
0000
0020
0000
0000
0030
1010
0000
0000
0000
,
0200
0000
0000
0300
0101
0000
0000
0000
0202
0000
0000
0000
0303
0000
0000
0000
,
2020
0000
0000
0000
3030
0000
0000
0000
2000
0000
0000
3000
1100
0000
0000
0000
,
0002
0000
0000
0003
0011
0000
0000
0000
1000
0000
0000
0000
2200
0000
0000
0000
,
3301
0000
1000
0100
1000
0000
0022
0000
,
1033
0000
0001
0010
0100
1000
0100
0010
,
0001
0000
0100
0000
0010
0000
1000
0000
0010
0000
0100
0010
0002
0000
0000
0000
,
1000
1000
0010
0013
,
0100
0100
1001
0010
,
1001
0010
1001
0100
,
1001
0100
2002
3013
,
2002
3103
2020
0100
,
0100
3130
0010
0101
,
0010
1100
0010
1001
,
0100
0000
1001
0000
2020
0000
0000
3030
,
0202
0000
0000
0303
0022
0000
0000
0033
,
2200
0000
0000
3300
0101
0000
1010
0000
,
0220
0000
0330
0000
1001
0000
0010
0100
,
1000
0000
0010
0100
0001
0000
0010
0100
,
1000
0100
0010
0100
0001
1000
0010
0100
,
0001
1000
0010
0000
1100
0000
0100
0000
,
0101
0100
1010
0011
,
1100
0101
0011
0010
,
1010
0010
1100
0101
,
1100
0000
0001
0100
0001
0000
0101
0000
,
0110
0000
1000
0100
1000
0000
1100
0000
,
0110
0000
0001
0010
0001
0100
0001
0010
,
1000
0100
1000
0010
1000
0001
0100
1000
,
0100
1000
0100
1000
0100
0010
0001
0010
,
0001
0010
0001
0010
0022
0000
0033
0100
,
1000
0100
0010
0001
0010
1100
1100
0000
,
2020
0000
3030
0100
1000
0100
0010
0001
,
0010
0011
0011
0000
2002
3003
0220
0330
,
2200
3300
0022
0033
2020
3030
0202
0303
,
0110
0000
0001
0010
0001
0010
0100
1000
,
0100
1000
0100
1000
0100
1000
0100
1000
,
1100
0000
1100
0000
1001
0000
0000
0001
,
0010
0000
0100
0000
0011
0000
0000
1000
,
0100
0000
0010
0000
0022
0000
0033
0010
,
0001
0010
0001
0010
0001
0010
0001
0010
,
0001
0000
1010
0000
0100
0000
0000
0101
,
0100
0000
1010
0000
0100
0000
0000
0011
,
0100
0000
1001
0000
2002
0000
3003
1000
,
0100
1000
0010
0100
0001
0010
0001
1000
,
0010
0100
0001
0010
2002
0000
3003
0001
,
0010
0001
0100
0010
1000
0100
1000
0001
,
0100
0010
1000
0000
0000
0000
1100
0000
,
0100
1100
0010
0101
,
0100
0101
0000
0010
,
0101
0010
1100
0010
,
0101
0000
0010
0100
0010
0100
1000
0100
,
0022
0000
0033
1000
,
0100
2200
0000
3300
,
2002
3003
0220
0330
,
1100
0110
0022
1033
,
2200
0000
3300
0001
,
0020
0002
0000
0033
,
2002
3003
0220
0330
,
0011
0110
2200
3301
,
1000
0100
0001
0100
1000
0100
0001
0100
,
1000
0010
0001
0010
1000
0010
0001
0010
,
1000
0010
0100
0001
1000
0010
0100
0001
,
0010
0220
0000
0000
,
0000
0000
0000
0000
,
0330
0000
0000
0000
;

//---------------dance-single - ----------------
#NOTES:
     dance-single:
     :
     Medium:
     6:
     0.476,0.983,0.763,0.415,0.000,254.000,90.000,49.000,0.000,0.000:
0000
0000
0000
0000
,
0000
0000
0000
0000
,
0000
0000
0000
0000
,
0000
0000
0000
0000
,
0022
0033
0001
0001
,
0001
0001
0001
0011
,
1100
0000
0010
0001
,
0011
0000
1000
0010
,
2020
3030
1000
1000
,
1000
1000
1000
1010
,
0110
0000
0010
0001
,
0101
0000
0100
0100
,
0202
0303
1000
1100
,
0001
0011
0110
1001
,
2020
3030
0001
0011
,
1000
0100
2200
3300
,
0202
0303
1010
0101
,
0000
1010
0022
0033
,
2200
3300
0110
0011
,
0000
1100
0001
0000
,
1000
0001
0001
0000
,
0001
1000
0010
0010
,
1000
0100
0100
0000
,
0001
0001
0100
0100
,
0010
0010
1001
0100
,
1001
0100
1001
0010
,
1001
0010
0200
0300
,
0020
0030
2002
0000
,
0000
3003
0100
1010
,
0100
0011
0100
1001
,
0010
1001
1001
0000
,
1001
0000
1001
0000
,
1001
0000
1010
0101
,
0000
0000
1001
0100
,
0001
0100
1000
0100
,
0001
0100
1000
0100
,
1000
0100
0011
0010
,
1010
0010
0101
1100
,
0011
1010
1100
0100
,
0101
0100
0011
1010
,
0011
1000
1000
1010
,
0110
0001
0001
0011
,
0110
1000
1000
1000
,
0001
0001
0001
0010
,
0010
0010
0010
1000
,
1000
0000
1000
0000
2200
0000
3300
0010
,
0001
0010
0100
1000
0100
0001
0001
0000
,
0202
0000
0303
0010
0001
0010
0100
1000
,
0100
1000
1000
0000
2002
3003
0220
0330
,
0022
0033
2200
3300
0202
0303
2020
3030
,
0110
1000
1000
0010
,
0010
0010
0010
0010
,
0011
0011
1001
0000
,
0100
0010
1100
0000
,
0010
0100
0000
0000
,
1000
1000
1000
1000
,
1010
1010
0100
0000
,
0010
0101
0010
0000
,
0010
1001
0220
0330
,
0010
0100
1000
1000
,
0100
1000
0220
0330
,
0100
0010
0001
0001
,
0010
0001
0000
0011
,
0010
0011
0100
1010
,
0010
1010
0000
0100
,
1010
0100
0011
0100
,
1010
0100
0000
0000
,
0000
0200
0300
0001
,
0010
0200
0300
1000
,
0010
0200
0300
0000
,
0011
0110
1010
0110
,
0001
0020
0030
1000
,
0100
0020
0030
0001
,
0020
0030
0200
0300
,
1100
0110
0000
1000
,
0001
1000
0001
1000
,
0001
1000
0001
1000
,
0001
0010
0001
0010
,
1100
0220
0000
0000
,
0000
0000
0000
0000
,
0330
0000
0000
0000
;

//---------------dance-single - ----------------
#NOTES:
     dance-single:
     :
     Easy:
     4:
     0.347,0.542,0.034,0.254,0.000,253.000,4.000,30.000,0.000,0.000:
0000
0000
0000
0000
,
0000
0000
0000
0000
,
0000
0000
0000
0000
,
0000
0000
0000
0000
,
0020
0030
1000
1000
,
0010
0100
0001
0100
,
0100
0000
1000
0001
,
1000
0000
1000
0100
,
0002
0003
1000
0010
,
0100
0100
1000
0010
,
0010
0000
0010
0001
,
0010
0000
0001
1000
,
2000
3000
0010
0010
,
1000
1000
0010
0010
,
0002
0003
1000
0010
,
1000
0010
0002
0003
,
2000
3000
0100
0010
,
0000
0010
0020
0030
,
0002
0003
0001
0100
,
0000
0100
0001
0000
,
0010
0100
1000
0000
,
0100
0010
0010
0010
,
0001
1000
0010
0000
,
0100
0010
0100
0100
,
0010
0010
0001
0100
,
0010
0001
0010
1000
,
1000
0001
2000
3000
,
0020
0030
0002
0000
,
0000
0003
1000
0010
,
0010
0001
0100
0100
,
0001
0100
0010
0000
,
0010
0000
0001
0000
,
0001
0000
0010
1000
,
0000
0000
0010
0100
,
1000
0100
0100
0100
,
0100
0010
0001
1000
,
0001
0010
0100
0010
,
0100
0001
0001
0001
,
0010
0010
1000
0010
,
0010
1000
1000
0010
,
0100
0001
0010
0010
,
1000
0100
1000
0100
,
1000
0001
0001
1000
,
1000
0100
0010
1000
,
0100
0001
0010
0100
,
0001
0000
0010
0000
0002
0000
0003
0100
,
1000
0001
1000
0100
0010
0010
0001
0000
,
2000
0000
3000
0001
0001
0010
0100
0001
,
0010
0001
0100
0000
0002
0003
2000
3000
,
0020
0030
0002
0003
2000
3000
0002
0003
,
0100
0010
0100
1000
,
0001
1000
0001
0001
,
1000
0001
0010
0000
,
0001
0100
1000
0000
,
1000
0001
0000
0000
,
0010
0010
0001
1000
,
0100
0100
0010
0000
,
0100
1000
0100
0000
,
0100
0010
2000
3000
,
1000
0010
0100
1000
,
0001
0001
2000
3000
,
0010
0010
0010
1000
,
0100
0100
0000
0001
,
1000
1000
0001
0001
,
0110
0110
0000
0010
,
0010
0100
0100
1000
,
0001
1001
0000
0000
,
0000
2000
3000
0100
,
0010
0002
0003
1000
,
0100
0020
0030
0000
,
1000
0100
0100
0001
,
0100
0020
0030
0100
,
0001
0020
0030
1000
,
0020
0030
2000
3000
,
0010
0010
0000
0010
,
1000
0010
0010
0001
,
0100
0001
0010
1000
,
0001
0100
0100
0100
,
0000
2002
0000
0000
,
0000
0000
0000
0000
,
3003
0000
0000
0000
;
