#TITLE:Classical Breakcore;
#SUBTITLE:;
#ARTIST:Zombie;
#TITLETRANSLIT:;
#SUBTITLETRANSLIT:;
#ARTISTTRANSLIT:;
#CREDIT:;
#BANNER:../speedcore rejects ban.png;
#BACKGROUND:../speedcore rejects bg.png;
#LYRICSPATH:;
#CDTITLE:;
#MUSIC:Classical Breakcore.ogg;
#OFFSET:-0.060;
#SAMPLESTART:26.500;
#SAMPLELENGTH:15.000;
#SELECTABLE:YES;
#BPMS:0.000=200.000;
#STOPS:;
#BGCHANGES:;
// cache tags:
#FIRSTBEAT:64.000;
#LASTBEAT:248.000;
#SONGFILENAME:Songs/Speedcore Rejects/Classical Breakcore - [Happy Feet!]/Classical Breakcore.sm;
#HASMUSIC:1;
#HASBANNER:1;
#MUSICLENGTH:74.861;
// end cache tags

//---------------dance-single - Blank----------------
#NOTES:
     dance-single:
     Blank:
     Challenge:
     13:
     1.000,1.000,0.628,0.321,1.000,552.000,47.000,24.000,38.000,9.000:

0000
0000
0000
0000
,
0000
0000
0000
0000
,
0000
0000
0000
0000
,
0000
0000
0000
0000
,
0000
0000
0000
0000
,
0000
0000
0000
0000
,
0000
0000
0000
0000
,
0000
0000
0000
0000
,
0000
0000
0000
0000
,
0000
0000
0000
0000
,
0000
0000
0000
0000
,
0000
0000
0000
0000
,
0000
0000
0000
0000
,
0000
0000
0000
0000
,
0000
0000
0000
0000
,
0000
0000
0000
0000
,
0001
1000
0001
1000
0001
0000
0010
0100
0010
0100
1000
0001
1000
0100
1000
0001
,
0010
0000
0000
0000
0000
0000
0001
0000
0000
0100
0000
0000
0001
0000
0000
0000
0000
0000
1001
0000
0000
0000
0000
0000
1000
0000
0000
0100
0000
0000
1000
0000
0000
0000
0000
0000
1100
0000
0000
0000
0000
0000
1000
0000
0001
0000
1000
0000
,
0001
1000
0100
0000
0110
0000
0010
0001
1000
0000
1001
0000
0001
0000
1000
0000
,
0001
0100
0001
0100
0001
0000
1000
0001
1000
0000
1001
0000
0001
0000
0101
0000
,
0100
0000
0010
0000
1010
0000
1000
0100
1000
0000
1100
0000
0100
0000
0010
0000
,
0001
1000
0001
0100
0001
0000
1000
0001
0M10
0M01
1M00
0M01
0M10
0M01
1M00
0M10
,
1M00
0000
0001
0000
0011
0000
0010
0100
1000
0000
1001
0000
0001
0000
0101
0000
,
M100
M001
M100
M001
M100
0000
00M1
10M0
00M1
10M0
00M1
0000
1M00
0M01
1M00
0M01
,
1M00
0100
1000
0001
0010
0100
1000
0001
0010
0001
1000
0001
1000
0100
1000
0001
,
0100
0010
0100
0001
1000
0010
1000
0001
0100
0001
1000
0010
0100
0001
1000
0001
,
0010
0100
1000
0100
0010
0100
1000
0001
0010
0001
1000
0100
1000
0001
1000
0001
,
1000
0010
0100
0001
1000
0010
1000
0001
0100
0001
0100
0010
1000
0010
0100
0001
,
1000
0000
0001
1000
0001
0000
1001
0000
1000
0000
1100
0000
0100
1000
0100
0010
,
0001
0000
0000
0000
0000
0000
1000
0000
0000
0100
0000
0000
1000
0000
0000
0000
0000
0000
0001
0000
0000
0010
0000
0000
0001
0000
0000
1000
0000
0000
0001
0000
0000
0000
0000
0000
0011
0000
0000
0000
0000
0000
0010
0000
0001
0000
0010
0000
,
0001
0000
1000
0000
1010
0000
0010
0100
0001
0000
0101
0000
0100
0010
0100
0001
,
1000
0000
0001
0000
1000
0000
0001
0000
1000
0000
0001
0000
1000
0000
0000
0000
0000
0000
1100
0000
0000
0000
0000
0000
0001
0000
0000
0000
0000
0000
0001
0000
0000
0000
0000
0000
1000
0000
0000
0000
0000
0000
0010
0000
0000
0100
0000
0000
,
0001
0100
0010
1000
0001
0000
1000
0100
1000
0001
0010
0100
1000
0000
1010
0000
,
0010
0000
0100
0000
0101
0000
0001
0000
1000
0001
1000
0000
0010
0100
0010
1000
,
0001
0100
0001
1000
0001
0000
0010
0100
1000
0100
1000
0000
1001
0000
0001
0000
,
0400
0000
0000
0040
0000
0000
0000
0000
0000
0000
0000
0000
0030
0000
0000
0301
0000
0000
1000
0000
0000
0001
0000
0000
1000
0000
0000
0000
0000
0000
0001
0000
0100
0000
0001
0000
0100
0000
0001
0000
0100
0000
0001
0000
0000
0000
0000
0000
,
1000
0100
0010
0001
0010
0000
0001
1000
0001
0100
0001
1000
0001
0000
1000
0100
,
2000
3002
0103
0002
0023
0130
2000
3002
,
0203
0000
0320
0000
0131
0000
0001
0000
1001
0000
1000
0000
0001
0010
0001
0000
,
0011
0000
0000
0010
0000
0000
0400
4000
0000
0000
0000
0000
0000
0000
0000
0000
0000
0300
3000
0000
0000
MMMM
0000
0000
,
0001
0100
0010
0100
0001
0000
1000
0100
1000
0001
1000
0000
1001
0000
0001
0000
,
0101
0000
0100
0010
1000
0000
1100
0000
0110
0000
0010
0001
1000
0000
1001
0000
,
0001
1000
0001
1000
0100
0000
0010
0001
0010
0100
1000
0000
0100
1000
0001
1000
,
0001
0000
0101
0000
0100
0010
1000
0000
1010
0000
0010
0000
0100
0001
0100
0000
,
0001
1000
0100
1000
0001
0000
0011
0000
0001
0010
0100
0000
0110
0000
0100
0000
,
1000
0000
0000
0100
0000
0000
0010
0000
0000
0100
0000
0000
1000
0000
0000
0001
0000
0000
1000
0000
0000
0001
0000
0000
0100
0000
0000
0010
0000
0000
1000
0000
0000
0001
0000
0000
0010
0000
0000
0001
0000
0000
1000
0000
0001
0000
1000
0000
,
0001
0000
1000
0100
1000
0001
0010
0100
1000
0001
0010
0001
1000
0001
0010
0000
,
0011
0000
0001
0100
0010
0100
0001
1000
0001
1000
0010
0100
0010
0100
0001
0000
,
0101
0000
0000
0000
0000
0000
0100
0000
0000
0010
0000
0000
0100
0000
0000
0001
0000
0000
1000
0000
0000
0000
0000
0000
0100
0000
0000
1000
0000
0000
0001
0000
0000
1000
0000
0000
0001
0000
0100
0000
0001
0000
0100
0000
0001
0000
0100
0000
,
0001
0000
1000
0001
0010
0000
0110
0000
0100
1000
0001
1000
0001
0100
0010
0100
,
0001
0000
0000
0000
0000
0000
1000
0000
0000
0100
0000
0000
1000
0000
0000
0001
0000
0000
1000
0000
0001
0000
1000
0000
0001
0000
0000
0100
0000
0000
0001
0000
0000
1000
0000
0000
0001
0000
0000
0010
0000
0000
0100
0000
0000
1000
0000
0000
,
0100
0000
1000
0000
0100
0000
1000
0000
0000
0100
0000
0000
1000
0000
0000
0001
0000
0000
0100
0000
0000
0001
0000
0000
1000
0000
0000
0000
0000
0000
1001
0000
0000
0000
0000
0000
0001
0000
0000
1000
0000
0000
0001
0000
0000
1000
0000
0000
,
0001
0000
0101
0000
0100
0000
0110
0000
0010
1000
0001
0000
1000
0000
0010
0000
,
2200
3322
2233
3322
2233
3322
2233
3322
,
1033
0100
1000
0001
1000
0001
0010
0001
1000
0100
0010
0001
1000
0010
1000
0001
,
1000
0100
1000
0100
0010
0001
0010
0001
1000
0010
1000
0001
0100
0010
0100
0001
,
1000
0010
1000
0001
1000
0010
0100
0001
0100
0010
1000
0001
0010
0100
1000
0100
,
1000
0001
1000
0010
1000
0001
0010
0001
1000
0001
0100
0001
1000
0100
0010
0001
,
1000
0001
1000
0010
0100
0001
0100
0010
1000
0001
1000
0100
0010
0100
1000
0001
,
1000
0100
1000
0001
1000
0001
4000
0004
0000
0000
0000
0000
0000
0000
0000
0000
,
0000
0000
0000
0000
0000
0000
0000
0000
0000
0000
0000
0000
0000
3000
0003
0000
,
0MM0
0MM0
0MM0
0MM0
,
0MM0
0000
0000
0000
;
