#TITLE:MIKO MIKO NURSE;
#SUBTITLE:;
#ARTIST:Ruzarin Kashiwagi;
#TITLETRANSLIT:;
#SUBTITLETRANSLIT:;
#ARTISTTRANSLIT:;
#CREDIT:;
#BANNER:nurse.png;
#BACKGROUND:nurseBG.png;
#LYRICSPATH:;
#CDTITLE:;
#MUSIC:Miko Miko Nurse.ogg;
#OFFSET:-0.400;
#SAMPLESTART:44.560;
#SAMPLELENGTH:12.000;
#SELECTABLE:YES;
#BPMS:0.000=160.000;
#STOPS:246.000=1.280
,312.000=1.880
;
#BGCHANGES:;
// cache tags:
#FIRSTBEAT:2.000;
#LASTBEAT:316.000;
#SONGFILENAME:Songs/Rodd's Revival/Miko Miko Nurse (Rodd Steps)/Miko Miko Nurse.sm;
#HASMUSIC:1;
#HASBANNER:1;
#MUSICLENGTH:126.259;
// end cache tags

//---------------dance-single - R. Farias----------------
#NOTES:
     dance-single:
     R. Farias:
     Challenge:
     10:
     0.679,0.720,0.396,0.317,0.376,510.000,50.000,40.000,55.000,0.000:

0000
0000
0000
0000
2002
0M00
0000
00M0
,
0000
0000
0M00
0000
00M0
0000
0M00
0000
00M0
0000
0M00
00M0
0000
0M00
00M0
00M0
,
0M00
0000
3003
0000
M220
000M
M000
000M
,
M000
0000
0000
M000
0000
0000
0000
0000
0000
000M
0000
0000
000M
0000
0000
000M
0000
0000
M000
0000
0000
0000
0000
0000
M000
0000
0000
0000
0000
0000
0000
0000
0330
0000
0000
0000
0000
0000
0000
0000
0000
0000
0000
0000
0000
0000
0000
0000
,
1M1M
0000
11MM
0000
M022
0M00
0000
M000
,
0M00
MM00
0000
MM00
0033
0000
1001
0000
,
0000
1000
110M
0000
,
M011
0000
0000
0000
2000
0000
3000
0000
0021
0030
0000
0000
0102
0003
0000
0000
,
2010
3000
0000
0000
1200
0300
0000
0000
0010
0001
0010
0000
0100
0000
1000
0000
,
0010
0000
0100
0000
0001
0010
0000
0000
0100
0000
1000
0000
0010
0100
0010
0000
,
0001
0010
1000
0010
1010
0000
1100
0000
,
0011
0000
1010
0000
1000
0100
0010
0001
,
0200
0000
0000
0000
0300
0000
0000
0000
0010
1000
0000
0100
0000
0000
0010
0000
,
0001
0000
0010
0000
0100
0000
1000
0000
0010
0100
0000
0001
0010
0100
1000
0100
,
0010
0001
0100
0010
1000
0100
0000
0000
0110
0000
0000
0000
0011
0000
0000
0000
,
0101
0000
1001
0000
0100
0010
0001
0100
,
0020
0030
0100
0001
0200
0000
0000
0000
,
0000
0000
0000
0000
0300
0000
0000
0000
0010
0100
0001
1000
0010
0100
0001
0010
,
0100
1000
0100
0010
0100
1000
0010
0100
0001
0000
0001
0000
0000
0000
0010
0000
,
0100
1000
0100
0010
0002
0000
0203
0000
,
2300
0000
3020
0000
0031
0001
0000
0100
,
0010
0010
0000
1000
0010
0001
0010
1000
,
0000
0200
0000
0300
0010
M000
0M02
0003
,
020M
0300
M020
0030
20M0
300M
020M
0300
,
M020
0M30
M002
0003
0000
0100
0001
0000
,
0000
0010
0001
0010
0100
0010
0001
0100
,
0020
0000
1000
0100
,
0001
0000
0000
0000
0130
0000
0000
0000
1010
0000
0000
0000
1100
0000
0000
0010
,
0000
0001
0100
0000
0010
0000
2000
0000
0000
0000
0000
0000
0000
0000
0000
3000
,
0000
0010
0100
0001
0101
0010
1000
0100
,
0010
0000
0100
1000
0000
0010
0100
0001
,
0000
0000
0010
0100
0010
0000
0001
0000
0200
0000
0300
0000
0020
0000
0030
0000
,
1000
0100
0000
2000
0000
0000
3000
0000
,
1001
0000
1100
0000
1010
0100
0010
0001
,
0010
0100
1000
0010
0100
0001
0010
1000
,
0010
0001
0100
0010
1000
0100
0001
0100
,
1000
0001
1000
0100
1000
0010
0010
0010
,
0010
0000
1010
0000
1100
0010
0001
0100
,
0001
0100
0001
1000
0001
0010
0001
0100
,
0001
1000
0100
0010
0001
0010
0100
1000
,
0010
0100
0001
0010
0100
1000
0100
0020
,
0000
0030
0001
0100
0010
000M
1000
0000
,
M010
0000
010M
0000
001M
0000
1000
000M
,
0100
0000
M010
0000
0011
M011
0000
0000
,
1100
110M
0000
0000
0010
0100
0010
1000
,
0000
0100
0010
0001
0000
0100
0000
0010
,
1000
0100
0010
0001
0010
0100
1000
0010
,
0100
0010
1000
0100
0010
0001
0100
0010
,
0100
0001
0010
0100
1000
0001
0010
0100
,
1000
0010
0100
0001
2000
0000
3100
1000
,
0010
1000
0100
0010
0000
0001
0100
0010
,
1000
0100
0010
0001
0010
0000
0100
0000
,
1000
0010
0000
1000
0000
0001
0000
1000
,
0001
0011
0102
1000
,
0100
0003
1000
0100
0000
0000
0010
0001
,
0100
0000
0110
0000
0000
1000
1100
0000
,
0000
0000
0010
0001
0010
0000
0000
0000
0100
0000
1000
0000
0010
0000
0100
0000
,
0002
0000
0000
0000
2003
0000
0000
3000
0010
0000
0010
0000
0000
0000
0110
0000
,
0000
1010
0000
0100
0100
0010
0000
0011
,
0000
0101
0000
0010
1000
0100
0000
0010
,
0000
0100
0000
1000
0010
0100
0010
0100
,
0110
0000
0000
0000
0000
0000
0000
0000
1001
0000
0100
0010
0001
0010
0100
0000
,
0000
0000
1000
0010
0100
0001
1000
0000
0000
0000
0100
0010
0001
0010
0100
1000
,
0010
0100
0001
0010
0001
0100
0010
0000
0000
0000
1000
0100
1000
0100
1000
0000
,
0000
0000
0001
0010
0001
0010
0001
0000
0000
0000
0000
0000
0100
0010
1000
0100
,
0010
0001
0010
0100
1000
0010
0100
0000
0000
0000
0001
0010
0100
1000
0001
0000
,
0000
0000
0010
0100
1000
0001
0010
0000
0000
0000
0100
0000
1000
0010
0100
0001
,
1000
0010
0100
0001
0010
0100
1000
0000
0000
0000
0100
1000
0100
1000
0100
0000
,
0000
0000
1000
0001
1000
0001
1000
0000
0000
0000
0000
0100
0000
0010
0001
0100
,
0010
1000
0100
0010
0001
1000
0100
0000
0000
0000
0010
0001
0100
0010
1000
0000
,
0000
0000
0100
0010
0001
0100
0010
0000
0000
0000
1000
0010
1000
0000
1100
0000
,
0010
0001
0010
0100
1000
0010
0100
0000
0000
0000
0010
0100
0010
0100
0010
0000
,
0000
0000
1000
0010
1000
0010
1000
0000
0000
0000
0000
0000
0100
0000
0010
0000
,
0001
0100
0010
1000
0001
0100
0010
0000
0000
0000
1000
0100
0010
0001
1000
0000
,
0000
0000
0010
0100
0001
1000
0010
0000
0000
0000
0100
0001
0010
0001
0010
0000
,
0000
0000
0001
0100
0010
0100
0010
0000
0000
0000
0100
0010
1000
0010
1000
0000
,
0000
0000
0100
1000
0100
1000
0100
0000
0000
0000
1000
0000
1000
0000
0001
0000
,
0001
0011
0000
0100
0100
0010
0010
0220
,
0330
1010
1100
0011
0101
2002
0000
0000
,
3003
0000
0000
0000
;
