#TITLE:Fifth Element;
#SUBTITLE:;
#ARTIST:Pathfinder;
#TITLETRANSLIT:;
#SUBTITLETRANSLIT:;
#ARTISTTRANSLIT:;
#CREDIT:;
#BANNER:../Jawn - ban.png;
#BACKGROUND:../Jawn - bg.png;
#LYRICSPATH:;
#CDTITLE:;
#MUSIC:Fifth Element.ogg;
#OFFSET:0.009;
#SAMPLESTART:57.598;
#SAMPLELENGTH:12.000;
#SELECTABLE:YES;
#DISPLAYBPM:200.000;
#BPMS:0.000=200.000,1428.000=198.100,1430.000=223.000,1431.000=200.000,1432.000=190.200,1434.000=209.000,1436.000=208.000,1438.000=186.000,1440.000=199.000,1442.000=210.000,1443.000=200.000,1444.000=195.100,1446.000=210.000,1448.000=198.000,1450.000=196.000,1452.000=197.000,1454.000=217.000,1455.000=200.000,1456.000=192.100,1458.000=206.000,1460.000=208.000,1462.000=193.000,1464.000=194.000,1466.000=205.000,1467.000=200.000;
#STOPS:;
#BGCHANGES:;
// cache tags:
#FIRSTBEAT:0.000;
#LASTBEAT:1740.750;
#SONGFILENAME:Songs/Jimmy Jawns/Fifth Element - [Aoreo]/Fifth Element.sm;
#HASMUSIC:1;
#HASBANNER:1;
#MUSICLENGTH:524.400;
// end cache tags

//---------------dance-single - J. Nero----------------
#NOTES:
     dance-single:
     J. Nero:
     Challenge:
     17:
     1.000,1.000,0.242,0.551,1.000,4791.000,127.000,289.000,35.000,9.000:
0001
1000
0001
1000
0000
0000
0020
0000
0000
0000
0000
0000
,
2032
0000
0000
3003
2002
0000
0000
3003
,
1000
0001
1000
0001
0000
0000
0200
0000
0000
0301
0000
0000
,
2002
0000
0000
3003
2002
0000
0000
3003
,
1000
0000
0001
0000
1000
0000
0001
0000
0000
0000
0000
0000
0200
0000
0000
0000
0000
0000
0000
0000
0000
0300
0000
0000
,
2020
0000
0000
3030
0202
0000
0000
0303
,
0002
0000
0000
0003
0000
0000
0000
0000
0000
0000
0000
0000
0020
0000
0000
0030
0000
0000
0000
0000
0000
0000
0000
0000
0100
0000
0000
0000
1000
0000
0000
0000
0010
0000
0000
0000
0100
0000
0000
0000
0010
0000
0000
0000
1000
0000
0000
0000
,
0002
0003
0000
0000
2000
3000
0000
0000
0200
0000
0300
0000
0040
0000
0030
0000
,
0001
1000
0001
1000
0000
0000
0020
0000
0000
0000
0000
0000
,
1031
0000
1000
0100
0010
0100
1000
0010
0100
0001
0010
0100
,
1000
0000
0000
0000
0001
0000
0000
0000
1000
0000
0000
0000
0001
0000
0000
0000
0000
0000
0000
0000
0000
0000
0000
0000
0200
0000
0000
0000
0000
0000
0000
0000
0000
0000
0000
0000
0320
0000
0000
0030
0000
0000
0000
0000
0000
0000
0000
0000
,
1000
0001
0100
0001
0010
0100
1000
0001
1000
0010
0100
0010
,
1000
0001
1000
0001
0000
0000
0200
0000
0000
0301
0000
0000
,
0202
0000
0000
0303
2002
0000
0000
3003
,
0001
0000
1000
0100
1000
0000
0001
0100
0001
0010
0100
1000
0001
0100
0001
1000
,
0010
0100
0010
1000
0001
1000
0100
0010
0001
1000
0001
0100
0010
0100
0001
1000
,
0100
0010
0100
1000
0010
0100
0010
1000
0100
0010
0001
0100
0001
0010
0100
1000
,
0010
0100
0010
1000
0100
0010
0001
1000
0010
0100
0010
1000
0100
0010
0001
0100
,
0001
0010
0100
1000
0001
0100
0010
0100
0001
1000
0100
0010
0100
1000
0010
0100
,
0010
1000
0001
0010
0100
1000
0010
1000
0100
0010
0001
0100
0001
1000
0010
0100
,
0001
0100
0010
1000
0001
1000
0100
0010
0001
1000
0100
1000
0001
0100
0001
0100
,
0010
1000
0001
1000
0100
0010
0001
1000
0010
1000
0001
0010
0100
0010
0100
1000
,
0001
0100
0001
1000
0100
1000
0100
0010
0001
1000
0001
0100
0010
0100
0001
1000
,
0001
0100
0001
1000
0010
0100
0010
1000
0001
0100
0001
0100
0010
1000
0001
1000
,
0100
0010
0001
0100
0010
0100
0001
0010
0100
1000
0010
1000
0100
0010
0001
0100
,
0001
1000
0100
0010
0100
1000
0010
0100
0010
1000
0001
0010
0100
1000
0010
1000
,
0001
0100
0001
0010
0100
1000
0001
0100
0001
0010
0100
1000
0001
0100
0001
0010
,
0100
1000
0010
1000
0100
0010
0001
1000
0010
1000
0100
0010
0001
1000
0010
0100
,
0001
0100
0001
1000
0010
0100
0001
1000
0100
0010
0001
1000
0001
1000
0010
0100
,
0010
1000
0001
1000
0100
0010
0001
1000
0001
0100
0010
0100
0001
1000
0001
0100
,
0010
1000
0100
0010
0100
0010
0001
1000
0100
0010
0100
0010
0001
1000
0100
1000
,
0010
0100
0010
0100
0001
1000
0001
0100
0010
0100
0001
1000
0100
0010
0001
1000
,
0002
0003
0000
0000
2002
0000
3003
0000
0000
0000
0000
0000
0000
0000
0000
0000
,
0000
0000
0000
0000
,
0000
0000
2002
3003
0000
0000
0000
0000
,
2002
0000
3003
0000
0000
0000
0000
0000
0000
0000
0000
0000
,
0000
0000
0000
0000
2002
3003
0000
0000
0000
0000
0000
0000
2002
0000
3003
0000
,
1001
0000
0000
0000
,
0202
0303
0000
0000
0101
0101
0000
0000
,
0000
0000
1010
0000
0220
0000
0000
0330
,
2002
0000
0000
0000
0000
0000
0000
0000
3003
0000
0000
0000
0001
1000
0001
1000
,
0100
0000
1000
0100
0010
0100
1000
0010
,
0200
0000
0000
0000
0300
0000
0000
0000
0001
0100
0001
1000
0100
0010
0100
0010
,
0001
0100
0001
0100
0010
1000
0010
1000
0001
0010
0100
0010
0100
1000
0001
1000
,
0002
0000
0000
0000
,
0000
0000
0000
0003
,
2002
0000
0000
0000
3003
0000
0000
0000
1000
0001
0100
0001
1000
0100
0010
0100
,
0010
0001
1000
0001
0100
0010
0100
0001
1000
0100
0010
0001
1000
0100
0010
0001
,
1000
0001
0100
0010
0100
0001
1000
0001
0010
0100
1000
0001
0100
0001
0100
0010
,
1000
0010
0100
0001
1000
0100
0010
0100
1000
0001
0100
0001
1000
0010
0100
0001
,
1000
0001
1000
0100
0010
0001
1000
0010
0100
0010
1000
0001
0100
0001
1000
0100
,
0010
0001
1000
0001
0100
0010
0100
0001
1000
0001
0010
0100
1000
0001
0100
0010
,
0100
0001
1000
0100
0010
0001
1000
0010
0100
0010
1000
0001
0010
0100
1000
0001
,
0100
0001
1000
0100
0010
0001
1000
0001
0100
0010
0100
0001
1000
0001
0100
0010
,
0100
0001
1000
0001
0010
0100
1000
0001
1000
0001
0100
0010
1000
0001
0010
0100
,
1000
0001
0100
0001
0100
0010
1000
0010
1000
0001
0010
0001
0010
0100
1000
0100
,
1000
0001
0100
0010
0100
0001
1000
0100
0010
0001
1000
0001
0100
0010
0100
0001
,
1000
0001
0100
0010
0100
0001
1000
0001
0010
0100
1000
0001
0100
0001
0100
0010
,
1000
0001
1000
0100
0010
0100
1000
0001
0100
0001
0100
0010
1000
0001
0100
0010
,
0100
0001
1000
0001
0010
0100
1000
0001
0100
0001
1000
0100
1000
0001
0010
0100
,
1000
0001
0100
0001
0100
0010
1000
0001
1000
0100
0010
0001
1000
0010
0100
0010
,
1000
0001
0010
0100
1000
0001
0100
0001
0100
0010
1000
0001
1000
0100
0010
0001
,
0100
0001
0100
0001
1000
0010
1000
0100
0010
0100
0010
0001
0100
0001
1000
0010
,
0100
0001
0010
0100
1000
0010
0100
0001
1000
0001
0010
0100
1000
0010
0100
0010
,
0100
0001
0010
0100
1000
0100
1000
0010
0100
0001
0100
0001
0010
0100
1000
0001
,
0100
0001
1000
0100
0010
0001
1000
0010
0100
0010
1000
0001
0010
0100
1000
0001
,
0100
0010
0100
0001
1000
0100
0010
0001
1000
0001
0100
0010
0100
0001
1000
0001
,
0010
0100
1000
0001
0100
0001
1000
0010
0100
0010
1000
0001
0010
0100
1000
0001
,
0100
0001
1000
0100
0010
0001
1000
0100
0010
0100
1000
0001
0100
0010
0100
0001
,
1000
0100
0010
0001
1000
0001
0100
0010
0100
0001
1000
0001
0010
0100
1000
0001
,
1000
0000
0001
0100
0001
0000
1000
0100
0010
0100
1000
0001
,
0100
0000
0001
1000
0001
0000
1000
0100
0010
0100
1000
0010
,
0100
0001
0010
0200
0000
0300
1000
0010
0100
0020
0000
0030
,
1000
0000
0001
0100
0001
0010
0100
0000
1000
0001
0100
0001
,
1000
0001
1000
0100
0010
0001
1000
0001
0100
0010
0100
0001
1000
0001
0010
0100
,
1000
0001
1000
0010
0100
0010
1000
0001
0100
0001
0100
0010
1000
0001
0010
0100
,
1000
0001
0100
0001
1000
0100
1000
0001
0010
0100
1000
0010
0100
0010
1000
0001
,
1000
0100
0010
0001
1000
0001
0100
0010
0100
0001
1000
0100
0010
0001
1000
0100
,
1000
0000
0001
0100
0001
0000
1000
0100
0010
0100
1000
0010
,
0100
0000
0001
1000
0001
0000
1000
0100
0010
0001
1000
0010
,
1000
0001
0010
0200
0000
0300
0010
0001
0100
0020
0000
0030
,
0100
0000
0001
1000
0001
0010
0100
0000
1000
0100
0010
0100
,
1000
0000
0001
0100
0001
0000
1000
0001
0010
0100
1000
0000
,
0001
0100
0010
0100
0001
0000
1000
0001
0010
0100
1000
0001
,
1000
0000
0001
0100
0001
0000
1000
0100
0010
0100
1000
0000
,
0001
0100
0001
0010
0100
1000
0010
0100
0010
1000
0100
0010
,
0001
1000
0001
1000
0100
0000
0010
0100
1000
0010
0100
0000
,
0001
0100
0010
0100
0001
0000
1000
0100
0010
0100
1000
0001
,
1000
0000
0001
0100
0001
0000
1000
0100
0010
0100
1000
0000
,
0001
0000
0000
0000
0000
0000
0000
0000
0000
0000
0100
0000
0000
0000
0000
0000
0000
0000
0000
0001
0000
0000
0000
0000
0000
0000
0000
0000
0000
1000
0000
0000
0000
0000
0000
0000
0000
0000
0010
0000
0000
0000
0000
0000
0000
0000
0000
0000
0100
0000
0000
0000
0000
0000
0000
0000
0000
0000
0001
0000
0000
0000
0000
0000
0000
0000
0000
1000
0000
0000
0000
0000
0000
0000
0000
0000
0000
0100
0000
0000
0000
0000
0000
0000
0000
0000
0010
0000
0000
0000
0000
0000
0000
0000
0000
0000
0001
0000
0000
0000
0000
0000
0000
0000
0000
0000
1000
0000
0000
0000
0000
0000
0000
0000
0000
0100
0000
0000
0000
0000
0000
0000
0000
0000
0000
1000
0000
0000
0000
0000
0000
0000
0000
0000
0001
0000
0000
0000
0000
0000
0000
0000
0000
0000
0100
0000
0000
0000
0000
0000
0000
0000
0000
0000
0001
0000
0000
0000
0000
0000
0000
0000
0000
1000
0000
0000
0000
0000
0000
0000
0000
0000
0000
0010
0000
0000
0000
0000
0000
0000
0000
0000
0100
0000
0000
0000
0000
0000
0000
0000
0000
0000
,
0001
0100
0001
0010
0100
0000
1000
0100
1000
0010
0100
0000
,
0001
0010
0100
1000
0001
0000
1000
0100
0010
0100
1000
0001
,
1000
0000
0001
0100
0001
0000
1000
0100
1000
0001
0100
0000
,
0001
0010
0100
1000
0010
0100
0010
1000
0100
0010
0001
0100
,
0001
0000
1000
0100
1000
0000
0001
0010
0100
0010
0001
0000
,
1000
0010
0100
0010
1000
0100
0010
0001
0100
0001
1000
0100
,
0010
0100
1000
0001
0100
0000
0001
0100
0001
0010
0100
0000
,
1000
0100
0010
0001
0100
0010
1000
0100
0010
0001
0100
0010
,
1000
0010
0100
0010
1000
0001
0100
0001
1000
0100
0010
0001
1000
0001
0100
0010
,
0100
0001
1000
0100
1000
0100
0010
0001
1000
0001
0100
0010
0100
0001
1000
0001
,
0010
0100
1000
0001
0100
0001
1000
0100
0010
0100
1000
0010
0100
0010
1000
0001
,
0010
0100
1000
0001
0100
0001
1000
0010
0100
0010
1000
0001
1000
0100
0010
0001
,
1000
0000
0001
0100
0001
0000
1000
0100
0010
0100
1000
0000
,
0010
0000
1000
0001
1000
0000
0001
0010
0100
1000
0001
0100
,
0010
1000
0010
0200
0000
0300
0010
1000
0100
0020
0000
0030
,
0001
0000
1000
0100
1000
0000
0001
0000
1000
0100
0010
0001
,
1000
0001
0100
0010
0100
0001
1000
0001
1000
0100
0010
0001
1000
0001
0100
0010
,
0100
0001
1000
0001
0010
0100
1000
0001
0100
0001
1000
0100
0010
0001
1000
0001
,
0100
0010
0100
0001
1000
0001
0010
0100
1000
0010
0100
0010
1000
0001
1000
0100
,
0010
0001
1000
0001
0100
0010
0100
0001
1000
0001
0010
0100
1000
0001
0100
0001
,
1000
0000
0001
0100
0001
0000
1000
0100
0010
0100
1000
0010
,
0100
0000
0001
1000
0001
0000
1000
0100
1000
0001
0010
0100
,
1000
0010
0100
0020
0000
0030
0100
0001
0010
0200
0000
0300
,
1000
0000
0001
1000
0100
1000
0001
0000
0100
0001
0010
0100
,
2000
3001
0010
0100
,
1000
1000
0001
0001
,
0100
0010
0100
0001
,
0010
0010
0100
0100
,
1000
0000
0000
0000
,
0000
0001
0100
0001
,
1000
0000
0000
0000
,
01M0
0000
0000
0000
0000
0000
00M0
0000
0000
0000
0000
0000
00M0
0000
0000
0000
0000
0000
00M0
0000
0000
00M0
0000
0000
00M0
0000
0000
00M0
0000
0000
00M0
0000
00M0
0000
00M0
0000
00M0
0000
00M0
0000
00M0
0000
00M0
0000
00M0
0000
00M0
0000
,
1000
0100
1000
0010
0100
0001
1000
0001
0010
0100
1000
0010
0100
0010
1000
0100
,
0010
0001
0100
0001
1000
0100
0010
0100
1000
0010
0100
0010
1000
0001
0010
0100
,
1000
0010
1000
0001
0100
0001
0010
0100
1000
0001
1000
0100
0010
0001
0100
0001
,
1000
0100
0010
0100
1000
0010
0100
0001
0100
0001
0010
0100
1000
0001
0100
0010
,
1000
0001
1000
0010
0100
0010
1000
0001
0100
0001
1000
0100
0010
0100
0010
0001
,
1000
0100
1000
0001
0100
0001
1000
0010
0100
0010
1000
0001
0100
0001
1000
0100
,
0010
0100
1000
0001
0010
0001
1000
0010
0100
0010
1000
0001
1000
0100
0010
0001
,
1000
0001
0100
0010
0100
0001
1000
0010
1000
0100
1000
0100
0010
0001
0010
0001
,
1000
0010
1000
0100
0010
0001
0100
0001
1000
0100
0010
0100
1000
0010
0100
0010
,
1000
0001
0100
0001
0010
0100
1000
0001
0100
0001
1000
0100
0010
0100
1000
0010
,
0100
0010
1000
0001
0100
0001
0010
0100
1000
0001
0100
0001
1000
0010
0100
0010
,
1000
0001
0010
0100
1000
0010
0100
0010
1000
0100
0010
0001
0100
0001
1000
0010
,
1000
0001
0100
0001
1000
0010
0100
0010
1000
0001
1000
0100
0010
0001
1000
0001
,
0100
0010
0100
0001
1000
0001
0010
0100
0010
0001
1000
0100
1000
0001
0100
0010
,
1000
0001
1000
0001
0010
0100
1000
0001
0100
0010
0100
0010
1000
0001
0100
0001
,
1000
0100
1000
0100
0010
0001
1000
0001
0100
0001
0100
0010
1000
0001
1000
0001
,
0010
0100
1000
0010
0100
0001
0010
0100
1000
0001
0100
0001
0010
0100
1000
0010
,
1000
0100
0010
0001
0100
0001
1000
0100
1000
0010
0100
0001
0010
0001
0100
0010
,
1000
0001
0100
0001
0010
0100
1000
0010
0100
0010
1000
0100
0010
0001
1000
0010
,
1000
0001
0010
0100
1000
0010
1000
0001
0010
0001
0100
0010
1000
0100
1000
0010
,
0100
0001
0100
0001
1000
0010
0100
0010
1000
0001
1000
0100
0010
0001
1000
0001
,
0100
0001
1000
0010
0100
0010
1000
0001
1000
0100
0010
0001
1000
0010
0100
0010
,
1000
0001
0100
0001
1000
0100
0010
0001
1000
0001
0100
0010
0100
0001
1000
0001
,
0010
0100
1000
0001
0100
0010
0100
0001
1000
0100
0010
0001
1000
0001
1000
0100
,
0010
0001
0100
0010
0100
0001
0010
0100
1000
0010
1000
0100
0010
0001
0100
0001
,
1000
0010
0100
0010
1000
0100
0010
0100
1000
0001
0100
0001
0010
0100
1000
0010
,
0100
0001
0010
0001
1000
0100
1000
0010
0100
0001
0010
0100
1000
0001
1000
0010
,
0100
0010
1000
0100
0010
0001
0100
0001
0010
0100
1000
0010
0100
0010
1000
0100
,
0010
0001
1000
0001
1000
0100
0010
0001
1000
0001
0100
0010
0100
0001
1000
0100
,
1000
0001
0010
0100
1000
0001
0100
0001
1000
0100
0010
0100
1000
0001
0100
0010
,
0100
0001
1000
0001
0100
0010
0100
0001
1000
0100
1000
0100
0010
0001
1000
0001
,
0100
0010
0100
0010
1000
0001
0010
0100
1000
0001
0100
0001
1000
0010
0100
0001
,
0010
0100
1000
0001
0100
0001
1000
0010
0100
0010
1000
0001
1000
0100
0010
0001
,
0100
0010
1000
0100
0010
0001
1000
0001
0100
0010
0100
0001
1000
0001
0010
0100
,
1000
0010
0100
0010
1000
0001
0100
0001
1000
0100
0010
0100
1000
0001
0100
0010
,
1000
0100
0010
0001
1000
0001
0100
0010
0100
0001
1000
0100
1000
0001
0100
0001
,
0010
0100
1000
0001
1000
0001
0100
0010
0200
0000
0000
0000
0300
0000
0000
0000
,
0001
0100
0001
1000
0100
0010
0001
1000
0002
0000
0000
0000
0003
0000
0000
0000
,
1000
0100
1000
0001
0100
0010
1000
0001
0020
0000
0000
0000
0030
0000
0000
0000
,
0100
1000
0001
0100
0001
1000
0010
0100
0010
1000
0001
1000
0100
0010
0001
1000
,
0001
0100
0001
1000
0020
0000
0000
0000
0000
0000
0000
0000
0000
0000
0030
0000
,
1000
0100
0010
0100
1000
0000
0001
0100
0001
1000
0010
0000
,
1000
0100
0010
0100
1000
0000
0001
0100
0001
1000
0100
0010
,
0001
1000
0010
0100
0010
0000
1000
0100
0010
0100
1000
0000
,
0001
0010
0100
1000
0010
0100
0001
0010
0100
1000
0010
0100
,
0001
0000
1000
0100
1000
0000
0001
0100
0001
0010
0100
0000
,
1000
0001
1000
0010
0100
0000
0001
0010
0100
1000
0010
0100
,
0001
0000
1000
0100
1000
0000
0001
0100
0001
0010
0100
0000
,
1000
0000
0000
0000
0000
0000
0000
0000
0000
0000
0001
0000
0000
0000
0000
0000
0000
0000
0000
0100
0000
0000
0000
0000
0000
0000
0000
0000
0000
0001
0000
0000
0000
0000
0000
0000
0000
0000
1000
0000
0000
0000
0000
0000
0000
0000
0000
0000
0010
0000
0000
0000
0000
0000
0000
0000
0000
0000
0100
0000
0000
0000
0000
0000
0000
0000
0000
0001
0000
0000
0000
0000
0000
0000
0000
0000
0000
1000
0000
0000
0000
0000
0000
0000
0000
0000
0000
0001
0000
0000
0000
0000
0000
0000
0000
0000
0010
0000
0000
0000
0000
0000
0000
0000
0000
0000
0100
0000
0000
0000
0000
0000
0000
0000
0000
1000
0000
0000
0000
0000
0000
0000
0000
0000
0000
0001
0000
0000
0000
0000
0000
0000
0000
0000
1000
0000
0000
0000
0000
0000
0000
0000
0000
0000
0010
0000
0000
0000
0000
0000
0000
0000
0000
0000
0100
0000
0000
0000
0000
0000
0000
0000
0000
0001
0000
0000
0000
0000
0000
0000
0000
0000
0000
1000
0000
0000
0000
0000
0000
0000
0000
0000
0001
0000
0000
0000
0000
0000
0000
0000
0000
0000
,
0100
0001
0100
0010
1000
0000
0001
0100
0001
0010
0100
0000
,
1000
0100
0010
0100
1000
0000
0001
0100
0001
1000
0100
0010
,
0001
0000
1000
0100
1000
0000
0001
0100
0001
1000
0010
0000
,
1000
0100
0010
0001
0100
0010
1000
0100
0010
0001
0100
0010
,
1000
0000
0001
0100
0001
0000
1000
0100
0010
0100
1000
0000
,
0001
0100
0001
0010
0100
1000
0010
0100
0010
1000
0100
0010
,
0001
0100
0001
0010
0100
1000
0001
0100
0010
1000
0100
0010
,
0100
1000
0001
0100
0010
0100
0001
1000
0100
0010
0001
1000
,
0002
0000
0003
0000
2002
3003
0000
0000
0000
0000
0000
0000
0000
0000
0000
0000
,
0000
0000
0000
0000
,
0000
0000
0000
0000
2002
3003
0000
0000
0000
0000
0000
0000
0000
0000
0000
0000
,
1001
1001
0000
0000
0000
0000
0000
0000
,
0000
0000
2002
3003
0000
0000
2002
3003
,
2002
3003
0000
0000
0000
0000
0000
0000
0000
0000
0000
0000
0000
0000
0000
0000
,
1100
1100
0000
0000
1100
1100
0000
0000
,
0000
0000
1010
0000
0202
0000
0000
0303
,
2002
0000
0000
0000
0000
0000
0000
0000
0000
0000
3003
0000
1000
0100
1000
0100
,
0010
0000
0100
1000
0010
0100
0010
1000
,
0002
0000
0000
0000
0003
0000
0000
0000
1000
0001
0100
0001
0100
0010
1000
0100
,
0010
0001
1000
0001
0100
0001
1000
0010
0100
0010
1000
0001
0100
0010
1000
0001
,
2000
0000
0000
0000
,
0002
0000
0000
0000
0000
0000
0000
3003
,
2002
0000
0000
0000
0000
0000
3003
0000
0001
0100
0001
0100
0010
1000
0010
0100
,
0001
1000
0001
1000
0100
0010
0001
1000
0010
0100
0010
0100
0001
1000
0100
0010
,
0001
1000
0001
0100
0010
0100
0001
1000
0001
0010
0100
1000
0001
0100
0001
0100
,
0010
1000
0001
1000
0100
0010
0001
1000
0100
1000
0001
0100
0001
1000
0010
0100
,
0010
1000
0001
0100
0001
1000
0100
0010
0100
1000
0001
0100
0001
1000
0100
0010
,
0001
1000
0001
0100
0010
0100
0001
1000
0001
1000
0100
0010
0100
1000
0001
0100
,
0010
0100
0001
1000
0001
0100
0010
0100
0001
1000
0001
0010
0100
1000
0001
1000
,
0100
1000
0001
0100
0001
1000
0010
0100
0001
0100
0010
1000
0001
1000
0100
0010
,
0001
1000
0001
0100
0001
1000
0010
0100
0001
1000
0100
0010
0001
1000
0010
1000
,
0001
0100
0001
0100
0010
1000
0100
0010
0001
0100
0001
0100
0010
1000
0100
0010
,
0001
1000
0100
0010
0001
1000
0001
0100
0010
0100
0001
1000
0001
0010
0100
1000
,
0001
0100
0001
1000
0100
0010
0100
1000
0001
0100
0010
0100
0001
1000
0100
0010
,
0001
1000
0001
0100
0010
0100
0001
1000
0001
1000
0100
0010
0001
1000
0001
0100
,
0010
0100
0001
1000
0001
0010
0100
1000
0001
0100
0010
0100
0001
1000
0100
0010
,
0001
1000
0001
0100
0010
0100
0001
1000
0001
0010
0100
1000
0001
1000
0010
0100
,
0001
0100
0001
1000
0100
0010
0001
1000
0001
0100
0010
0100
0001
1000
0100
0010
,
0001
0100
0001
1000
0100
0010
0001
0100
0001
1000
0010
1000
0100
0010
0001
0100
,
0010
1000
0100
0010
0001
1000
0010
1000
0100
0010
0001
1000
0001
0100
0010
1000
,
0100
0010
0001
0100
0010
0100
0001
0010
0100
1000
0100
1000
0010
0100
0010
1000
,
0001
0100
0001
0100
0010
1000
0001
1000
0100
0010
0100
0010
0001
1000
0001
1000
,
0010
0100
0010
1000
0001
0100
0001
1000
0100
0010
0001
1000
0001
0100
0010
0100
,
0001
1000
0001
0010
0100
1000
0001
0100
0001
1000
0010
0100
0010
1000
0001
0010
,
0100
1000
0001
0100
0001
1000
0100
0010
0001
0100
0010
1000
0010
0100
0001
1000
,
0001
0010
0100
1000
0001
0100
0001
1000
0010
0100
0010
1000
0001
1000
0100
0010
,
0001
0000
1000
0100
1000
0000
0001
0100
0001
0010
0100
1000
,
0001
0000
1000
0001
1000
0000
0001
0100
0010
1000
0001
0100
,
0010
1000
0100
0020
0000
0030
0100
1000
0010
0200
0000
0300
,
0001
0000
1000
0100
1000
0001
0100
0000
0001
1000
0100
0010
,
0100
1000
0001
0100
0001
1000
0100
0010
0001
1000
0001
0100
0010
0100
0001
1000
,
0001
1000
0100
0010
0001
1000
0100
1000
0001
0100
0001
1000
0010
0100
0010
1000
,
0001
0100
0001
1000
0100
0010
0001
1000
0010
1000
0100
0010
0001
0100
0010
0100
,
0001
1000
0001
0010
0100
1000
0001
0100
0001
0100
0010
1000
0001
1000
0100
0010
,
0001
0000
1000
0100
1000
0000
0001
0100
0010
0100
0001
1000
,
0001
0000
1000
0001
1000
0000
0001
0100
0010
1000
0100
0010
,
0100
1000
0010
0200
0000
0300
0010
1000
0100
0020
0000
0030
,
0001
0000
0100
0001
0010
0100
1000
0000
0010
0100
0001
1000
,
0001
0100
0010
1000
,
0100
0100
0010
0010
,
0001
0100
0010
0100
,
0001
0001
0010
0010
,
0100
0000
0000
0000
,
0000
1000
0010
1000
,
0001
0000
0000
0000
,
01M0
0000
0000
0000
0000
0000
00M0
0000
0000
0000
0000
0000
00M0
0000
0000
00M0
0000
0000
00M0
0000
0000
00M0
0000
0000
00M0
0000
00M0
0000
00M0
0000
00M0
0000
00M0
0000
00M0
0000
00M0
0000
00M0
0000
00M0
0000
00M0
0000
00M0
0000
00M0
0000
,
0001
1000
0100
0010
0100
1000
0010
0100
0010
1000
0001
0010
0100
1000
0010
1000
,
0001
0010
0100
0010
0001
0100
0010
0100
0001
1000
0100
1000
0010
0100
0010
1000
,
0100
0010
0001
1000
0010
0100
0010
1000
0100
0010
0001
0100
0001
1000
0100
0010
,
0100
1000
0010
0100
0010
1000
0001
0010
0100
1000
0010
0100
0001
0010
0100
1000
,
0001
1000
0001
0100
0010
1000
0010
0100
0001
1000
0100
0010
0100
1000
0001
0100
,
0001
1000
0100
0010
0001
1000
0001
0100
0010
1000
0010
0100
0001
1000
0100
1000
,
0001
0010
0100
1000
0001
0100
0010
0100
0001
1000
0100
1000
0001
0010
0100
1000
,
0001
0100
0001
1000
0010
1000
0001
0100
0001
0010
0100
0010
0100
1000
0001
1000
,
0001
0100
0010
0100
0001
0010
0100
1000
0010
0100
0001
0010
0100
1000
0001
0100
,
0010
0100
0001
0010
0100
1000
0010
0100
0010
1000
0100
0010
0001
0100
0001
0010
,
0100
1000
0010
0100
0010
1000
0100
0010
0001
0100
0001
1000
0100
0010
0100
1000
,
0010
0100
0001
0010
0100
0010
0001
1000
0010
0100
0010
1000
0100
0010
0001
1000
,
0001
0100
0010
0100
0001
1000
0001
0010
0100
0010
0001
1000
0001
0100
0010
0100
,
0001
1000
0100
0010
0001
1000
0100
1000
0001
1000
0010
0100
0010
1000
0001
0100
,
0001
0010
0001
0010
0100
1000
0001
1000
0010
0100
0010
0100
0001
1000
0100
0010
,
0001
0100
0001
0100
0010
1000
0010
1000
0001
0010
0100
0010
0100
1000
0001
1000
,
0001
0010
0100
1000
0010
0100
0010
1000
0100
0010
0100
1000
0001
0100
0010
0100
,
0001
0010
0100
1000
0010
0100
0001
1000
0100
1000
0010
0100
0001
0010
0001
1000
,
0100
1000
0010
0100
0001
0010
0100
0010
0001
1000
0001
0100
0010
0100
0001
0010
,
0100
1000
0001
0100
0010
1000
0100
0010
0001
0010
0001
0100
0010
1000
0100
1000
,
0001
0100
0001
1000
0100
0010
0001
1000
0001
0100
0010
1000
0001
1000
0100
0010
,
0001
1000
0001
0100
0010
0100
0001
1000
0010
0100
0001
1000
0001
1000
0100
0010
,
0001
1000
0001
0100
0010
0100
0001
1000
0100
0010
0001
1000
0001
0100
0010
0100
,
0001
1000
0001
0010
0100
0010
0100
1000
0001
0100
0001
1000
0010
0100
0010
1000
,
0001
0010
0100
1000
0010
0100
0010
1000
0100
1000
0001
0010
0001
0100
0010
1000
,
0010
1000
0001
0010
0100
1000
0001
0100
0010
0100
0001
1000
0100
0010
0001
0100
,
0001
1000
0100
0010
0100
1000
0010
0100
0001
1000
0001
0010
0100
1000
0010
0100
,
0010
1000
0100
0010
0001
0100
0001
1000
0100
0010
0100
1000
0010
0100
0001
0010
,
0100
1000
0001
1000
0010
0100
0010
1000
0001
0100
0001
1000
0100
0010
0001
1000
,
0001
0100
0010
0100
0001
1000
0100
0010
0001
1000
0001
0100
0010
0100
0001
1000
,
0001
0010
0100
1000
0001
0100
0001
1000
0100
0010
0100
0010
0001
1000
0001
0010
,
0100
1000
0100
1000
0001
0100
0010
0100
0001
1000
0100
0010
0100
0010
0001
1000
,
0002
0003
0000
0000
0000
0000
0000
0000
0000
0000
0000
0000
2002
3003
0000
0000
0000
0000
0000
0000
0000
0000
0000
0000
2020
3030
0000
0000
0000
0000
0000
0000
,
0000
0000
0000
0000
0220
0000
0000
0000
0000
0000
0000
0000
0330
0000
0000
0000
0202
0303
0000
0000
0000
0000
0000
0000
0202
0303
0000
0000
0000
0000
0000
0000
,
2002
3003
0000
0000
0000
0000
0000
0000
0000
0000
0000
0000
2200
3300
0000
0000
0000
0000
0000
0000
0000
0000
0000
0000
0220
0330
0000
0000
0000
0000
0000
0000
,
0000
0000
0000
0000
0022
0000
0000
0000
0000
0000
0000
0000
0033
0000
0000
0000
0220
0330
0000
0000
0000
0000
0000
0000
0220
0330
0000
0000
0000
0000
0000
0000
,
2200
3300
0000
0000
0000
0000
0000
0000
0000
0000
0000
0000
2002
3003
0000
0000
0000
0000
0000
0000
0000
0000
0000
0000
0202
0303
0000
0000
0000
0000
0000
0000
,
0000
0000
0000
0000
0220
0000
0000
0000
0000
0000
0000
0000
0330
0000
0000
0000
2020
3030
0000
0000
0000
0000
0000
0000
2020
3030
0000
0000
0000
0000
0000
0000
,
2200
3300
0000
0000
0000
0000
0000
0000
0000
0000
0000
0000
0220
0330
0000
0000
0000
0000
0000
0000
0000
0000
0000
0000
0022
0033
0000
0000
0000
0000
0000
0000
,
0000
0000
0000
0000
2002
0000
0000
0000
0000
0000
0000
0000
0000
3003
0000
0000
2200
3300
0000
0000
0000
0000
0000
0000
2200
3300
0000
0000
0000
0000
0000
0000
,
2002
3003
0000
0000
0000
0000
0000
0000
0000
0000
0000
0000
0202
0303
0000
0000
0000
0000
0000
0000
0000
0000
0000
0000
0220
0330
0000
0000
0000
0000
0000
0000
,
0000
0000
0000
0000
2020
0000
0000
0000
0000
0000
0000
0000
3030
0000
0000
0000
0220
0330
0000
0000
0000
0000
0000
0000
0220
0330
0000
0000
0000
0000
0000
0000
,
0202
0303
0000
0000
0000
0000
0000
0000
0000
0000
0000
0000
2020
3030
0000
0000
0000
0000
0000
0000
0000
0000
0000
0000
0220
0330
0000
0000
0000
0000
0000
0000
,
0000
0000
0000
0000
2002
0000
0000
0000
0000
0000
0000
0000
3003
0000
0000
0000
2200
3300
0000
0000
0000
0000
0000
0000
2200
3300
0000
0000
0000
0000
0000
0000
,
2002
3003
0000
0000
0000
0000
0000
0000
0000
0000
0000
0000
0202
0303
0000
0000
0000
0000
0000
0000
0000
0000
0000
0000
0220
0330
0000
0000
0000
0000
0000
0000
,
0000
0000
0000
0000
2020
0000
0000
0000
0000
0000
0000
0000
3030
0000
0000
0000
0220
0330
0000
0000
0000
0000
0000
0000
0220
0330
0000
0000
0000
0000
0000
0000
,
0202
0303
0000
0000
0000
0000
0000
0000
0000
0000
0000
0000
0000
0000
0000
0000
0000
0000
0000
0000
0000
0000
0000
0000
0000
0000
0000
0000
0000
0000
0000
0000
,
M000
0000
0000
0000
,
0001
0000
1000
0100
1000
0000
0001
0100
,
0000
0001
1000
0100
0020
0000
0230
0000
,
1300
0000
0010
0100
0010
0000
1000
0001
,
0000
0001
0000
0010
0200
0000
2300
0000
,
3010
0000
0100
0001
0100
0000
0001
1000
,
0000
0100
0010
0100
0020
0000
0032
0000
,
1003
0000
0010
0100
0010
0000
1000
0001
,
0001
0200
0301
0010
0020
0130
2000
3000
,
1001
0000
0001
0100
0010
0000
0100
0001
,
0000
0100
0001
0010
0200
0000
2300
0000
,
3010
0000
0100
0010
1000
0000
0001
0100
,
0000
0100
0000
0001
0020
0000
0230
0000
,
1300
0000
0010
0100
0001
0000
0100
0010
,
0000
0100
0001
0010
0200
0000
2300
0000
,
3001
0000
1000
0010
0100
0000
0001
0100
,
0001
0010
0100
1000
0010
0100
0001
0010
0100
1000
0010
0100
,
0001
0000
1000
0100
1000
0000
0001
0100
0001
1000
0100
0010
0001
0000
1000
0000
,
0000
0000
1000
0000
0000
0000
0001
0000
1000
0100
0010
0001
1000
0010
0100
0001
,
1000
0000
0001
0100
0001
0000
1000
0000
0100
0010
0001
1000
0001
0000
0100
0000
,
0000
0000
0100
0000
0000
0000
0001
0000
1000
0100
0010
0100
1000
0001
0100
0010
,
0100
0001
1000
0001
0010
0100
1000
0001
0100
0010
0100
0001
1000
0010
1000
0010
,
0100
0001
0010
0100
1000
0010
0100
0001
0010
0100
1000
0010
0100
0001
0010
0100
,
1000
0001
1000
0010
0100
0010
1000
0001
0010
0100
1000
0001
0100
0001
0100
0010
,
1000
0100
0010
0001
0100
0010
1000
0100
0010
0001
0100
0010
1000
0100
0010
0001
,
1000
0000
0001
0100
0001
0000
1000
0100
1000
0001
0010
0100
1000
0000
0001
0000
,
0000
0000
0001
0000
0000
0000
1000
0000
0001
0100
0001
1000
0100
0010
0100
1000
,
0001
0000
0100
0010
0100
0000
0001
0000
0010
0100
1000
0001
1000
0000
0001
0000
,
0000
0000
0001
0000
0000
0000
1000
0000
0001
0100
0010
1000
0001
0010
0100
1000
,
0001
0100
0001
1000
0010
0100
0010
1000
0001
1000
0100
0010
0001
1000
0001
0010
,
0100
1000
0010
0100
0001
0010
0100
1000
0010
0100
0001
0010
0100
1000
0010
0100
,
0001
1000
0001
0100
0010
0100
0001
1000
0100
0010
0100
1000
0001
0100
0001
1000
,
0100
0010
0001
0100
0010
1000
0100
0010
0001
0100
0010
1000
0100
0010
0001
1000
,
0001
0100
0010
1000
0001
1000
0001
0100
0001
0100
0010
1000
0001
1000
0100
0010
,
0001
1000
0100
0010
0100
1000
0001
0100
0001
0100
0010
1000
0001
1000
0100
0010
,
0001
1000
0001
0100
0010
1000
0010
0100
0001
1000
0001
0010
0100
0010
0100
1000
,
0001
0100
0010
0100
0010
1000
0001
1000
0100
0010
0001
1000
0001
0100
0010
0100
,
0001
1000
0001
1000
0001
1000
0100
0010
0001
1000
0001
0100
0010
0100
0001
1000
,
0010
1000
0010
0100
0001
1000
0100
1000
0001
0010
0100
0010
0100
1000
0001
1000
,
0001
0100
0010
0100
0001
1000
0001
0010
0100
1000
0001
0100
0010
0100
0001
1000
,
0100
0010
0001
1000
0010
0100
0010
0100
0001
1000
0010
1000
0100
0010
0100
0010
,
0001
1000
0001
0100
0010
0100
0001
1000
0100
1000
0001
0010
0001
0100
0010
0100
,
0001
0010
0100
1000
0010
0100
0001
0100
0001
1000
0100
0010
0001
1000
0100
1000
,
0001
0100
0001
1000
0100
0010
0001
1000
0001
0100
0001
1000
0100
0010
0001
0100
,
0010
1000
0001
0010
0100
1000
0010
0100
0001
0010
0100
1000
0010
0100
0001
0010
,
0100
1000
0001
0100
0001
0010
0100
1000
0010
0100
0001
0010
0100
1000
0010
0100
,
0001
1000
0001
0100
0001
1000
0010
0100
0001
0010
0100
1000
0010
0100
0010
1000
,
0001
0100
0010
0100
0001
0010
0100
1000
0010
0100
0001
0010
0001
1000
0100
0010
,
0100
1000
0010
0100
0001
0010
0100
1000
0010
0100
0010
1000
0100
0010
0001
1000
,
0010
0100
0001
0100
0000
0000
0001
0100
0001
1000
0000
0000
0001
0010
0100
1000
,
0000
0000
0001
0100
0001
1000
0000
0000
0001
0100
0001
1000
0100
0010
0001
1000
,
0001
0100
0010
0100
0000
0000
0001
1000
0100
1000
0000
0000
0001
0100
0001
1000
,
0000
0000
0001
0010
0100
1000
0000
0000
0001
0100
0001
1000
0100
0010
0100
1000
,
0001
0100
0001
1000
0000
0000
0001
1000
0100
1000
0000
0000
0001
1000
0100
0010
,
0000
0000
0001
0010
0001
1000
0000
0000
0001
0100
0001
1000
0100
0010
0100
1000
,
0001
0100
0001
1000
0000
0001
0100
0001
1000
0000
0000
0000
0001
0010
0100
1000
,
0000
0000
0001
0100
0001
1000
0000
0000
0001
0100
0010
0100
0001
1000
0100
0010
,
0001
1000
0001
0100
0000
0000
0001
1000
0100
0010
0000
0000
0001
1000
0001
0100
,
0000
0000
0001
0100
0010
0100
0000
0000
0001
1000
0100
0010
0100
1000
0010
0100
,
0001
1000
0001
0100
0000
0000
0001
1000
0100
0010
0000
0000
0001
0100
0010
0100
,
0000
0000
0001
1000
0100
1000
0000
0000
0001
0100
0010
0100
0001
1000
0100
0010
,
0001
1000
0001
0100
0000
0000
0001
1000
0100
0010
0000
0000
0001
0010
0100
1000
,
0000
0000
0001
0100
0001
1000
0000
0000
0001
0100
0010
1000
0010
1000
0100
0010
,
0001
1000
0001
0100
0000
0000
0001
0010
0100
1000
0000
0000
0001
0100
0001
1000
,
0000
0000
0001
0010
0100
1000
0000
0000
0001
0100
0001
1000
0100
0010
0100
1000
,
0010
0100
0010
1000
0001
0100
0001
0010
0100
0010
0001
0100
0010
0100
0001
1000
,
0100
1000
0010
0100
0001
0010
0001
0100
0010
1000
0100
0010
0001
0100
0010
1000
,
0100
0010
0001
1000
0010
1000
0001
0100
0001
0010
0100
1000
0001
0100
0010
0100
,
0001
0010
0100
1000
0010
0100
0001
0010
0100
1000
0010
0100
0001
0010
0100
1000
,
0010
0100
0010
1000
0001
0010
0100
0010
0001
0100
0010
0100
0001
1000
0100
0010
,
0100
1000
0010
0100
0010
1000
0100
0010
0100
1000
0010
0100
0010
1000
0100
0010
,
0001
0100
0001
1000
0100
0010
0001
0100
0010
0100
0001
0010
0100
1000
0001
0100
,
0010
0100
0001
0010
0100
1000
0001
0100
0001
0100
0010
1000
0010
0100
0001
1000
,
0100
1000
0001
0100
0000
0000
0000
0000
0000
0000
0000
0000
0001
0010
0100
1000
,
0000
0000
0001
0000
,
1000
0100
1000
0001
0000
0000
0000
0000
1000
0001
0100
0001
0000
0000
0000
0000
,
1000
0001
0010
0100
0000
0000
0000
0000
1000
0000
0000
0000
0001
0100
0001
1000
,
0000
0000
0001
0000
,
1000
0010
1000
0001
0000
0000
0000
0000
1000
0001
0010
0001
0000
0000
0000
0000
,
1000
0100
0010
0001
0000
0000
0000
0000
1000
0000
0000
0000
0001
0100
0001
1000
,
0000
0000
0001
0000
,
1000
0010
1000
0010
0000
0000
0000
0000
0100
0001
0100
0001
0000
0000
0000
0000
,
1000
0100
0010
0001
0000
0000
0000
0000
1000
0000
0000
0000
0001
0100
0010
1000
,
0002
0000
0000
0000
,
0000
0000
0000
0000
,
2003
3100
0010
0001
,
1000
1000
0010
0010
,
1000
0100
0010
0001
,
0100
0100
0010
0010
,
1000
0000
0000
0000
,
0000
0001
1000
0001
,
0100
0000
0000
0000
,
0001
0000
0000
0000
,
2222
0000
0000
0000
,
0000
3333
1001
1001
,
2222
0000
0000
0000
,
0000
3333
1001
1001
,
2222
0000
0000
0000
,
0000
0000
0000
3333
1001
0000
1001
0000
,
2222
0000
0000
0000
,
0000
3333
1001
1001
,
2222
0000
0000
0000
,
0000
0000
3333
0000
,
2222
0000
0000
0000
,
0000
0000
3333
0000
,
2222
0000
0000
0000
,
0000
0000
3333
0000
,
2002
0000
3003
0000
1000
0100
1000
0001
0100
0000
0000
0000
0001
0100
0001
1000
,
0100
0010
0001
1000
0001
0100
0010
0100
0001
1000
0001
0010
0100
1000
0001
0100
,
0001
1000
0100
0010
0100
1000
0010
0100
0010
1000
0001
0010
0100
1000
0010
1000
,
0001
0010
0100
0010
0001
0100
0010
0100
0001
1000
0100
1000
0010
0100
0010
1000
,
0100
0010
0001
1000
0010
0100
0010
1000
0100
0010
0001
0100
0001
1000
0100
0010
,
0100
1000
0010
0100
0010
1000
0100
0010
0001
0100
0010
1000
0100
1000
0010
0100
,
0001
1000
0001
0100
0010
1000
0010
0100
0001
1000
0100
0010
0001
1000
0100
1000
,
0001
0100
0001
1000
0010
0100
0010
1000
0001
1000
0010
0100
0001
1000
0100
1000
,
0001
0010
0100
1000
0001
0100
0010
0100
0001
1000
0100
1000
0001
0010
0100
1000
,
0001
0100
0001
1000
0010
1000
0001
0100
0001
1000
0100
0010
0001
1000
0010
1000
,
0001
0100
0010
0100
0001
0010
0100
1000
0010
0100
0001
0010
0100
1000
0001
0100
,
0010
0100
0001
0010
0100
1000
0010
0100
0010
1000
0100
0010
0001
0100
0001
0010
,
0100
1000
0010
0100
0010
1000
0100
0010
0001
0100
0001
1000
0100
0010
0100
1000
,
0010
0100
0001
0010
0100
0010
0001
1000
0010
0100
0010
1000
0100
0010
0001
1000
,
0001
0100
0010
0100
0001
1000
0001
0010
0100
0010
0001
1000
0001
0100
0010
0100
,
0001
1000
0100
0010
0001
1000
0100
1000
0001
1000
0010
0100
0010
1000
0001
0100
,
0001
1000
0001
0010
0100
1000
0001
1000
0010
0100
0010
0100
0001
1000
0100
0010
,
0001
0100
0001
0100
0010
1000
0010
1000
0001
0010
0100
0010
0100
1000
0001
1000
,
0001
0100
0010
0100
0001
0010
0100
1000
0001
0100
0010
0100
,
0001
1000
0100
0010
0100
1000
0010
0100
0010
1000
0100
0010
,
0001
1000
0001
0100
0010
0100
0001
0010
0100
1000
0001
0100
,
0010
0100
0001
1000
0100
0010
0100
1000
0001
0100
0010
0100
,
0001
1000
0100
0010
0001
1000
0001
0100
0010
0100
0001
0010
,
0100
0000
0000
0000
0000
0000
0000
0000
0000
0000
0000
0000
0000
0000
0000
0000
1000
0000
0000
0000
0000
0000
0000
0000
0000
0000
0000
0000
0000
0000
0000
0000
0001
0000
0000
0000
0000
0000
0000
0000
0000
0000
0000
0000
0000
0000
0000
0000
0100
0000
0000
0000
0000
0000
0000
0000
0000
0000
0000
0000
0000
0000
0000
0000
0010
0000
0000
0000
0000
0000
0000
0000
0000
0000
0000
0000
0000
0000
0000
0000
1000
0000
0000
0000
0000
0000
0000
0000
0000
0000
0000
0000
0000
0000
0000
0000
0001
0000
0000
0000
0000
0000
0000
0000
0000
0000
0100
0000
0000
0000
0000
0000
0000
0000
0000
0001
0000
0000
0000
0000
0000
0000
0000
0000
0000
1000
0000
0000
0000
0000
0000
0000
0000
0000
0100
0000
0000
0000
0000
0000
0000
0000
0000
0000
0010
0000
0000
0000
0000
0000
0000
0000
0000
0000
0000
0000
0000
0000
0000
0000
0001
0000
0000
0000
0000
0000
0000
0000
0000
0000
0000
0000
0000
0000
0000
0000
1000
0000
0000
0000
0000
0000
0000
0000
0000
0000
0000
0000
0000
0000
0000
0000
,
0010
0100
0010
1000
0100
0010
0001
1000
0010
0100
0010
1000
,
0002
0203
0320
2030
3200
0320
0032
2003
,
3001
0000
0000
0000
0000
0000
0000
0000
0000
0000
0100
0000
0000
0000
0000
0000
0000
0000
0000
0001
0000
0000
0000
0000
0000
0000
0000
0000
0000
1000
0000
0000
0000
0000
0000
0000
0000
0000
0010
0000
0000
0000
0000
0000
0000
0000
0000
0000
1000
0000
0000
0000
0000
0000
0000
0000
0000
0000
0001
0000
0000
0000
0000
0000
0000
0000
0000
0010
0000
0000
0000
0000
0000
0000
0000
0000
0000
0100
0000
0000
0000
0000
0000
0000
0000
0000
1000
0000
0000
0000
0000
0000
0000
0000
0000
0000
0001
0000
0000
0000
0000
0000
0000
0000
0000
0000
0100
0000
0000
0000
0000
0000
0000
0000
0000
0001
0000
0000
0000
0000
0000
0000
0000
0000
0000
1000
0000
0000
0000
0000
0000
0000
0000
0000
0100
0000
0000
0000
0000
0000
0000
0000
0000
0000
1000
0000
0000
0000
0000
0000
0000
0000
0000
0000
0001
0000
0000
0000
0000
0000
0000
0000
0000
0100
0000
0000
0000
0000
0000
0000
0000
0000
0000
0001
0000
0000
0000
0000
0000
0000
0000
0000
1000
0000
0000
0000
0000
0000
0000
0000
0000
0000
,
0010
0000
0000
0000
0000
0000
0000
0000
0000
0000
0100
0000
0000
0000
0000
0000
0000
0000
0000
0010
0000
0000
0000
0000
0000
0000
0000
0000
0000
1000
0000
0000
0000
0000
0000
0000
0000
0000
0000
0001
0000
0000
0000
0000
0000
0000
0000
0000
1000
0000
0000
0000
0000
0000
0000
0000
0000
0000
0100
0000
0000
0000
0000
0000
0000
0000
0000
0010
0000
0000
0000
0000
0000
0000
0000
0000
0000
0001
0000
0000
0000
0000
0000
0000
0000
0000
1000
0000
0000
0000
0000
0000
0000
0000
0000
0000
0001
0000
0000
0000
0000
0000
0000
0000
0000
0000
0100
0000
0000
0000
0000
0000
0000
0000
0000
0001
0000
0000
0000
0000
0000
0000
0000
0000
0000
1000
0000
0000
0000
0000
0000
0000
0000
0000
0010
0000
0000
0000
0000
0000
0000
0000
0000
0000
0100
0000
0000
0000
0000
0000
0000
0000
0000
0000
0001
0000
0000
0000
0000
0000
0000
0000
0000
1000
0000
0000
0000
0000
0000
0000
0000
0000
0000
0001
0000
0000
0000
0000
0000
0000
0000
0000
0100
0000
0000
0000
0000
0000
0000
0000
0000
0000
,
0010
1000
0100
0010
0100
1000
0001
0100
0010
0100
0001
0010
,
0100
1000
0001
0100
0001
1000
0100
0010
0001
1000
0001
0100
,
0010
0100
0001
1000
0001
0010
0100
1000
0001
0100
0010
0100
,
0001
0000
0000
0000
0000
0000
0000
0000
0000
0000
0100
0000
0000
0000
0000
0000
0000
0000
0000
0001
0000
0000
0000
0000
0000
0000
0000
0000
0000
1000
0000
0000
0000
0000
0000
0000
0000
0000
0010
0000
0000
0000
0000
0000
0000
0000
0000
0000
0100
0000
0000
0000
0000
0000
0000
0000
0000
0000
0001
0000
0000
0000
0000
0000
0000
0000
0000
1000
0000
0000
0000
0000
0000
0000
0000
0000
0000
0100
0000
0000
0000
0000
0000
0000
0000
0000
0010
0000
0000
0000
0000
0000
0000
0000
0000
0000
0001
0000
0000
0000
0000
0000
0000
0000
0000
0000
1000
0000
0000
0000
0000
0000
0000
0000
0000
0100
0000
0000
0000
0000
0000
0000
0000
0000
0000
1000
0000
0000
0000
0000
0000
0000
0000
0000
0001
0000
0000
0000
0000
0000
0000
0000
0000
0000
0100
0000
0000
0000
0000
0000
0000
0000
0000
0000
0001
0000
0000
0000
0000
0000
0000
0000
0000
1000
0000
0000
0000
0000
0000
0000
0000
0000
0000
0010
0000
0000
0000
0000
0000
0000
0000
0000
0100
0000
0000
0000
0000
0000
0000
0000
0000
0000
,
0001
1000
0100
0010
0100
1000
0001
0100
0010
0100
0001
1000
,
0001
0010
0100
1000
0001
0100
0010
0100
0001
1000
0100
0010
,
0002
0003
0000
0000
0000
0000
0000
0000
0000
0000
0000
0000
2002
3003
0000
0000
0000
0000
0000
0000
0000
0000
0000
0000
2020
3030
0000
0000
0000
0000
0000
0000
,
0000
0000
0000
0000
0220
0000
0000
0000
0000
0000
0000
0000
0330
0000
0000
0000
0202
0303
0000
0000
0000
0000
0000
0000
0202
0303
0000
0000
0000
0000
0000
0000
,
2002
3003
0000
0000
0000
0000
0000
0000
0000
0000
0000
0000
2200
3300
0000
0000
0000
0000
0000
0000
0000
0000
0000
0000
0220
0330
0000
0000
0000
0000
0000
0000
,
0000
0000
0000
0000
0022
0000
0000
0000
0000
0000
0000
0000
0033
0000
0000
0000
0220
0330
0000
0000
0000
0000
0000
0000
0220
0330
0000
0000
0000
0000
0000
0000
,
2200
3300
0000
0000
0000
0000
0000
0000
0000
0000
0000
0000
2002
3003
0000
0000
0000
0000
0000
0000
0000
0000
0000
0000
0202
0303
0000
0000
0000
0000
0000
0000
,
0000
0000
0000
0000
0220
0000
0000
0000
0000
0000
0000
0000
0330
0000
0000
0000
2020
3030
0000
0000
0000
0000
0000
0000
2020
3030
0000
0000
0000
0000
0000
0000
,
2200
3300
0000
0000
0000
0000
0000
0000
0000
0000
0000
0000
0220
0330
0000
0000
0000
0000
0000
0000
0000
0000
0000
0000
0022
0033
0000
0000
0000
0000
0000
0000
,
0000
0000
0000
0000
2002
0000
0000
0000
0000
0000
0000
0000
0000
3003
0000
0000
2200
3300
0000
0000
0000
0000
0000
0000
2200
3300
0000
0000
0000
0000
0000
0000
,
2002
3003
0000
0000
0000
0000
0000
0000
0000
0000
0000
0000
0202
0303
0000
0000
0000
0000
0000
0000
0000
0000
0000
0000
0220
0330
0000
0000
0000
0000
0000
0000
,
0000
0000
0000
0000
2020
0000
0000
0000
0000
0000
0000
0000
3030
0000
0000
0000
0220
0330
0000
0000
0000
0000
0000
0000
0220
0330
0000
0000
0000
0000
0000
0000
,
2002
0003
3000
0000
2002
0000
3003
0000
0000
0000
0000
0000
0000
0000
0000
0000
0000
0000
0000
0000
0000
0000
0000
0000
0000
0000
0000
0000
0000
0000
0000
0000
;
