#TITLE:Oxygen;
#SUBTITLE:;
#ARTIST:SKILLZmakeKILLZ;
#TITLETRANSLIT:;
#SUBTITLETRANSLIT:;
#ARTISTTRANSLIT:;
#CREDIT:owenviau1;
#BANNER:../owenviau1 Simfiles 5-bn.png;
#BACKGROUND:BG.PNG;
#LYRICSPATH:;
#CDTITLE:../ov1_title.png;
#MUSIC:452105_Oxygen.mp3;
#OFFSET:-0.029;
#SAMPLESTART:79.459;
#SAMPLELENGTH:29.999;
#SELECTABLE:YES;
#DISPLAYBPM:145.000;
#BPMS:0.000=144.994,1.000=145.002,3.000=144.994,4.000=145.002,7.000=144.994,8.000=145.002,11.000=144.994,12.000=145.002,14.000=144.994,15.000=145.002,18.000=144.994,19.000=145.002,21.000=144.994,22.000=145.002,25.000=144.994,26.000=145.002,28.000=144.994,29.000=145.002,32.000=144.994,33.000=145.002,36.000=144.994,37.000=145.002,40.000=144.994,41.000=145.002,44.000=144.994,45.000=145.002,48.000=144.994,49.000=145.002,52.000=144.994,53.000=145.002,56.000=144.994,57.000=145.002,60.000=144.994,61.000=145.002,64.000=144.994,65.000=145.002,68.000=144.994,69.000=145.002,72.000=144.994,73.000=145.002,76.000=144.994,77.000=145.002,80.000=144.994,81.000=145.002,84.000=144.994,85.000=145.002,88.000=144.994,89.000=145.002,92.000=144.994,93.000=145.002,96.000=144.994,97.000=145.002,100.000=144.994,101.000=145.002,104.000=144.994,105.000=145.002,108.000=144.994,109.000=145.002,112.000=144.994,113.000=145.002,116.000=144.994,117.000=145.002,120.000=144.994,121.000=145.002,124.000=144.994,125.000=145.002,128.000=144.994,129.000=145.002,132.000=144.994,133.000=145.002,136.000=144.994,137.000=145.002,140.000=144.994,141.000=145.002,144.000=144.994,145.000=145.002,148.000=144.994,149.000=145.002,152.000=144.994,153.000=145.002,156.000=144.994,157.000=145.002,160.000=144.994,161.000=145.002,164.000=144.994,165.000=145.002,168.000=144.994,169.000=145.002,172.000=144.994,173.000=145.002,176.000=144.994,177.000=145.002,180.000=144.994,181.000=145.002,184.000=144.994,185.000=145.002,188.000=144.994,189.000=145.002,192.000=144.994,193.000=145.002,196.000=144.994,197.000=145.002,200.000=144.994,201.000=145.002,204.000=144.994,205.000=145.002,208.000=144.994,209.000=145.002,212.000=144.994,213.000=145.002,216.000=144.994,217.000=145.002,220.000=144.994,221.000=145.002,224.000=144.994,225.000=145.002,228.000=144.994,229.000=145.002,230.000=144.994,231.000=145.002,232.000=144.994,233.000=145.002,234.000=144.994,235.000=145.002,236.000=144.994,237.000=145.002,238.000=144.994,239.000=145.002,240.000=144.994,241.000=145.002,242.000=144.994,243.000=145.002,244.000=144.994,245.000=145.002,246.000=144.994,247.000=145.002,248.000=144.994,249.000=145.002,250.000=144.994,251.000=145.002,252.000=144.994,253.000=145.002,254.000=144.994,255.000=145.002,256.000=144.994,257.000=145.002,258.000=144.994,259.000=145.002,260.000=144.994,261.000=145.002,262.000=144.994,263.000=145.002,264.000=144.994,265.000=145.002,266.000=144.994,267.000=145.002,268.000=144.994,269.000=145.002,270.000=144.994,271.000=145.002,272.000=144.994,273.000=145.002,274.000=144.994,275.000=145.002,276.000=144.994,277.000=145.002,278.000=144.994,279.000=145.002,280.000=144.994,281.000=145.002,282.000=144.994,283.000=145.002,284.000=144.994,285.000=145.002,286.000=144.994,287.000=145.002,288.000=144.994,289.000=145.002,290.000=144.994,291.000=145.002,292.000=144.994,293.000=145.002,294.000=144.994,295.000=145.002,296.000=144.994,297.000=145.002,298.000=144.994,299.000=145.002,300.000=144.994,301.000=145.002,302.000=144.994,303.000=145.002,304.000=144.994,305.000=145.002,306.000=144.994,307.000=145.002,308.000=144.994,309.000=145.002,310.000=144.994,311.000=145.002,312.000=144.994,313.000=145.002,314.000=144.994,315.000=145.002,316.000=144.994,317.000=145.002,318.000=144.994,319.000=145.002,320.000=144.994,321.000=145.002,322.000=144.994,323.000=145.002,324.000=144.994,325.000=145.002,326.000=144.994,327.000=145.002,328.000=144.994,329.000=145.002,330.000=144.994,331.000=145.002,332.000=144.994,333.000=145.002,334.000=144.994,335.000=145.002,336.000=144.994,337.000=145.002,338.000=144.994,339.000=145.002,340.000=144.994,341.000=145.002,342.000=144.994,343.000=145.002,344.000=144.994,345.000=145.002,346.000=144.994,347.000=145.002,348.000=144.994,349.000=145.002,350.000=144.994,351.000=145.002,352.000=144.994,353.000=145.002,354.000=144.994,355.000=145.002,356.000=144.994,357.000=145.002,358.000=144.994,359.000=145.002,360.000=144.994,361.000=145.002,362.000=144.994,363.000=145.002,364.000=144.994,365.000=145.002,366.000=144.994,367.000=145.002,368.000=144.994,369.000=145.002,370.000=144.994,371.000=145.002,372.000=144.994,373.000=145.002,374.000=144.994,375.000=145.002,376.000=144.994,377.000=145.002,378.000=144.994,379.000=145.002,380.000=144.994,381.000=145.002,382.000=144.994,383.000=145.002,384.000=144.994,385.000=145.002,386.000=144.994,387.000=145.002,388.000=144.994,389.000=145.002,390.000=144.994,391.000=145.002,392.000=144.994,393.000=145.002,394.000=144.994,395.000=145.002,396.000=144.994,397.000=145.002,398.000=144.994,399.000=145.002,400.000=144.994,401.000=145.002,402.000=144.994,403.000=145.002,404.000=144.994,405.000=145.002,406.000=144.994,407.000=145.002,408.000=144.994,409.000=145.002,410.000=144.994,411.000=145.002,412.000=144.994,413.000=145.002,414.000=144.994,415.000=145.002,416.000=144.994,417.000=145.002,418.000=144.994,419.000=145.002,420.000=144.994,421.000=145.002,422.000=144.994,423.000=145.002,424.000=144.994,425.000=145.002,426.000=144.994,427.000=145.002,428.000=144.994,429.000=145.002,430.000=144.994,431.000=145.002,432.000=144.994,433.000=145.002,434.000=144.994,435.000=145.002,436.000=144.994,437.000=145.002,438.000=144.994,439.000=145.002,440.000=144.994,441.000=145.002,442.000=144.994,443.000=145.002,444.000=144.994,445.000=145.002,446.000=144.994,447.000=145.002,448.000=144.994,449.000=145.002,450.000=144.994,451.000=145.002,452.000=144.994,453.000=145.002,454.000=144.994,455.000=145.002,456.000=144.994,457.000=145.002,458.000=144.994,459.000=145.002,480.000=144.994,481.000=145.002;
#STOPS:;
#BGCHANGES:;
// cache tags:
#FIRSTBEAT:32.000;
#LASTBEAT:486.917;
#SONGFILENAME:Songs/owenviau1 Simfiles 5/Oxygen - [owenviau1] v1.4/Oxygen.sm;
#HASMUSIC:1;
#HASBANNER:1;
#MUSICLENGTH:205.296;
// end cache tags

//---------------dance-single - ----------------
#NOTES:
     dance-single:
     :
     Hard:
     9:
     0.574,0.526,0.297,0.039,0.061,754.000,61.000,8.000,49.000,0.000:
0000
0000
0000
0000
,
0000
0000
0000
0000
,
0000
0000
0000
0000
,
0000
0000
0000
0000
,
0000
0000
0000
0000
,
0000
0000
0000
0000
,
0000
0000
0000
0000
,
0000
0000
0000
0000
,
1MM1
1100
0110
0011
,
1001
0000
0101
0000
0110
0000
1000
0001
,
0101
1100
0110
0011
,
1001
0101
1010
0110
,
1MM1
1100
0110
0011
,
0110
0000
1001
0000
0101
0000
1000
0010
,
0110
0000
0101
0000
1001
0000
1000
0001
,
0110
0000
1100
0000
0101
0000
0010
1000
,
1001
0101
0110
0011
,
1001
0000
0101
0000
0110
0000
1000
0001
,
0110
0011
0110
1100
,
1001
0011
1010
0110
,
0011
0000
1100
0000
0011
0000
0100
0010
,
1000
0000
0110
0000
0101
0000
1000
0010
,
0100
0001
0010
0100
1000
0010
1000
0001
,
0100
0010
1000
0100
0010
0001
1000
0010
,
1001
0000
0000
0000
0100
0000
0010
0000
0001
0000
0000
0000
0001
0000
1000
0100
,
0010
0001
0100
0010
1000
0100
1000
0001
,
0100
0000
0000
0000
0001
0000
0100
0010
1000
0000
0001
0000
0100
0000
0010
0000
,
1000
0100
1000
0001
0100
0010
1000
0001
,
1001
0000
0000
0000
0001
0000
0010
0000
0100
0000
0000
0000
0001
0000
1000
0010
,
0100
0001
0010
0100
1000
0010
1000
0001
,
0100
0010
1000
0100
0010
0001
0100
0010
,
1000
0001
0010
0001
0100
0010
1000
0010
,
0101
0001
0010
0100
1000
0010
0100
0001
,
1000
0001
0010
0001
0100
0010
1000
0100
,
1000
0010
0100
0001
0010
0001
1000
0010
,
0100
0001
0010
0100
1000
0010
0100
0001
,
0010
0001
0100
0010
1000
0100
0010
0001
,
0100
0010
1000
0001
1000
0100
1000
0010
,
0100
0001
0010
0001
1000
0010
0100
0001
,
0010
0100
1000
0010
0100
0001
1000
0001
,
0110
0100
0010
1000
0001
1000
0100
1000
,
0010
0100
0001
0010
0001
1000
0010
0100
,
0001
0010
0100
1000
0010
0100
0001
1000
,
0010
1000
0100
1000
0010
0100
0001
0010
,
0001
1000
0010
0100
0001
0010
0100
1000
,
0010
0100
0001
1000
0001
0010
0001
1000
,
0010
0100
0001
0010
0100
1000
0010
0100
,
0001
0010
0001
1000
0010
0100
0001
1000
,
0011
0010
1000
0001
0010
0100
1000
0010
,
0100
0001
1000
0001
0010
0001
0100
0010
,
4000
0001
0000
0100
0000
0001
0000
0100
,
3004
0100
0000
0010
0000
1000
0000
0100
,
1003
0010
0100
0001
0010
0100
1000
0001
,
0100
0010
1000
0100
1000
0001
1000
0010
,
0100
0001
0010
0001
0100
0010
1000
0100
,
0010
0001
0100
0010
1000
0001
0100
0010
,
1002
0000
M000
M000
M000
M000
M000
M000
M000
M000
M000
M000
M000
M000
M000
M000
,
M000
M000
M000
M000
M000
M000
M000
M000
M000
M000
M000
M000
M000
M000
M000
M000
,
M000
M000
M000
M000
M000
M000
M000
M000
M000
M000
M000
M000
M000
M000
M000
0000
,
0000
0000
0000
0000
,
0023
0000
0000
0000
,
0230
0000
0000
0000
,
0301
0000
1000
0001
0100
0000
1000
0000
,
0001
0000
1000
0010
0100
1000
0100
0010
,
0001
0000
0100
0001
1000
0000
0010
0000
,
0010
0100
1000
0001
0010
1000
0001
1000
,
0010
0000
1000
0010
0001
0000
1000
0000
,
0001
0010
0100
1000
0001
0100
0010
1000
,
0001
0000
0010
1000
0001
0000
0010
0000
,
0100
1000
0100
0010
0001
1000
0010
0100
,
1001
0000
1000
0001
0100
0000
1000
0000
,
0001
0000
1000
0100
0001
1000
0100
0010
,
0001
0000
0100
0001
1000
0000
0010
0000
,
0001
0100
0010
0001
0010
0100
1000
0001
,
1000
0010
0100
0001
1000
0100
1000
0010
,
0100
0001
0010
0001
1000
0001
0100
0010
,
1000
0100
0010
0001
0100
0010
1000
0001
,
0010
0001
0100
0010
1000
0100
0010
1000
,
0001
0000
2000
3000
0000
0000
2000
3000
0000
0000
2000
3000
0000
0000
2000
3000
,
0002
0000
0000
0000
,
1003
0001
0010
0100
1000
0010
0100
0001
,
1000
0001
0010
0001
0100
0010
1000
0100
,
1000
0010
0100
0001
0010
0001
1000
0010
,
0100
0001
0010
0100
1000
0010
0100
0001
,
0010
0001
0100
0010
1000
0100
0010
0001
,
0100
0010
1000
0001
1000
0100
1000
0010
,
0100
0001
0010
0001
1000
0010
0100
0001
,
0010
0100
1000
0010
0100
0001
1000
0010
,
1001
1000
0010
1000
0001
1000
0100
1000
,
0010
0100
0001
0010
0001
1000
0010
0100
,
0001
0010
0100
1000
0010
0100
0001
1000
,
0010
1000
0100
1000
0010
0100
0001
0010
,
0001
1000
0010
0100
0001
0010
0100
1000
,
0010
0100
0001
1000
0001
0010
0001
1000
,
0010
0100
0001
0010
0100
1000
0010
0100
,
0001
0010
0001
1000
0010
0100
0001
1000
,
0011
0010
1000
0001
0010
0100
1000
0010
,
0100
0001
1000
0001
0010
0001
0100
0010
,
4000
0001
0000
0100
0000
0001
0000
0100
,
3004
0100
0000
0010
0000
1000
0000
0100
,
1003
0010
0100
0001
0010
0100
1000
0001
,
0100
0010
1000
0100
1000
0001
1000
0010
,
0100
0001
0010
0001
0100
0010
1000
0100
,
0010
0001
0100
0010
1000
0001
0100
0010
,
1000
0100
0001
1000
0100
0010
0001
1000
,
0010
0100
0001
0010
0100
1000
0001
0100
,
0010
1000
0001
1000
0100
1000
0010
0100
,
0001
0010
0001
1000
0010
0100
0001
0010
,
0100
1000
0010
0100
0001
0010
0001
1000
,
0010
0100
0001
0010
0100
1000
0010
0100
,
0001
1000
0001
0010
0001
0100
0010
1000
,
0100
1000
0010
0100
0001
1000
0100
0010
,
1001
0001
0100
0010
1000
0100
0010
0001
,
0010
0100
1000
0010
0100
0001
1000
0001
,
0010
0001
0100
0010
1000
0100
1000
0010
,
0100
0001
0010
0100
1000
0010
0100
0001
,
1001
0100
0001
0010
0100
1000
0010
0100
,
0001
0010
0001
1000
0010
0100
0001
0010
,
0100
1000
0010
0100
0001
1000
0001
0010
,
0001
0100
0010
1000
0001
0010
0100
1000
,
0000
0000
0000
0000
,
0000
0000
0000
0000
,
0000
0000
0000
0000
,
0000
0000
0000
0000
,
0000
0000
0000
0000
;

//---------------dance-single - ----------------
#NOTES:
     dance-single:
     :
     Challenge:
     11:
     0.891,0.919,1.000,0.278,0.278,839.000,384.000,57.000,61.000,6.000:
0000
0000
0000
0000
,
0000
0000
0000
0000
,
0000
0000
0000
0000
,
0000
0000
0000
0000
,
0000
0000
0000
0000
,
0000
0000
0000
0000
,
0000
0000
0000
0000
,
0000
0000
0000
0000
,
1MM1
1100
0110
0011
,
1001
0000
0101
0000
0110
0000
1010
0001
,
0101
1100
0110
0011
,
1001
0101
1010
0110
,
1MM1
1100
0110
0011
,
0110
0000
1001
0000
0101
0000
1010
0010
,
0110
0000
0101
0000
1001
0000
1100
0001
,
0110
0000
1100
0000
0101
0000
0110
1000
,
1001
0101
0110
0011
,
1001
0000
0101
0000
0110
0000
1010
0001
,
0110
0011
0110
1100
,
1001
0011
1010
0110
,
0011
0000
1100
0000
0011
0000
0101
0110
,
1010
0000
0110
0000
0101
0000
1100
0011
,
1010
0000
0100
0010
0001
0000
1000
0010
0100
0000
0001
0010
0100
0000
1000
0001
,
0010
0100
1000
0001
0100
0010
1000
0010
0100
0001
0010
0100
1000
0001
0100
0010
,
1001
0000
0000
0000
1100
0000
0110
0000
0011
0000
0000
0000
1001
0000
1000
0100
,
0010
0001
1001
0010
1100
0101
0110
1001
,
0011
0000
0000
0000
1001
0000
0100
0010
1000
0000
0000
0000
0110
0000
0001
0000
,
1100
0010
1001
0100
1010
0110
0101
1010
,
1001
0000
0000
0000
1001
0000
0010
0000
1100
0000
0000
0000
0011
0000
1000
0010
,
0100
0001
0110
1000
0011
1100
0110
0011
,
1100
0000
1000
0100
0010
0000
0100
0010
0001
0000
0001
0010
0100
0000
1000
0010
,
0100
0001
0010
0100
1000
0010
1000
0100
0010
0001
0100
0001
1000
0010
0100
0001
,
0110
0000
1000
0000
0011
0000
0110
0000
1100
0000
0001
0000
1010
0000
0100
0001
,
0010
1000
0011
1000
1100
1010
1001
0101
,
0011
0000
0100
0000
1001
0000
0001
1000
0010
0000
0100
0000
0011
0000
0100
0000
,
1100
0010
1001
1000
0110
1001
0011
1010
,
0101
0000
0010
0000
1100
0000
0011
0000
1100
0000
0010
0000
1001
0000
0100
0010
,
0100
1000
1001
0010
1100
0101
1010
0110
,
0101
0000
0010
0000
1100
0000
1000
0001
0100
0000
0010
0000
1001
0000
0100
0000
,
1010
0000
1000
0000
0110
0000
0001
0000
1010
0000
0110
0000
0101
0000
1000
0100
,
1001
0000
0010
0000
1100
0000
0101
0000
1001
0000
0100
0000
0011
0000
1000
0001
,
1000
0010
1100
0010
1001
0110
1010
0101
,
1001
0000
0010
0000
0101
0000
1000
0010
0100
0000
0010
0000
1001
0000
0010
0000
,
1100
0010
0101
1000
1100
0110
0101
1001
,
0110
0000
0010
0000
1001
0000
0101
0000
0110
0000
0001
0000
1100
0000
0001
1000
,
0010
0100
1001
0010
1100
0110
1001
0101
,
1010
0000
0100
0000
1001
0000
1000
0001
0010
0000
0100
0000
1100
0000
0010
0000
,
1001
0000
0010
0000
0110
0000
1000
0000
0101
0000
1100
0000
0110
0000
0001
1000
,
1001
0000
0100
0000
1010
0000
0110
0000
1001
0000
0010
0000
1100
0000
0010
0001
,
1000
0001
0110
0010
1001
0101
0110
1010
,
1002
0000
0000
0000
0010
0000
1000
0010
1000
0000
0000
0000
0010
0000
1000
0000
,
0203
0010
1000
0001
1000
0001
1000
0001
,
1301
0000
0100
0000
1010
0000
0110
0000
0011
0000
1000
0000
1100
0000
0001
1000
,
0001
0010
1100
0010
1001
0101
1100
0011
,
1001
0000
0100
0010
0001
0000
1000
0001
0100
0000
0010
1000
0001
0000
1000
0100
,
0010
0001
0100
0010
1000
0010
0100
0001
0010
0100
1000
0001
0100
0001
1000
0010
,
1002
0000
M000
M000
M000
M000
M000
M000
M000
M000
M000
M000
M000
M000
M000
M000
,
M000
M000
M000
M000
M000
M000
M000
M000
M000
M000
M000
M000
M000
M000
M000
M000
,
M000
M000
M000
M000
M000
M000
M000
M000
M000
M000
M000
M000
M000
M000
M000
0000
,
0000
0000
0000
0000
,
0023
0000
0000
0000
,
0200
0000
0000
0000
,
1331
0000
1010
0001
0110
0000
1100
0000
,
1001
0000
1100
0010
0101
1000
1100
0010
,
1001
0000
0110
0001
1100
0000
0110
0000
,
0011
0100
1010
0001
0110
1000
0101
1000
,
1010
0000
1100
0010
0011
0000
1100
0000
,
0101
0010
1100
0010
1001
0100
1010
0100
,
0011
0000
0110
1000
0101
0000
0110
0000
,
1100
0010
0101
0010
1100
0001
0110
1000
,
1MM1
0000
1100
0001
0110
0000
1100
0000
,
0101
0000
1010
0100
0101
1000
1100
0010
,
1001
0000
0110
0001
1100
0000
0110
0000
,
0011
0100
1010
0001
0110
1000
0101
1000
,
1010
0000
1100
0010
0011
0000
1100
0110
,
0101
0010
1100
0010
1001
0100
1010
1100
,
0011
0000
1000
0010
0100
0000
0001
0100
0010
0000
1000
0001
0100
0000
0010
1000
,
0100
0010
0001
0100
0001
1000
0010
0100
0010
1000
0001
0100
0010
1000
0100
0010
,
0001
0000
2000
3000
0000
0000
2000
3000
0000
0000
2000
3000
0000
0000
2000
3000
,
0002
0000
0000
0000
,
1103
0000
0100
0000
0011
0000
0110
0000
1100
0000
0001
0000
1010
0000
0100
0001
,
0010
1000
0011
0100
1010
1100
1001
0101
,
0011
0000
0100
0000
1001
0000
0001
1000
0010
0000
0100
0000
0011
0000
0100
0000
,
1100
0010
1001
1000
0110
1001
0011
1010
,
0101
0000
0010
0000
1100
0000
0011
0000
1100
0000
0010
0000
1001
0000
0100
0010
,
0001
1000
1001
0010
1100
0101
1010
0110
,
0101
0000
0010
0000
1100
0000
1000
0001
0100
0000
0010
0000
1001
0000
0100
0000
,
1010
0000
1000
0000
0110
0000
0001
0000
1010
0000
0110
0000
0101
0000
1000
0100
,
1001
0000
0010
0000
1100
0000
0101
0000
1001
0000
0100
0000
0011
0000
1000
0001
,
1000
0010
1100
0010
1001
0110
1010
0101
,
1001
0000
0010
0000
0101
0000
1000
0010
0100
0000
0010
0000
1001
0000
0010
0000
,
1100
0010
0101
1000
1100
0110
0101
1001
,
0110
0000
0010
0000
1001
0000
0101
0000
0110
0000
0001
0000
1100
0000
0001
1000
,
0010
0100
1001
0010
1100
0110
1001
0101
,
1010
0000
0100
0000
1001
0000
1000
0001
0010
0000
0100
0000
1100
0000
0010
0000
,
1001
0000
0010
0000
0110
0000
1000
0000
0101
0000
1100
0000
0110
0000
0001
1000
,
1001
0000
0100
0000
1010
0000
0110
0000
1001
0000
0010
0000
1100
0000
0010
0001
,
1000
0001
0110
0010
1001
0101
0110
1010
,
1002
0000
0000
0000
0100
0000
0100
0010
0100
0000
0000
0000
0010
0000
1000
0000
,
0203
0010
0001
1000
0001
1000
0001
1000
,
1301
0000
0100
0000
1010
0000
0110
0000
0011
0000
1000
0000
1100
0000
0001
1000
,
0001
0010
1100
0010
1001
0101
1100
0011
,
1001
0000
0100
0010
0001
0000
1000
0001
0100
0000
0010
1000
0001
0000
1000
0100
,
0010
0001
0100
0010
1000
0010
0100
0001
0010
0100
1000
0001
0100
0001
1000
0010
,
1001
0010
1100
0010
0101
1000
1001
0010
,
1100
0100
0011
1000
0110
1010
0101
1100
,
1002
0000
0000
0000
0M00
0000
0000
0000
2000
3000
0000
0000
0M00
0000
0000
0000
1000
0000
0000
0000
0M00
0000
0000
0000
2000
3000
0000
0000
0M00
0000
0000
0000
,
0123
0000
0000
0000
M000
0000
0000
0000
0200
0300
0000
0000
M000
0000
0000
0000
0100
0000
0000
0000
M000
0000
0000
0000
0200
0300
0000
0000
M000
0000
0000
0000
,
0230
0000
0300
0000
0200
0000
0302
0000
0023
0000
0030
0000
0200
0000
2300
3002
,
2003
3200
0320
0032
0203
0320
2030
3002
,
2003
0000
0000
0000
3000
0000
0200
0320
0032
0000
0003
0000
0002
0000
0023
0000
,
0230
0000
2300
0000
3002
0000
0203
0000
0320
0000
2030
3020
0230
0000
0300
0000
,
1MM1
0100
0011
1000
0110
0001
1010
0100
,
1001
0010
1100
0010
0101
1000
1100
0010
,
1001
0100
0110
0001
1100
0001
0110
1000
,
0011
0100
1010
0001
0110
1000
0101
1000
,
1010
0000
1100
0010
0011
0000
1100
0000
,
0101
0010
1100
0010
1001
0100
1010
0100
,
0011
0000
0110
1000
0101
0000
0110
0000
,
1100
0000
0000
0000
0000
0000
0010
0000
0000
0000
0000
0000
0101
0000
0000
0000
0000
0000
0012
0000
0000
0000
0000
0000
1000
0000
0000
0000
0000
0000
0010
0000
0000
0000
0000
0000
1000
0000
0000
0000
0000
0000
2023
0000
0000
0000
0000
3000
,
0030
0000
0000
0000
0000
0000
2000
0000
0000
0000
0000
3000
0000
0000
0000
0000
0000
0000
2000
0000
0000
0000
0000
3000
0000
0000
0000
0000
0000
0000
2000
0000
0000
0000
0000
3000
0000
0000
0000
0000
0000
0000
2000
0000
0000
0000
0000
3000
,
0000
0000
0000
0000
0000
0000
0000
0000
0000
0000
0000
0000
0000
0000
0000
0000
0000
0000
0000
0000
0000
0000
0000
0000
2000
0000
0000
0000
0000
0000
0000
0000
0000
0000
0000
0000
0000
0000
0000
0000
0000
0000
0000
0000
3000
0000
0000
0000
0000
0000
0000
0000
0000
0000
0000
0000
0000
0000
0000
0000
0000
0000
0000
0000
0000
0000
0000
0000
0000
0000
0000
0000
2000
0000
0000
0000
0000
0000
0000
0000
0000
0000
0000
0000
0000
0000
0000
0000
0000
0000
0000
0000
0000
3000
0000
0000
0000
0000
0000
0000
0000
0000
0000
0000
0000
0000
0000
0000
0000
0000
0000
0000
0000
0000
0000
0000
0000
0000
0000
0000
2000
0000
0000
0000
0000
0000
0000
0000
0000
0000
0000
0000
0000
0000
0000
0000
0000
0000
0000
0000
3000
0000
0000
0000
0000
0000
0000
0000
0000
0000
0000
0000
0000
0000
0000
0000
0000
0000
0000
0000
0000
0000
0000
0000
0000
0000
0000
0000
0000
0000
0000
0000
0000
0000
0000
0000
0000
0000
0000
0000
0000
0000
0000
0000
0000
0000
0000
0000
0000
0000
0000
0000
,
0000
0000
0000
0000
,
0000
0000
0000
0000
,
0000
0000
0000
0000
;
