#TITLE:PARANOiA HRX;
#SUBTITLE:;
#ARTIST:HiROKEY;
#TITLETRANSLIT:;
#SUBTITLETRANSLIT:;
#ARTISTTRANSLIT:;
#CREDIT:;
#BANNER:paranoia_hrx.png;
#BACKGROUND:paranoia_hrx-bg.png;
#LYRICSPATH:;
#CDTITLE:../cdtitle.png;
#MUSIC:paranoia_hrx.mp3;
#OFFSET:-0.500;
#SAMPLESTART:67.373;
#SAMPLELENGTH:12.000;
#SELECTABLE:YES;
#BPMS:0.000=190.000;
#STOPS:;
#BGCHANGES:;
// cache tags:
#FIRSTBEAT:16.000;
#LASTBEAT:315.000;
#SONGFILENAME:Songs/Japanese Collaboration Mix/paranoia_hrx/paranoia_hrx.sm;
#HASMUSIC:1;
#HASBANNER:1;
#MUSICLENGTH:103.831;
// end cache tags

//---------------dance-single - Copied from----------------
#NOTES:
     dance-single:
     Copied from:
     Challenge:
     9:
     0.643,0.683,0.327,0.000,0.106,433.000,34.000,0.000,0.000,0.000:
0000
0000
0000
0000
,
0000
0000
0000
0000
,
0000
0000
0000
0000
,
0000
0000
0000
0000
,
0010
0100
0010
0000
1000
0010
1000
0000
,
0001
0010
0001
0000
1000
0100
1000
0000
,
0001
0100
0010
0100
0001
0100
0010
0100
,
0001
0010
0100
0000
0100
1000
0010
0000
,
1000
0010
0100
0010
1000
0010
0100
0000
,
0010
0100
0010
0000
0010
0100
0001
0000
,
0001
0100
0001
0100
0001
0100
0010
0000
,
0010
1000
0100
0000
0010
0000
0110
0000
,
0100
1000
0100
1000
0010
1000
0010
0000
,
0010
0100
0010
0100
0001
0100
0001
0000
,
0001
0010
0001
0010
0100
0010
0100
0000
,
1000
0100
1000
0000
0100
0010
0100
0000
,
0100
0010
0001
0010
0100
0010
0001
0000
,
0010
0100
1000
0100
0010
0100
1000
0000
,
0100
1000
0100
1000
0010
0000
1010
0000
,
0010
0100
0001
0000
0010
0000
0101
0000
,
0001
0100
0010
0100
0001
0100
0010
0000
,
1000
0100
0010
0100
1000
0100
0010
0000
,
0001
0100
0010
0100
0001
0100
0010
0000
,
0010
1000
0010
0000
0100
0000
0110
0000
,
0010
1000
0100
0000
1000
0100
1000
0000
,
0100
0010
0001
0000
0010
0001
0010
0000
,
0001
0100
0001
0000
0001
0100
0010
0000
,
0001
0100
1000
0000
0001
0010
0001
0000
,
0001
1000
0100
0000
0010
0100
1000
0000
,
0100
0010
0100
0000
0010
0001
0010
0000
,
0001
0100
0010
0000
0100
0001
0100
0000
,
0001
1000
0100
0010
0100
1000
0100
0000
,
0100
1000
0001
1000
0100
1000
0001
0000
,
0100
1000
0010
0000
0100
0010
0100
0000
,
0001
0010
0001
0000
0001
0010
0100
0000
,
0100
1000
0010
0100
1001
0000
1001
0000
,
0010
0000
0000
0100
0000
0000
1001
0000
,
0000
0110
0000
0001
1000
0100
0010
0000
,
0001
0000
0000
0100
0000
0000
0010
0000
,
0000
0100
0000
0001
1000
0001
1000
0000
,
0010
0000
0000
0100
0000
0000
1000
0000
,
0000
0100
0000
0100
0010
0001
0100
0000
,
1000
0000
0000
0010
0000
0000
0001
0000
,
0000
0100
0000
0100
1000
0010
0100
0000
,
0001
0000
0000
0100
0000
0000
0010
0000
,
0000
0100
0000
0100
1000
0010
0100
0000
,
0001
0000
0000
0010
0000
0000
0100
0000
,
0000
1000
0000
0001
0010
0100
1000
0000
,
0010
0000
0000
0100
0000
0000
1000
0000
,
0000
0001
0000
0001
0010
0100
1000
0000
,
0010
0000
0000
1000
0000
0000
0100
0000
,
0000
0001
0000
1000
0010
0100
0001
0000
,
1000
0000
0001
0001
,
0010
1000
0100
0010
0001
0100
0010
0000
,
0010
1000
0100
0000
0001
0100
0010
0000
,
1000
0010
0100
0001
0010
0100
1000
0000
,
1100
0011
0101
1010
,
0001
1000
0100
0010
0001
0100
0010
0000
,
1000
0010
1000
0000
0001
0100
0001
0000
,
0001
0010
0100
1000
0010
0100
0001
0000
,
0101
0011
0110
1100
,
0010
1000
0100
0000
0010
0001
0100
0000
,
0101
1010
0011
1100
,
0001
1000
0100
0010
0001
0100
0010
0000
,
1000
0010
1010
0000
0001
0010
0011
0000
,
0001
1000
0100
0010
0001
0100
0010
0000
,
1010
1001
0101
0011
,
0110
0100
1000
0001
0010
0001
0100
0000
,
0101
0001
1000
0000
1100
0100
0010
0000
,
1000
0000
0000
1000
0010
0000
0000
0010
0100
0000
0000
0100
0001
0000
0000
0001
,
0010
0000
0000
0010
0001
0000
0000
0000
0001
0000
0000
0001
0010
0000
0000
0000
,
1000
0000
0000
1000
0100
0000
0000
0100
0010
0000
0000
0010
0001
0000
0000
0001
,
1000
0000
0000
1000
0010
0000
0000
0010
0100
0000
0000
0100
0001
0000
0000
0000
,
1000
0000
0000
1000
0001
0000
0000
0000
0100
0000
0000
0100
0010
0000
0000
0000
,
1000
0000
0000
1000
0010
0000
0000
0010
0100
0000
0000
0100
0001
0000
0000
0001
,
0010
0000
0000
0010
0100
0000
0000
0100
1000
0000
0000
1000
0001
0000
0000
0000
,
1000
0001
0100
0010
1000
0100
0010
0000
,
0001
1001
0000
0010
0110
0000
1000
1001
,
0000
0010
0110
0000
0001
1000
0110
0000
;
