#TITLE:Radical Faith;
#SUBTITLE:;
#ARTIST:TaQ;
#TITLETRANSLIT:;
#SUBTITLETRANSLIT:;
#ARTISTTRANSLIT:;
#CREDIT:;
#BANNER:radical.png;
#BACKGROUND:radical-bg.png;
#LYRICSPATH:;
#CDTITLE:!reachTitle.png;
#MUSIC:Radical Faith.mp3;
#OFFSET:-0.067;
#SAMPLESTART:8.470;
#SAMPLELENGTH:12.000;
#SELECTABLE:YES;
#BPMS:0.000=114.000;
#STOPS:158.750=0.520
;
#BGCHANGES:;
// cache tags:
#FIRSTBEAT:0.000;
#LASTBEAT:190.500;
#SONGFILENAME:Songs/Keyboard Collaboration II/Reach - Radical Faith/Radical Faith.sm;
#HASMUSIC:1;
#HASBANNER:1;
#MUSICLENGTH:101.075;
// end cache tags

//---------------dance-single - ----------------
#NOTES:
     dance-single:
     :
     Hard:
     11:
     1.000,1.000,1.000,0.040,1.000,638.000,148.000,4.000,0.000,0.000:  // measure 1
2000
0000
0000
3001
0000
0100
1000
0000
0010
0001
0000
0100
1000
0010
0100
0001
,  // measure 2
1100
0000
0000
0000
1001
0000
0000
0000
0110
0000
1001
0000
0000
0000
1100
0000
0011
0000
1000
0000
0010
0000
0100
0000
0001
0000
1000
0000
0001
0010
0100
1000
,  // measure 3
0001
0000
0010
1000
0011
0000
0100
1000
0100
1000
0010
0001
1100
0000
1001
0000
,  // measure 4
0110
0000
0000
0000
0010
0000
0010
0000
0010
0000
0000
0000
1000
0100
0010
0001
1100
0000
0010
0000
0001
0000
1000
0000
0010
0000
0100
0000
0100
0000
0100
0000
,  // measure 5
0011
0000
0110
0000
0101
0000
1000
0010
0100
0001
0010
0001
1100
0000
0101
0000
,  // measure 6
1010
0000
0110
0000
0011
0000
1000
0010
0100
1000
0100
1000
0011
0000
0101
0000
,  // measure 7
1010
0000
1100
0000
1001
0000
0010
0100
0010
0001
1000
0010
1001
0000
0110
0000
,  // measure 8
1001
0000
0000
0000
0011
0000
0000
0000
1010
0000
0000
0000
0100
0000
0001
0010
0100
1000
0001
0000
0000
0000
0001
0000
0000
0000
0001
0000
0000
0000
0001
0000
,  // measure 9
1001
0000
1010
0000
1001
0000
0100
0010
0100
0001
1000
0001
0110
0000
0110
0000
,  // measure 10
1001
0000
0101
0000
0110
1000
0010
0100
0010
0100
0001
0100
1001
0000
1001
1001
,  // measure 11
1001
0000
0110
0000
1100
0001
0010
0001
1000
0010
0001
0010
1100
0000
0011
0011
,  // measure 12
0011
0000
0000
0000
1100
0000
0000
0000
1010
0000
0000
0000
1001
0000
0010
0100
1000
0001
0000
0000
0100
0000
0000
0000
0001
0000
0100
0000
0001
0000
0000
0000
,  // measure 13
1001
0000
0010
0000
1000
1000
0000
0001
0001
0010
0100
1000
0010
0010
0010
0010
,  // measure 14
1100
0000
1001
0000
0110
0110
0000
1000
1000
0010
0100
1000
1000
0100
0100
0100
,  // measure 15
0011
0000
0000
0000
1001
0000
0000
0000
0110
0000
0010
0000
0000
0000
0010
0000
0001
0000
1000
0000
0010
0000
0100
0000
0010
0000
0001
0000
0001
0010
0100
1000
,  // measure 16
0001
0000
0000
0000
0001
0010
0100
1000
0001
0000
0000
0000
1000
0100
0010
0001
1000
0000
0000
0000
1001
0000
0010
0000
1001
0000
0100
0000
1001
0000
0010
0000
,  // measure 17
1001
0000
0010
1000
0011
0000
0100
1000
0010
0100
0010
0001
1100
0000
0010
0000
,  // measure 18
1100
0000
1001
0000
0011
1000
0010
0100
0010
0001
1000
0010
1100
0000
0110
0000
,  // measure 19
1001
0000
0110
0000
0011
1000
0100
1000
0010
0100
0010
0001
0110
0000
1010
1010
,  // measure 20
1010
0000
0000
0000
0011
0000
0000
0000
1001
0000
0010
0000
0100
0000
0010
0000
0100
0000
0001
0000
1000
0000
0010
0000
1001
0000
0001
0010
0100
1000
0100
0010
,  // measure 21
0001
0000
1100
0000
1001
0010
1000
0010
0100
0001
0010
1000
0101
0000
1010
0000
,  // measure 22
0101
0000
0000
0000
0110
0000
0000
0000
1010
0000
0000
0000
0001
0000
0100
0000
0010
0100
1000
0001
0010
0000
0100
0000
0001
0010
0100
1000
0001
0000
0000
0000
,  // measure 23
1001
0000
1010
0000
1001
0010
1000
0010
0100
0001
0100
0010
1001
0010
1001
0100
,  // measure 24
1001
0010
0100
0010
1001
0100
0010
0100
1001
0010
0100
0010
1001
0100
0010
0100
,  // measure 25
1001
0100
0010
0001
1000
0010
0100
0001
,  // measure 26
1000
0100
0010
0001
0010
0100
1000
0100
,  // measure 27
1001
0010
1100
0010
0101
0010
1001
0100
,  // measure 28
1010
0000
0000
0000
0000
0000
0000
0000
0000
0000
0000
0000
0000
0000
0000
0000
0000
0000
0000
0000
0000
0000
0000
0000
0100
0000
0000
0000
0000
0000
0000
0000
0000
0000
0000
0000
0000
0000
0000
0000
0000
0000
0000
0000
0000
0000
0000
0000
1100
0000
0000
0000
0000
0000
0000
0000
0000
0000
0000
0000
0000
0000
0000
0000
0000
0000
0000
0000
0000
0000
0000
0000
0001
0000
0000
0000
0000
0000
0000
0000
0000
0000
0000
0000
0000
0000
0000
0000
0000
0000
0000
0000
0000
0000
0000
0000
0110
0000
0000
0000
0000
0000
0000
0000
0000
0000
0000
0000
0000
0000
0000
0000
0000
0000
0000
0000
0000
0000
0000
0000
0001
0000
0000
0000
0000
0000
0000
0000
0000
0000
0000
0000
0000
0000
0000
0000
0000
0000
0000
0000
0000
0000
0000
0000
0001
0000
0000
0000
0000
0000
0000
0000
0010
0000
0000
0000
0000
0000
0000
0000
0100
0000
0000
0000
0000
0000
0000
0000
1000
0000
0000
0000
0000
0000
0001
0000
0000
0000
0000
0000
0010
0000
0000
0000
0000
0000
0100
0000
0000
0000
0000
0000
,  // measure 29
2000
0000
0000
0000
0000
0000
0000
0000
0000
0000
0000
0000
0000
0000
0000
0000
0000
0000
0000
0000
0000
0000
0000
0000
3001
0000
0000
0000
0001
0010
0100
1000
,  // measure 30
0001
1001
0110
1001
,  // measure 31
0101
1010
0110
1001
,  // measure 32
1000
0100
1000
0011
0000
0000
1000
0100
1000
0011
0000
0000
1000
0100
0010
0001
0010
0100
1000
0100
0001
0100
1000
0010
0001
0010
1000
0100
0010
0001
0010
0100
,  // measure 33
1000
0100
0010
0001
0010
0001
1000
0010
0100
0001
0010
0100
1000
0010
0100
0001
,  // measure 34
1000
0100
0010
0001
0010
0100
0001
0100
0010
1000
0100
0010
1000
0100
1000
0001
,  // measure 35
0100
1000
0100
0010
0100
1000
0100
0010
1000
0001
0010
0100
0010
0001
0010
0100
,  // measure 36
0010
0001
0010
1000
0010
0001
0100
1000
0100
0001
0010
0100
1000
0100
0010
0001
,  // measure 37
1000
0000
0110
0000
0011
0000
1000
0010
0100
0001
1000
0010
1100
0000
0101
0000
,  // measure 38
1010
0000
1001
0000
0110
0000
0001
1000
0010
0100
0001
1000
0101
0000
0101
0101
,  // measure 39
0101
0000
1010
0000
0101
0000
1000
0100
1000
0001
0100
0010
1001
0000
0110
0000
,  // measure 40
0101
0000
0101
0000
1010
0000
0100
0010
0001
1000
0010
1001
0100
1000
0010
0100
,  // measure 41
0001
1000
0100
0010
0001
1000
0100
0100
1001
0100
0010
0100
1001
0010
0100
0010
,  // measure 42
0001
1000
0010
0100
1100
0010
0100
0001
1000
0010
0100
0010
1100
0010
0101
0010
,  // measure 43
1100
0000
0010
0000
0001
0000
1000
0000
0010
0000
0100
0000
0001
0000
0100
0000
1000
0000
0010
0000
0001
0010
0100
1000
0001
0000
0000
0000
0001
0010
0100
1000
,  // measure 44
0001
0000
0000
0000
0001
0010
0100
1000
0100
0010
0001
0010
1000
0010
0001
0100
1000
0010
0001
0010
1000
0010
0001
0000
0100
0000
1000
0000
0010
0000
0100
0000
,  // measure 45
0010
0001
0010
0100
0001
1000
0010
1000
0010
0100
0010
0001
1000
0010
0100
0010
,  // measure 46
0001
1000
0010
0100
0001
0010
0100
1000
0010
0001
1001
0100
0010
0100
1001
0010
,  // measure 47
0001
0010
1100
0010
0100
1000
0101
0010
1000
0010
1100
0010
0110
0010
0101
1000
,  // measure 48
0110
0001
0110
0001
1010
0100
0202
0000
0000
0000
0303
0000
0000
0000
0000
0000
;
