#TITLE:I Prefer the Sky;
#SUBTITLE:;
#ARTIST:D-Mode-D;
#TITLETRANSLIT:;
#SUBTITLETRANSLIT:;
#ARTISTTRANSLIT:;
#CREDIT:;
#BANNER:sky.png;
#BACKGROUND:sky-bg.png;
#LYRICSPATH:;
#CDTITLE:!cdtitle.png;
#MUSIC:D-Mode-D - I Prefer The Sky.ogg;
#OFFSET:0.011;
#SAMPLESTART:84.586;
#SAMPLELENGTH:12.000;
#SELECTABLE:YES;
#BPMS:0.000=85.000,32.000=170.000,176.000=85.000,192.000=170.000;
#STOPS:;
#BGCHANGES:;
// cache tags:
#FIRSTBEAT:0.000;
#LASTBEAT:256.000;
#SONGFILENAME:Songs/Rodd's Rad Christmas Pack/I Prefer the Sky (Rodd Steps)/I Prefer The Sky (Rodd Steps).sm;
#HASMUSIC:1;
#HASBANNER:1;
#MUSICLENGTH:112.848;
// end cache tags

//---------------dance-single - R. Farias----------------
#NOTES:
     dance-single:
     R. Farias:
     Challenge:
     10:
     0.830,0.907,0.124,0.257,0.762,613.000,14.000,29.000,48.000,0.000:

M000
000M
00M0
M000
,
00M0
0000
0000
0000
,
0M00
000M
M000
00M0
,
0M00
0000
0000
0000
,
0001
0000
0100
0000
0010
0000
1000
0001
1000
0000
0100
0000
0010
0000
0001
0010
,
0001
0000
0100
0000
0010
0000
1000
0100
0010
0000
0001
0000
0100
0000
0010
1000
,
0001
0000
1000
0000
0100
0000
0010
0001
1000
0000
0001
0000
0100
0000
0010
1000
,
0010
0000
0000
0000
0100
0000
0000
0000
0001
0000
0000
0000
1000
0000
0100
0000
0010
0000
0000
0000
0001
0000
0000
0000
1000
0000
0000
0000
2002
0000
0000
0003
,
30M1
0000
00M1
0M00
01M0
0M00
01M0
M000
,
001M
0000
0M1M
M000
1M00
0000
1M0M
0000
,
01M0
1000
0100
1000
0100
0010
0001
0010
,
0001
0100
0010
1000
0001
1000
0100
0010
0001
0000
0100
0000
0101
0000
0000
0000
,
0100
0000
0010
0000
1000
0000
0001
1000
0100
0000
0010
0000
0001
0100
0010
0000
,
0100
0001
1000
0000
0100
0000
0010
0001
0010
0000
0001
0000
0100
0010
1000
0000
,
0001
1000
0001
0000
1000
0000
0100
0010
0001
0000
0100
0000
0010
1000
0001
0000
,
1000
0100
0010
0000
0001
0000
0100
0000
1000
0000
0100
0000
0001
0000
1000
0000
,
0100
0010
0001
0000
0100
0000
0010
1000
0010
0000
1000
0000
0100
0000
0010
0000
,
0001
0010
0001
0000
0100
0000
0010
1000
0001
0000
1000
0000
0100
0000
0010
0000
,
0100
0010
0100
0000
0010
0000
0001
0100
0010
0000
1000
0000
0001
1000
0001
0000
,
1000
0100
0010
0000
0001
0000
0100
0010
2000
0000
0000
0000
3100
0000
0010
0000
,
0001
0100
0010
0000
1000
0000
0001
0100
0010
0000
1000
0000
0001
0000
1000
0000
,
0100
0010
0001
0000
1000
0000
0100
0010
0001
0000
0100
0000
0010
0000
1000
0000
,
0001
1000
0001
0000
1000
0000
0100
1000
0100
0010
0001
0000
0100
0010
1000
0000
,
0001
1000
0100
0010
0100
0000
0010
0001
2000
0000
0000
0000
3001
0000
0100
0000
,
0010
1000
0010
1000
0010
0000
1000
0001
1000
0001
1000
0000
0100
0010
0000
0001
,
0100
0010
1000
0001
1000
0000
0100
0010
0001
0100
0010
0000
0100
0001
0000
0001
,
1000
0100
0010
0100
1000
0000
0001
0100
0010
1000
0001
0000
1000
0000
0100
0000
,
0010
0001
0010
0001
0100
0001
0100
0010
1000
0010
1000
0000
1010
0000
0000
0000
,
1000
0100
0010
0000
0001
0000
0100
0000
0010
0000
2000
0000
0000
0000
3100
0000
,
0010
0000
0100
0000
1000
0001
0100
0000
0010
0000
1000
0001
1000
0000
0100
0000
,
0010
0001
0010
0000
0001
0000
0100
0000
0010
0000
1000
0000
0100
0000
0010
0001
,
1000
0000
0001
0000
0100
0010
1000
0000
0001
0000
1000
0100
0010
0000
0001
0000
,
0100
0010
1000
0000
0001
0000
1000
0000
0100
0000
0010
0000
0100
0000
0010
0000
,
0001
0000
0100
0000
0010
1000
0001
0000
1000
0000
0010
0100
0001
0000
1000
0000
,
0100
1000
0100
0000
0010
0000
0001
0000
0100
0000
1000
0000
0100
0000
0010
1000
,
0001
0000
1000
0000
0100
0010
0001
0000
0100
0000
0010
0000
0100
0000
0001
0000
,
1000
0100
0010
0000
0011
0000
0001
0000
0100
0010
1000
0000
1001
0000
1000
0000
,
0100
0010
0100
0000
0110
0000
0010
0000
0001
0100
0010
0000
1010
0000
1000
0000
,
0001
1000
0001
0000
1001
0000
1000
0000
0100
0010
0001
0000
0101
0000
0010
0000
,
1000
0010
1000
0000
1100
0000
0100
0000
0010
0001
1000
0000
0101
0000
0100
0000
,
0010
1000
0001
0000
1000
0000
0100
0000
0001
0000
0100
0000
0010
0000
0001
0100
,
0010
0000
1000
0000
0001
0100
0010
0000
1000
0000
0100
1000
0100
0000
0010
0000
,
0001
0100
0001
0000
0100
0000
0010
0000
1000
0000
0100
0000
0010
0000
0001
0000
,
0100
0001
0100
0001
0100
0010
1000
0010
1000
0001
1000
0001
2000
0000
3000
0000
,
00M1
0000
M100
0000
001M
2000
0M00
3002
00M0
0003
1M00
0000
010M
0020
M000
0230
,
000M
0300
0010
0000
M001
02M0
0000
0320
000M
0030
1000
0000
0M01
2000
0000
32M0
,
0000
030M
0000
0010
M002
0000
0103
20M0
0000
3002
0M00
0023
0000
2030
0000
320M
,
0000
0320
0000
M002
0030
0203
M000
0320
000M
2030
0000
3001
0100
00M0
0202
0303
,
1010
0000
1000
0100
0010
0001
0100
0000
0010
1000
0001
1000
0100
0000
0010
0001
,
0100
0000
0010
1000
0001
1000
0100
0000
0010
0001
0010
0000
0001
0100
0001
0000
,
0100
0010
1000
0001
1000
0000
0100
0010
0001
0100
0010
0000
1000
0000
0001
0000
,
1000
0100
0010
0000
0001
0000
0100
0010
1000
0000
0001
0000
1000
0001
1000
0000
,
0001
1000
0001
0000
1000
0000
0100
0010
0001
0100
0010
0000
0100
0000
0001
1000
,
0100
0000
0010
0000
0001
0100
0010
1000
0001
1000
0100
0000
0010
0001
0010
0001
,
0010
0000
0001
0000
0100
0000
0010
1000
0001
0000
1000
0100
0010
0000
0001
0100
,
0010
1000
0001
1000
0100
0010
0001
0100
0010
1000
0001
1000
0200
0000
0300
0000
,
0011
0000
0001
0100
0001
0000
0100
0000
0010
1000
0010
0000
1000
0000
0100
0000
,
0010
0000
0001
0100
0001
0000
0100
0000
0010
1000
0010
0000
1000
0000
0001
0000
,
1000
0000
0100
0010
0001
0000
0100
0000
0010
1000
0001
0000
1000
0000
0100
0000
,
0010
0001
0010
0000
0001
0000
0100
0010
1000
0000
0001
0000
1000
0100
0010
0000
,
0001
0100
0010
0000
1000
0000
0100
0010
0001
0000
0100
0000
0010
1000
0010
0000
,
1000
0001
1000
0000
0100
0000
0010
0001
0010
0000
0001
0000
0100
0010
1000
0000
,
0001
1000
0001
0000
1000
0000
0100
0010
0100
0000
0010
0000
0001
0010
0001
0000
,
0100
0001
0100
0000
0010
1000
0001
1000
0001
1000
0001
1000
0002
0000
0000
0000
,
0003
0000
0000
0000
;
