#TITLE:Super Sonic Massive Cheap;
#SUBTITLE:;
#ARTIST:Hommarju;
#TITLETRANSLIT:;
#SUBTITLETRANSLIT:;
#ARTISTTRANSLIT:;
#CREDIT:owenviau1;
#BANNER:../Banner.png;
#BACKGROUND:../BG.PNG;
#LYRICSPATH:;
#CDTITLE:../CdTitleOV1.png;
#MUSIC:Super Sonic Massive Cheap.ogg;
#OFFSET:-1.240;
#SAMPLESTART:135.641;
#SAMPLELENGTH:29.999;
#SELECTABLE:YES;
#BPMS:0.000=200.000;
#STOPS:;
#BGCHANGES:;
// cache tags:
#FIRSTBEAT:0.000;
#LASTBEAT:703.500;
#SONGFILENAME:Songs/Index Fusion - Part 2/Super Sonic Massive Cheap - [owen71]/Super Sonic Massive Cheap.sm;
#HASMUSIC:1;
#HASBANNER:1;
#MUSICLENGTH:218.671;
// end cache tags

//---------------dance-single - owenviau1----------------
#NOTES:
     dance-single:
     owenviau1:
     Challenge:
     17:
     1.000,1.000,0.155,0.489,1.000,2232.000,34.000,107.000,5.000,0.000:

1000
0000
0100
0010
0001
0000
1000
0000
0010
0000
0100
0001
1000
0000
0100
0000
,
0010
0000
0001
1000
0001
0000
0100
0000
0010
0000
1000
0001
0100
0000
0010
0000
,
1000
0000
0100
0010
0001
0000
1000
0000
0001
0000
0100
0010
0100
0000
0001
0000
,
1000
0000
0100
0010
0001
0000
1000
0000
0010
0000
0100
0001
2000
0000
3200
0300
,
0010
0000
0001
1000
0001
0000
0100
0000
0010
0000
1000
0100
1000
0000
0001
0000
,
0100
0000
0010
1000
0001
0000
0010
0000
0100
0000
1000
0010
0100
0000
0001
0000
,
1000
0000
0100
0010
0001
0000
1000
0000
0010
0000
0100
0001
1000
0000
0100
0000
,
0010
0000
0001
1000
0001
0000
0010
0000
0200
0000
2300
3001
2000
0000
3020
0030
,
0100
0000
0001
0010
0100
0000
1000
0010
0100
0000
0001
1000
0001
0000
0010
0100
,
1000
0000
0010
0100
0001
0000
1000
0010
1000
0000
0100
0010
0001
0000
1000
0010
,
1000
0000
0001
0100
0001
0000
0010
0100
1000
0000
0001
0100
0010
0000
1000
0100
,
1000
0000
0001
0100
0010
0000
1000
0001
1000
0000
0100
0010
0002
0000
2003
3010
,
1000
0000
0001
0100
0001
0000
0010
0100
1000
0000
0010
0100
0010
0000
1000
0001
,
0100
0000
0010
1000
0001
0000
0010
0100
1000
0000
0100
0010
0001
0000
1000
0010
,
0100
0000
0001
0100
0010
0000
1000
0001
1000
0000
0100
0010
0001
0000
1000
0010
,
0400
0000
00M0
M000
000M
0000
M000
00M0
0302
0000
2003
3000
0200
0000
0320
0030
,
0001
0000
1000
0010
0100
0000
0001
1000
0001
0010
0100
0000
1000
0010
1000
0001
,
0100
0000
0010
0100
0001
0000
1000
0010
0100
0001
0100
0000
0010
1000
0010
0100
,
0001
0000
0010
0100
1000
0000
0010
0100
0001
0100
0010
0000
1000
0001
1000
0100
,
0010
0000
0001
1000
0001
0000
0010
0100
1000
0001
1000
0000
0010
0100
0010
1000
,
0001
0000
0010
0100
1000
0000
0001
0100
0010
0100
0001
0000
1000
0100
1000
0010
,
0100
0000
0001
1000
0001
0000
0010
0100
1000
0001
1000
0000
0010
0100
0010
1000
,
0001
0000
0010
0100
1000
0000
0010
0100
0001
1000
0001
0000
0100
0010
0100
0001
,
2000
0000
3200
0000
0320
0000
0030
0000
0002
0000
2003
0000
3002
0000
0003
0000
0020
0000
0230
0000
2300
0000
3000
0000
0002
0003
0200
0300
0002
0003
0200
0300
,
0010
0000
1000
0001
1000
0000
0100
0010
0001
1000
0010
0000
0100
0001
0100
0010
,
1000
0000
0001
0010
0100
0000
1000
0010
1000
0001
0100
0000
0010
1000
0001
0010
,
0001
0000
0100
0010
1000
0000
0010
0100
0001
1000
0001
0000
0100
0010
1000
0001
,
0100
0000
0010
1000
0010
0000
0100
0001
1000
0100
0010
0000
0001
0100
0001
1000
,
0010
0100
0001
1000
0001
0010
0100
1000
,
0001
0100
0001
1000
0100
0010
0001
1000
,
0001
0400
0300
0400
0300
0400
0300
0400
,
0320
0030
0000
0000
2000
0000
3000
0000
0002
0003
0010
0100
2000
0000
3000
0000
,
0001
0100
0010
1000
0010
0100
0001
1000
0100
1000
0010
0100
0001
1000
0001
0010
,
0100
1000
0001
0010
0001
0100
0010
0100
0001
1000
0010
1000
0100
0010
0001
1000
,
0100
1000
0001
0100
0010
1000
0010
0100
0001
1000
0001
0010
0100
1000
0001
0010
,
0001
0100
0010
1000
0010
0100
0001
1000
0001
0100
0010
0100
0001
1000
0100
1000
,
0010
0100
0001
1000
0100
1000
0001
0010
0100
1000
0001
0010
0001
0100
0010
1000
,
0010
0100
0001
1000
0001
0100
0010
0100
0001
1000
0010
1000
0100
0010
0001
1000
,
0100
1000
0001
0100
0010
0100
0001
1000
0100
0010
0100
1000
0001
0100
0010
0100
,
0001
0000
1000
0000
0001
0000
0010
0000
0100
0000
1000
0000
0001
0000
0100
0000
0020
0000
0030
0000
2000
0000
3000
0000
0002
0003
0200
0300
0002
0003
0200
0300
,
0001
1000
0010
0100
0010
1000
0001
0100
0001
0010
0100
1000
0001
0010
0001
0100
,
0010
1000
0010
0100
0001
1000
0100
1000
0010
0100
0001
1000
0001
0100
0010
0100
,
0001
1000
0010
1000
0100
0010
0001
1000
0100
1000
0001
0100
0010
0100
0001
1000
,
0010
1000
0100
0010
0001
1000
0001
0100
0010
0100
0001
1000
0100
0010
0100
1000
,
0001
0010
0001
1000
0010
1000
0001
0100
0010
0100
0001
1000
0100
0010
0001
1000
,
0010
0100
0001
1000
0001
0100
0010
0100
0001
1000
0100
1000
0010
0100
0001
1000
,
0001
0010
0100
1000
0001
0010
0001
0100
0010
1000
0010
0100
0001
1000
0100
0010
,
0001
0000
1000
0000
0010
0000
0100
0001
0100
0000
0010
0000
1000
0001
1000
0001
,
1000
0000
0100
0010
0001
0000
1000
0000
0010
0000
0100
0001
1000
0000
0100
0000
,
0010
0000
0001
1000
0010
0000
0100
0000
0001
0000
1000
0010
1000
0000
0100
0000
,
0010
0000
0001
1000
0001
0000
0100
0000
0010
0000
1000
0001
0010
0000
0100
0000
,
1000
0000
0001
1000
0010
0000
0100
0000
0001
0000
1000
0100
1000
0000
0010
0000
,
0100
0000
0001
1000
0001
0000
0010
0000
0100
0000
1000
0010
0100
0000
0001
0000
,
1000
0000
0001
0010
0100
0000
1000
0000
0001
0000
0100
0010
1000
0000
0001
0000
,
1000
0000
0100
0010
0001
0000
1000
0000
0010
0000
0100
0001
0100
0000
0010
0000
,
2000
3000
0200
0300
0020
0030
0002
0003
2000
3000
0020
0030
2000
3000
0020
0030
,
1000
0000
0001
0100
0001
0000
1000
0000
0010
0000
0100
0001
1000
0000
0100
0000
,
0010
0000
0001
1000
0001
0000
0010
0000
0100
0000
1000
0010
0100
0000
0010
0000
,
1000
0000
0001
0100
0001
0000
0010
0000
0100
0000
1000
0010
1000
0000
0001
0000
,
0100
0000
0010
1000
0010
0000
0100
0000
0001
0000
1000
0100
1000
0000
0001
0000
,
0010
0000
0100
1000
0001
0000
0100
0000
0010
0000
1000
0001
1000
0000
0100
0000
,
0010
0000
0001
0100
0010
0000
1000
0000
0001
0000
0010
0100
1000
0000
0001
0000
,
0100
0000
0010
1000
0001
0000
0100
0000
0010
0000
1000
0100
1000
0000
0001
0000
,
2000
3000
0000
0000
0100
0000
0000
0000
0020
0030
0000
0000
0001
0000
0000
0000
0200
0300
0000
0000
0010
0000
0000
0000
0400
0300
0000
0000
0010
0000
0000
0000
,
1000
0001
1000
0100
0010
0001
0100
0010
1000
0010
0100
0001
1000
0001
0010
0100
,
1000
0001
0010
0001
0100
0010
0100
0001
1000
0010
0100
0001
1000
0100
1000
0001
,
0010
0100
1000
0001
0100
0010
1000
0010
0100
0001
1000
0001
0100
0010
0100
0001
,
1000
0100
0010
0001
1000
0100
1000
0001
0100
0010
1000
0010
0100
0001
0100
0010
,
1000
0001
1000
0100
0010
0001
1000
0100
0010
0100
1000
0001
0010
0100
1000
0001
,
0100
0010
0100
0001
1000
0010
1000
0100
0010
0001
1000
0100
1000
0001
0100
0010
,
1000
0010
0100
0001
1000
0001
0100
0010
0100
0001
1000
0100
1000
0001
0010
0100
,
1000
0001
0100
0010
0100
0001
1000
0010
1000
0100
0010
0001
1000
0001
0100
0010
,
0100
0001
1000
0010
1000
0001
0100
0001
1000
0100
0010
0001
1000
0100
1000
0001
,
0100
0010
1000
0001
0100
0010
0100
0001
1000
0001
0010
0100
1000
0001
0010
0001
,
0100
0010
0100
0001
1000
0010
1000
0100
0010
0001
1000
0100
1000
0001
0100
0010
,
0100
0001
1000
0100
0010
0001
1000
0100
1000
0001
0100
0010
0100
0001
1000
0010
,
1000
0001
0100
0010
1000
0001
1000
0100
0010
0001
0100
0010
1000
0010
0100
0001
,
1000
0001
0010
0100
1000
0001
0100
0001
1000
0010
0100
0001
0010
0001
0100
0010
,
2000
0000
3001
0000
0200
0000
0302
0000
0013
0000
0200
0300
1000
0000
0001
0000
,
2000
3000
0020
0030
0200
0300
0002
0003
1000
0000
0100
0000
0020
0030
0001
0000
,
1000
0100
0010
0001
0100
0010
1000
0010
0100
0001
1000
0001
0010
0100
1000
0001
,
0100
0010
0100
0001
1000
0010
1000
0100
0010
0001
1000
0100
1000
0001
0100
0010
,
0100
0001
1000
0001
0010
0100
1000
0001
0100
0010
1000
0001
0100
0001
0010
0100
,
1000
0001
0010
0001
0100
0010
1000
0001
0100
0010
0100
0001
1000
0100
1000
0010
,
0100
0001
1000
0001
0100
0010
0100
0001
1000
0100
0010
0001
1000
0100
1000
0001
,
0010
0001
0100
0010
0100
0001
1000
0010
1000
0001
0100
0010
0100
0001
1000
0010
,
1000
0100
0010
0001
1000
0100
1000
0001
0010
0100
1000
0001
0010
0001
1000
0010
,
0200
0301
2000
3001
0200
0310
0200
0301
2000
3100
0020
0031
0100
0010
0100
0010
,
1000
0001
0100
0001
1000
0100
0010
0001
0100
0010
0100
0001
1000
0010
1000
0001
,
0100
0001
0010
0100
1000
0001
0010
0001
0100
0010
0100
0001
1000
0010
1000
0100
,
0010
0001
1000
0100
1000
0001
0100
0010
0100
0001
1000
0010
1000
0100
0010
0001
,
1000
0100
1000
0001
0100
0010
0100
0001
1000
0010
1000
0100
0010
0001
1000
0001
,
0100
0010
0100
0001
0010
0001
1000
0100
1000
0010
0100
0001
1000
0001
0100
0010
,
0100
0001
1000
0010
1000
0100
0010
0001
1000
0001
0100
0010
1000
0010
0100
0001
,
2000
3010
0200
0302
0203
0320
2030
3002
,
2003
3100
0020
0032
1003
0010
0100
0001
,
1001
0000
0000
1100
0000
0000
0110
0000
0000
0011
0000
0000
1000
0000
0010
0000
,
0110
0000
0000
0101
0000
0000
1001
0000
0000
1100
0000
0000
0100
0000
0010
0000
,
0011
0000
0000
1001
0000
0000
1010
0000
0000
0110
0000
0000
0001
0000
1000
0000
,
1100
0000
0000
0110
0000
0000
0011
0000
0000
1001
0000
0000
0010
0000
0100
0000
,
0101
0000
0000
0110
0000
0000
1010
0000
0000
1001
0000
0000
1000
0000
0100
0000
,
0110
0000
0000
0011
0000
0000
1001
0000
0000
1010
0000
0000
0010
0000
0100
0000
,
0101
0000
0000
1001
0000
0000
1100
0000
0000
0110
0000
0000
0001
0000
1000
0000
,
1001
0000
0000
0110
0000
0000
1001
0000
0000
0110
0000
0000
1000
0000
0010
0000
,
0100
0001
0000
1000
0010
0000
0100
0010
0000
0100
0001
0000
1000
0000
0100
0000
,
0010
0001
0000
1000
0010
0000
0100
0010
0000
0100
0001
0000
1000
0000
0010
0000
,
0100
0001
0000
1000
0010
0000
0100
0010
0000
1000
0001
0000
0010
0000
0100
0000
,
1000
0010
0000
1000
0001
0000
0100
0010
0000
1000
0010
0000
0100
0000
0001
0000
,
1000
0000
0010
0100
0001
0000
1000
0000
0010
0000
0100
0001
1000
0000
0100
0000
,
0010
0000
0001
1000
0001
0000
0100
0000
0010
0000
1000
0100
1000
0000
0001
0000
,
0010
0000
0100
1000
0001
0000
0100
0000
0010
0000
1000
0001
1000
0000
0100
0000
,
0020
0030
0000
0001
2000
3000
0100
0000
0020
0030
0001
1000
0040
0030
0100
0000
,
0001
0100
0010
1000
0010
0000
0100
0001
1000
0010
1000
0000
0001
0100
0001
0000
,
1000
0100
0010
0001
1000
0000
0010
0100
0010
1000
0001
0000
0100
0010
0100
0000
,
0001
1000
0010
0100
0010
0000
1000
0001
1000
0100
0010
0000
0001
0100
0001
0000
,
1000
0010
0100
0001
0100
0000
0010
1000
0001
0010
0100
0000
1000
0010
1000
0000
,
0001
0100
0010
1000
0010
0000
0100
0001
1000
0001
0010
0000
0100
1000
0100
0000
,
0010
0000
0001
0100
0001
0000
1000
0000
0010
0000
0100
0001
1000
0000
0100
0000
,
0010
0000
0001
1000
0010
0000
0100
0000
0001
0000
1000
0100
1000
0000
0010
0000
,
0100
0000
0001
1000
0001
0000
0010
0000
0100
0000
1000
0010
1000
0000
0100
0000
,
0010
0000
0001
1000
0010
0000
0100
0000
0001
0000
1000
0100
0010
0000
0001
0000
,
1000
0000
0010
0100
0010
0000
1000
0000
0001
0000
0010
0100
1000
0000
0001
0000
,
0100
0000
0010
1000
0010
0000
0100
0000
0001
0000
1000
0100
0010
0000
0001
0000
,
1000
0000
0010
0100
0010
0000
1000
0000
0001
0000
0010
0100
1000
0000
0001
0000
,
0100
0000
0010
1000
0001
0000
0010
0000
0100
0000
1000
0010
1000
0000
0001
0000
,
0100
0000
0010
1000
0010
0000
0100
0000
0001
0000
1000
0100
0010
0000
0001
0000
,
1000
0100
0010
0001
1000
0010
0100
0001
0100
0010
1000
0001
1000
0100
0010
0001
,
2000
3000
0000
0000
0020
0000
0030
0000
0200
0300
0001
1000
0020
0000
0030
0000
,
1000
0100
0010
0001
1000
0001
0100
0010
1000
0001
0010
0001
0100
0010
1000
0010
,
0100
0001
1000
0001
0010
0100
1000
0001
0010
0001
0100
0010
0100
0001
1000
0100
,
0010
0001
1000
0100
1000
0001
0100
0010
0100
0001
1000
0010
1000
0100
0010
0001
,
1000
0100
0010
0100
1000
0001
0100
0010
1000
0001
0100
0001
0010
0100
1000
0001
,
0010
0001
1000
0010
0100
0010
1000
0001
0100
0001
0010
0100
1000
0001
0010
0001
,
0100
0010
1000
0010
0100
0001
1000
0100
1000
0001
0100
0010
0100
0001
1000
0001
,
0010
0100
1000
0001
0100
0001
1000
0010
0100
0001
0100
0010
1000
0001
1000
0100
,
0010
0000
0001
0000
1000
0000
0100
0000
1000
0000
0001
0000
0100
0000
0010
0000
0200
0000
0300
0000
0002
0000
0003
0000
2000
3000
0020
0030
2000
3000
0020
0030
,
1000
0001
0100
0001
0010
0100
1000
0010
1000
0001
0100
0010
0100
0001
1000
0100
,
0010
0001
1000
0100
1000
0001
0100
0010
0100
0001
1000
0100
0010
0001
1000
0100
,
1000
0001
0100
0010
0100
0001
1000
0010
1000
0100
0010
0001
1000
0100
1000
0001
,
0100
0010
0100
0001
1000
0001
0010
0100
1000
0001
0010
0001
0100
0010
1000
0010
,
0100
0001
1000
0001
0100
0010
0100
0001
1000
0010
1000
0100
0010
0001
1000
0010
,
0100
0010
1000
0001
0100
0001
0010
0100
1000
0001
0010
0001
0100
0010
1000
0010
,
0100
0001
1000
0100
0010
0001
1000
0100
1000
0001
0100
0010
0100
0001
1000
0010
,
1000
0001
0100
0001
0010
0100
1000
0001
1000
0010
0100
0001
0100
0000
0010
0000
,
1000
0001
0100
0010
0100
0001
1000
0010
1000
0100
0010
0001
1000
0100
1000
0001
,
0100
0010
0100
0001
1000
0010
1000
0001
0010
0100
1000
0001
0010
0001
0100
0010
,
0100
0001
1000
0100
0010
0001
1000
0100
1000
0010
0100
0001
0100
0010
1000
0001
,
1000
0100
0010
0001
1000
0010
0100
0010
1000
0001
0100
0001
0010
0100
1000
0001
,
0010
0001
0100
0010
0100
0001
1000
0100
0010
0001
1000
0100
1000
0001
0100
0010
,
0100
0001
1000
0010
1000
0100
0010
0001
1000
0010
0100
0001
0100
0010
1000
0001
,
1000
0100
0010
0001
1000
0100
1000
0001
0010
0001
0100
0010
0100
0001
1000
0010
,
0100
0000
0001
0000
1000
0000
0100
0000
0010
0000
0001
0000
1000
0000
0001
0000
0200
0000
0300
0000
0020
0000
0030
0000
2000
3000
0002
0000
2003
3000
0002
0000
,
0103
0010
0100
0001
1000
0010
1000
0100
0010
0001
1000
0100
1000
0001
0100
0010
,
0100
0001
1000
0100
0010
0001
1000
0100
1000
0001
0100
0010
1000
0010
0100
0001
,
1000
0001
0010
0100
1000
0001
0010
0001
0100
0010
0100
0001
1000
0100
0010
0001
,
1000
0100
1000
0001
0100
0010
1000
0001
1000
0100
0010
0001
1000
0100
1000
0001
,
0010
0001
0100
0010
1000
0010
0100
0001
1000
0001
0100
0010
0100
0001
1000
0100
,
0010
0001
1000
0100
1000
0001
0100
0010
0100
0001
1000
0010
0100
0001
0100
0010
,
1000
0001
1000
0100
0010
0001
1000
0001
0010
0100
1000
0001
0010
0001
0100
0010
,
1000
0000
0001
0000
0010
0000
0001
0000
0100
0000
0010
1000
0010
0000
0100
0000
,
0001
0000
1000
0010
0100
0000
0001
1000
0001
0010
0100
0000
1000
0010
1000
0001
,
0100
0000
0010
0100
0001
0000
1000
0010
0100
0001
0100
0000
0010
1000
0010
0100
,
0001
0000
0010
0100
1000
0000
0010
0100
0001
0100
0010
0000
1000
0001
1000
0100
,
0010
0000
0001
1000
0001
0000
0010
0100
1000
0001
1000
0000
0010
0100
0010
1000
,
0001
0000
0010
0100
1000
0000
0001
0100
0010
0100
0001
0000
1000
0100
1000
0010
,
0100
0000
0001
1000
0001
0000
0010
0100
1000
0001
1000
0000
0010
0100
0010
1000
,
0001
0000
0010
0100
1000
0000
0010
0100
0001
1000
0001
0000
0100
0010
0100
0001
,
2000
0000
3200
0000
0320
0000
0030
0000
0002
0000
2003
0000
3002
0000
0003
0000
0020
0000
0230
0000
2300
0000
3000
0000
0002
0003
0200
0300
0002
0003
0200
0300
,
0010
0000
1000
0001
1000
0000
0100
0010
0001
1000
0010
0000
0100
0001
0100
0010
,
1000
0000
0001
0010
0100
0000
1000
0010
1000
0001
0100
0000
0010
1000
0001
0010
,
0001
0000
0100
0010
1000
0000
0010
0100
0001
1000
0001
0000
0100
0010
1000
0001
,
0100
0000
0010
1000
0010
0000
0100
0001
1000
0100
0010
0000
0001
0100
0001
1000
,
0010
0000
1000
0010
0100
0000
0001
1000
0001
0010
0100
0000
1000
0010
1000
0001
,
0100
0000
0010
0100
0001
0000
1000
0010
0100
0001
0100
0000
0010
1000
0010
0100
,
0001
0000
0010
0100
1000
0000
0010
0100
0001
0100
0010
0000
1000
0001
1000
0100
,
0020
0030
0000
0000
0002
0000
0003
0000
2000
3000
0000
0000
0020
0000
0030
0000
;
