#TITLE:FUNKTION;
#SUBTITLE:;
#ARTIST:ULTRAdoof;
#TITLETRANSLIT:;
#SUBTITLETRANSLIT:;
#ARTISTTRANSLIT:;
#CREDIT:;
#BANNER:FUNKTION_bn.png;
#BACKGROUND:FUNKTION_bg.png;
#LYRICSPATH:;
#CDTITLE:ducky.png;
#MUSIC:17. FUNKTION.mp3;
#OFFSET:-0.420;
#SAMPLESTART:75.013;
#SAMPLELENGTH:12.000;
#SELECTABLE:YES;
#BPMS:0.000=133.000;
#STOPS:;
#BGCHANGES:;
// cache tags:
#FIRSTBEAT:0.000;
#LASTBEAT:260.000;
#SONGFILENAME:Songs/Fabulously Fresh Flock of Fantastic Files F5/(Ducky) FUNKTION/FUNKTION.sm;
#HASMUSIC:1;
#HASBANNER:1;
#MUSICLENGTH:120.946;
// end cache tags

//---------------dance-single - Copied from----------------
#NOTES:
     dance-single:
     Copied from:
     Hard:
     11:
     0.989,0.941,1.000,0.033,1.000,677.000,156.000,4.000,0.000,0.000:
1000
0100
0100
0010
0001
0001
0100
1000
1000
0100
0010
0010
1000
0100
0100
0010
,
1001
0000
0100
0000
0011
1000
0000
0000
1000
0000
0100
0011
0000
1100
0000
0000
,
0011
0000
0100
0000
1001
0100
0000
1001
0010
1000
0100
0000
1001
0100
0000
0000
,
1010
0000
0100
0000
0011
1000
0000
0001
0100
0000
0010
1001
0000
1100
0000
0000
,
0011
0000
1001
0100
0010
1000
0101
1000
0010
0100
0000
1010
0000
0101
0000
0000
,
1010
0000
0001
0000
1000
0100
1000
0000
0011
0000
0100
0010
0001
0100
1000
0000
,
0101
0000
0010
0000
1000
0100
0001
0000
1100
0000
0010
0001
0100
0010
0001
0000
,
1100
0000
0010
0000
1000
0001
0100
0000
1001
0000
0010
0001
0100
0010
1000
0000
,
0101
0000
1010
0001
1000
0010
1001
0100
1000
0001
0000
1010
0000
0101
0000
0000
,
1100
0000
0000
0100
0011
0000
0110
0000
1100
0000
0000
1000
0101
0010
1000
0000
,
0101
0000
0000
0010
1001
0000
1100
0000
0110
0000
0000
0001
1010
0100
0010
0000
,
1001
0000
0000
0100
0011
0000
1100
0000
0110
0000
0000
0001
1010
0100
0001
0000
,
1000
0100
0100
0001
1000
1000
0010
0001
0001
0100
0010
0010
1000
0100
0100
0010
,
1001
0000
0000
1000
0100
0000
0000
0010
0001
0000
1000
0100
0000
0010
1000
0000
,
0101
0000
0000
0010
0001
0000
0000
0100
1000
0000
0001
0010
0000
1000
0001
0000
,
0110
0000
0000
0001
0001
0000
0000
1000
1000
0000
0100
0100
0000
0010
0010
0000
,
0101
0000
0001
1000
0100
0000
0010
0000
0100
0010
1000
0101
0000
1010
0000
0000
,
1001
0000
0000
0100
1001
0000
1000
0010
0100
0001
0010
1000
0000
0110
0001
0000
,
1001
0000
0000
0100
1010
0000
0001
1000
0010
0001
0010
1000
0000
0011
0100
0000
,
1010
0000
0000
0001
1100
0000
0010
0001
0100
0010
1000
0100
0000
1001
0100
0000
,
1010
0000
1001
0100
0010
0001
1100
0010
0001
1000
0000
0011
0000
1001
0000
0000
,
1100
0000
0000
0010
1001
0000
0100
0010
0001
0001
0010
0010
0100
0100
1000
0000
,
1001
0000
0000
0010
1001
0000
0100
0010
0001
0000
1000
0100
0000
0010
1001
0000
,
1100
0000
0000
1000
0101
0000
0010
0010
1000
1000
0100
0100
0001
0001
0100
0000
,
1010
0000
0000
0000
1010
0000
0101
0001
1000
1000
0100
0110
0000
1001
0000
0000
,
1000
0100
0010
0000
0100
0010
0001
0000
1000
0010
0100
0000
0010
0100
0001
0000
,
1000
0001
0100
0000
0001
0100
0010
0000
1000
0010
0100
0000
0010
0100
1000
0000
,
0100
0001
0010
0000
0001
0010
1000
0000
0010
0001
0100
0000
0001
0100
0010
0000
,
1000
0100
1000
0000
0001
0100
0001
0000
0010
1000
0100
0000
0010
0001
0100
0000
,
1001
0000
1100
0000
0011
0000
0000
0010
0110
0000
1001
0000
0000
0000
0000
0000
,
1100
0000
0110
0000
0011
0000
0000
0100
1010
0000
0000
0000
0000
0000
0000
0000
,
1100
0000
0110
0000
1001
0000
0000
0010
0110
0000
0011
0000
1100
0000
0000
0010
,
1002
0000
1000
0000
1000
0000
1000
0003
,
1000
1000
0100
0100
0010
0010
0001
0001
,
0100
0100
1000
1000
0100
0100
0001
0001
,
0010
0010
0100
0100
0001
0001
0100
0100
,
0010
0010
0001
0001
0100
0100
1000
1000
,
0100
0000
0001
0000
0010
0000
0001
0000
0100
0000
0010
0000
1000
0000
0100
0000
1000
0000
0100
0000
0010
0000
0001
0000
1000
0000
0100
0010
0001
0000
1000
0000
,
0100
0000
0010
0000
0100
0000
1000
0000
0100
0000
0010
0000
0001
0000
0010
0000
0100
0000
1000
0000
0010
0000
0100
0000
0001
0000
0010
0100
1000
0000
0001
0000
,
0100
0000
0010
0000
1000
0000
0100
0000
0010
0000
0001
0000
1000
0000
0001
0000
0010
0000
0100
0000
0010
0000
0001
0000
1000
0000
0001
0100
0010
0000
1000
0000
,
0100
0000
0001
0000
0100
0000
1000
0000
0010
0000
0100
0010
1000
0000
0100
0000
0010
0000
1000
0000
0010
0000
0001
0000
0110
0000
0000
0000
0000
0000
0000
0000
,
1001
0000
0100
0000
0011
0000
1000
0100
0000
0010
0000
0001
1000
0000
0100
0000
,
0000
0010
1000
0000
0100
0000
0010
0001
0000
1000
0100
0010
1001
0000
1100
0000
,
0011
0100
0000
0000
1001
0000
0100
0010
0000
0001
0000
0100
1000
0000
0011
0000
,
0000
1100
0010
0000
1001
0000
0011
1000
0000
0010
0001
0010
1100
0000
0011
0000
,
0000
1000
0100
0000
0001
0000
0100
1001
0000
0010
0000
1000
0101
0000
1010
0000
,
0000
0001
0110
0000
1100
0000
0100
0011
0000
1000
0100
0010
0001
0000
1100
0000
,
0011
0100
0000
0000
1001
0000
0100
0010
0000
1001
0000
0100
0010
1001
0000
0010
,
0100
0000
0000
0000
0000
0000
0000
0000
0000
0000
0000
0000
1001
0000
0000
0000
0000
0000
0000
0000
0000
0000
0000
0000
0000
0000
0000
0000
0000
0000
0000
0000
0000
0000
0000
0000
0010
0000
0000
0000
0000
0000
0100
0000
0000
0000
0000
0000
0010
0000
0000
0000
0000
0000
0000
0000
0000
0000
0000
0000
1001
0000
0000
0000
0000
0000
0000
0000
0000
0000
0000
0000
0000
0000
0000
0000
0000
0000
0000
0000
0000
0000
0000
0000
1000
0000
0000
0000
0000
0000
0001
0000
0000
0000
0000
0000
1000
0000
0000
0000
0000
0000
0000
0000
0000
0000
0000
0000
0010
0000
0000
0000
0000
0000
0000
0000
0100
0000
0000
0000
0010
0000
0000
0000
0000
0000
0000
0000
0000
0000
0000
0000
0100
0000
0000
0000
0000
0000
0000
0000
0010
0000
0000
0000
0100
0000
0000
0000
0000
0000
0000
0000
0000
0000
0000
0000
0010
0000
0000
0000
0000
0000
0000
0000
0000
0000
0000
0000
0100
0000
0000
0000
0000
0000
0010
0000
0000
0000
0000
0000
0100
0000
0000
0000
0000
0000
0010
0000
0000
0000
0000
0000
,
0100
0000
0010
1001
0000
1100
0000
0011
0000
0000
1000
0001
0000
0001
0000
0000
,
0001
0000
0000
0000
0100
0000
0000
0000
1000
0000
0000
0000
0000
0000
0000
0000
0010
1000
0001
0000
1000
0000
0010
0000
1001
0000
0000
0000
1100
0000
0000
0000
,
0010
0000
0100
0011
0000
1001
0000
1100
0000
0000
1000
0001
0000
0001
0000
0000
,
0000
0001
0100
0000
1001
0000
0100
1001
0000
0100
0010
0001
1100
0000
0011
0000
,
0000
0000
1000
0110
0000
1100
0000
1001
0000
0000
0010
1000
0000
1000
0000
0000
,
0100
0000
0010
0000
1000
0000
0001
0000
0100
0001
1000
0010
0101
0000
1001
0000
,
0010
0100
0000
0000
1001
0000
0100
0010
0000
1001
0000
0100
0010
1001
0000
0100
,
0010
0000
1001
0000
1000
0000
1000
0000
0001
0000
0001
0000
0001
0000
0001
0000
1000
0000
0010
0000
1000
0000
0100
0000
0010
0000
0001
0000
1000
0010
0100
0001
,
1000
0100
0000
0000
0010
0000
0001
0100
0000
1001
0000
0100
0010
0000
1001
0000
,
0000
1001
0100
0000
0010
0000
1000
0100
0000
0001
0100
1000
0101
0000
0110
0000
,
1001
0100
0000
0000
0101
0000
1000
0010
0000
0101
0000
1000
0010
0000
1001
0000
,
0100
0010
0010
1000
0100
0100
0010
0001
0001
0100
0010
0010
1000
0100
0100
0010
,
1001
0000
0100
0000
0010
0000
0001
0100
0001
0100
0000
0011
0000
1100
0000
0000
,
0100
0000
0010
0000
1001
0000
0100
0010
0100
0001
0000
1100
0000
0011
0000
0000
,
1000
0000
0001
0000
0100
0000
0010
0001
0010
1000
0000
0101
0000
1010
0000
0000
,
2002
0000
0000
0000
0003
0000
3001
0100
0010
2000
0000
0000
0000
0000
0000
0000
,
3000
0000
0000
0000
;
