#TITLE:PARANOiA EViL;
#SUBTITLE:;
#ARTIST:DJ Sapphire;
#TITLETRANSLIT:;
#SUBTITLETRANSLIT:;
#ARTISTTRANSLIT:;
#CREDIT:;
#BANNER:banner.png;
#BACKGROUND:bg.png;
#LYRICSPATH:;
#CDTITLE:cdtitle.png;
#MUSIC:paraevil.mp3;
#OFFSET:-0.200;
#SAMPLESTART:76.996;
#SAMPLELENGTH:12.000;
#SELECTABLE:YES;
#BPMS:0.000=228.000;
#STOPS:;
#BGCHANGES:;
// cache tags:
#FIRSTBEAT:16.000;
#LASTBEAT:356.000;
#SONGFILENAME:Songs/Japanese Collaboration Mix/paraevil/paraevil.sm;
#HASMUSIC:1;
#HASBANNER:1;
#MUSICLENGTH:96.438;
// end cache tags

//---------------dance-single - Copied from----------------
#NOTES:
     dance-single:
     Copied from:
     Challenge:
     10:
     0.779,0.784,0.353,0.145,0.000,478.000,34.000,14.000,0.000,0.000:
0000
0000
0000
0000
,
0000
0000
0000
0000
,
0000
0000
0000
0000
,
0000
0000
0000
0000
,
1000
0000
0100
0000
1000
0100
1000
0000
,
0010
0000
0100
0000
0010
0100
0010
0000
,
1000
0100
0010
0001
,
1000
0001
1000
0000
1001
0000
0000
0000
,
0001
0010
0100
0000
1000
0000
0001
0000
,
1000
0100
0010
0000
0001
0000
1000
0000
,
0100
1100
0001
0101
,
0100
0001
1000
0001
0100
0010
0100
0010
,
1000
0010
0110
0110
,
0001
0010
0100
1000
0100
0010
0000
0000
,
0001
0100
1100
1100
,
1000
0100
0010
0001
0010
0100
0000
0000
,
1000
0100
0010
0000
1001
0000
1001
0000
,
0100
0010
1000
0100
0010
0001
0000
0000
,
0010
0100
1000
0000
1001
0000
1001
0000
,
0010
0100
0001
0010
0100
1000
0000
0000
,
2001
0000
3100
0000
,
1002
0000
0103
0000
,
1010
0100
0101
0010
,
1100
0000
0101
0000
1000
0100
0010
0001
,
2000
3001
0200
0301
,
0020
0130
2000
3010
,
1000
0010
0000
0010
1000
0001
0000
0001
,
0100
0010
0100
0010
1000
0100
0010
0001
,
1000
0100
1000
0100
1000
0100
0010
0001
,
0100
0001
0100
0001
0100
0001
1000
0000
,
0010
0100
0010
0100
0010
0100
0001
0010
,
0100
1000
0100
1000
0100
1000
0001
0000
,
1000
0100
0010
0001
0010
0100
0010
0100
,
1000
0100
0010
0001
1000
0001
0100
0000
,
0001
0010
0100
1000
0001
0100
0001
0010
,
0100
1000
0100
0010
0100
1000
0001
0000
,
0100
0000
0110
0000
1000
0001
0100
0010
,
0200
0010
0010
0310
,
1000
0000
1100
0000
1000
0001
0010
0100
,
2000
0010
0010
3010
,
0100
0000
0101
0000
0010
0100
1000
0100
,
0010
0000
0011
0000
1000
0010
0100
0001
,
1000
0000
1001
0000
0001
1000
0100
0010
,
0100
0100
0100
0100
0100
0000
0110
0000
,
1001
0000
0000
0000
0100
0100
0010
0010
,
0100
0010
0100
0000
,
1000
1100
0001
0101
,
1000
0001
0010
0001
0010
0100
0010
0100
,
1000
0000
0000
0000
0000
0000
0000
0001
,
0100
0010
0100
0010
,
0100
0000
0010
0000
0100
0010
0100
0010
,
1000
0001
1000
0001
,
1000
0000
0001
0000
1000
0001
1000
0001
,
0100
0010
1000
0010
0100
0001
0010
0001
,
1000
0100
1000
0010
0100
0010
1000
0001
,
0010
0001
1000
0100
1000
0010
0100
0001
,
0100
0010
1000
0001
0010
0100
1000
0100
,
0010
0000
0001
0010
0100
0010
0001
1000
,
0002
0000
0000
0003
,
0100
0000
0010
0100
0010
1000
0001
0010
,
0200
0000
0000
0300
,
1000
0000
0010
0100
0001
0100
0010
1000
,
0020
0000
1030
0100
0010
0001
1000
0100
,
2000
0000
3001
0010
0001
1000
0010
0100
,
0010
0010
0010
0010
0010
0000
0000
0000
,
1001
0000
0000
0000
0000
0000
0000
1000
,
0001
0000
0000
0000
0000
0000
0000
1000
,
0001
0000
1000
0000
,
0001
0000
1000
0000
0001
0010
0100
1000
,
0001
0000
0100
0000
0001
0000
0100
0001
,
1000
0000
0010
0000
0100
0000
0010
0100
,
0001
0000
1000
0100
0010
0000
0100
0010
,
0100
0000
0100
0000
0010
0100
0010
0100
,
1000
0100
0000
1010
0000
1010
0000
1010
,
0000
1000
0010
0100
0001
0000
0001
0000
,
1000
0001
1000
0001
0100
0010
1000
0010
,
1000
0001
0100
0000
0100
0000
0000
0000
,
0001
0010
0000
0101
0000
0101
0000
0101
,
0000
0001
1000
0010
0100
0000
0100
0000
,
0001
0010
0100
1000
0010
0100
0001
0100
,
0001
1000
0100
0000
0100
0000
0000
0000
,
1000
0010
0100
0001
1000
0001
0100
0001
,
0010
0100
1000
0100
0010
0100
0010
0100
,
0002
0000
1003
0100
0010
0100
1000
0001
,
0020
0000
0130
1000
0010
0100
0001
0000
,
0100
0010
1000
0010
1000
0100
0010
0100
,
1000
0001
0100
0010
0100
0001
1000
0001
,
0010
0001
0100
1000
0100
0001
0010
0001
,
0010
0100
0010
0100
0010
0100
0010
0100
,
0110
0000
0000
0000
;
