#TITLE:Cowboy;
#SUBTITLE:;
#ARTIST:Kid Rock;
#TITLETRANSLIT:;
#SUBTITLETRANSLIT:;
#ARTISTTRANSLIT:;
#CREDIT:Arch0wl;
#BANNER:cowboy-bn.png;
#BACKGROUND:cowboy-bg.png;
#LYRICSPATH:;
#CDTITLE:!arch0wltitle.png;
#MUSIC:cowboy.ogg;
#OFFSET:0.591;
#SAMPLESTART:62.011;
#SAMPLELENGTH:23.233;
#SELECTABLE:YES;
#BPMS:0.000=174.050;
#STOPS:580.750=1.523
;
#BGCHANGES:0.000=cowboy-bg.png=1.000=0=0=1,
1.750=Cowboy.avi=1.000=0=0=1,
99999=-nosongbg-=1.000=0=0=0 // don't automatically add -songbackground-
;
// cache tags:
#FIRSTBEAT:23.000;
#LASTBEAT:710.500;
#SONGFILENAME:Songs/Archmage and Dark0wl Hammer of Thor UltraHyperMegaPack/Cowboy/cowboy.sm;
#HASMUSIC:1;
#HASBANNER:1;
#MUSICLENGTH:105.000;
// end cache tags

//---------------dance-single - Arch0wl----------------
#NOTES:
     dance-single:
     Arch0wl:
     Hard:
     9:
     1.000,1.000,1.000,0.429,0.233,811.000,138.000,45.000,0.000,13.000:
0000
0000
0000
0000
,
0000
0000
0000
0000
,
0000
0000
0000
0000
,
0000
0000
0000
0000
,
0000
0000
0000
0000
,
0000
0000
0000
0000
0000
0000
1000
0100
,
1000
0100
0010
0000
0000
0010
0001
0000
,
0001
1000
0000
1000
0100
0000
0010
0100
,
0010
0100
1000
0000
0000
1000
0010
0000
,
0010
0100
0000
0100
0001
0000
0100
0001
,
0100
0001
0010
0000
0000
0010
0001
0000
,
0001
1000
0000
1000
0010
0000
0100
0001
,
0100
0001
2000
0000
0000
3200
0000
0000
,
0320
0000
0000
0000
,
0130
1000
0001
0010
0001
0100
0010
1000
,
0010
0100
0001
0010
0000
0010
0000
0100
,
1000
0000
0010
0100
0001
0010
1000
0000
,
0010
0001
0000
0010
1000
0000
0010
0000
,
0001
0100
0010
0000
0010
1000
0100
0000
,
0000
0010
0000
0100
0000
1000
0000
0000
,
0010
0100
0001
0000
0101
0000
0110
0000
,
0010
1000
0100
0000
0100
1000
0000
1000
,
0010
0100
0000
0000
0001
0000
0010
0100
,
1000
0010
0100
0000
0100
0001
0000
0001
,
0010
1000
0010
0001
0100
0110
0000
1000
,
0110
0000
0110
0000
0001
0110
0000
0000
,
1000
0100
0010
0000
0100
0010
0001
0000
,
0010
0001
0100
0010
0100
0010
0000
0000
,
0000
1000
1100
0000
1100
0000
0110
0000
,
0010
0001
0100
0000
0010
0001
0000
0000
,
0010
1000
0010
0000
0100
0001
0100
0000
,
0000
0010
0000
0010
1000
0001
0000
0000
,
0000
0001
1000
0000
1000
0010
0100
0000
,
0100
0001
0000
0001
0010
0100
0000
0000
,
0000
1000
0000
0001
1000
1000
0010
0020
,
0000
0030
0000
1000
0001
1000
0011
0000
,
0011
0000
1001
0000
1001
0000
1000
0100
,
1000
0010
0100
0100
0000
0100
0000
0000
,
0001
0010
0100
0000
0100
0000
0100
0010
,
0000
0001
0100
0010
1000
0000
1000
0010
,
0000
0100
0001
1000
0000
1100
0000
0010
,
0100
1100
0000
1000
1001
0000
1010
0000
,
0110
0000
0000
0100
0000
0001
0000
1000
,
0001
0010
0110
0000
0001
0110
0000
0000
,
0100
1000
0010
0100
1000
0000
1000
0000
,
1000
0100
0000
0100
0001
0010
0100
1000
,
0010
0100
0101
0000
0000
1010
0000
0000
,
0101
0000
0000
1001
0000
0000
0000
0000
,
1000
0100
0110
0000
0011
0000
0110
0000
,
1000
0100
0110
0000
0011
0000
0110
0000
,
1100
0000
0110
0000
0000
1001
0000
0000
,
0110
0000
0000
0101
0000
0000
0000
0000
,
0000
0010
0000
0000
1000
0000
1000
0100
,
0010
0001
0100
0000
0000
0010
1000
0100
,
0010
0001
0011
0000
0000
1100
0000
0000
,
0011
0000
0000
0110
0000
0000
0000
0000
,
0000
0000
1000
0100
0010
0000
0010
0000
,
0001
0100
0110
0000
1010
0000
0110
0000
,
0101
0000
1010
0000
0000
0101
0000
0000
,
1010
0000
0000
1100
0000
0000
0000
0000
,
0000
1000
0000
1000
0010
0100
0001
0000
,
0001
0010
0100
1000
0010
0001
0000
0010
,
1000
0002
0000
0003
,
0000
0020
0000
0000
0000
0000
0000
0000
0000
0230
0000
0000
0000
0000
0000
0000
,
0000
0300
0000
0000
1002
0000
0000
0000
1000
0000
0000
0000
1000
0000
0000
0000
,
1000
0000
1000
0000
1000
0000
1003
1000
,
0100
0010
0001
1000
0001
1000
0010
0100
,
0010
0100
0001
0010
0000
0010
0000
0100
,
1000
0020
0000
0030
,
0001
0010
0000
1000
0100
0010
0000
0000
,
0010
1001
0100
1001
,
0010
0000
1001
0010
0100
1000
0000
0000
,
0000
0001
0100
0000
1000
0100
0000
0000
,
0000
0001
0100
0010
1000
0000
1010
0000
,
0100
0000
0001
0000
0001
1000
0000
0000
,
1000
0000
0010
0000
0010
0100
0000
0000
,
0001
1000
0100
0000
1000
0001
0100
0000
,
0010
0000
0010
1000
0000
1000
0000
1000
,
0100
0010
0001
0000
0001
0001
0000
1000
,
0010
0000
0100
0001
1000
0000
1000
0000
0000
0000
0100
0000
0000
0000
0100
0000
,
0000
0010
1000
0000
0010
0001
0100
0010
,
0000
0010
0000
1000
0010
1000
0100
0000
,
0010
0100
1010
0000
0000
0101
0000
0000
,
1010
0000
0000
1001
0000
0000
0000
0000
,
0001
0010
0110
0000
1100
0000
0110
0000
,
0001
0010
0110
0000
1100
0000
0110
0000
,
0011
0000
0110
0000
0000
1001
0000
0000
,
0110
0000
0000
1010
0000
0000
0000
0000
,
0000
0100
0000
0000
0001
0000
0001
0010
,
0100
1000
0010
0000
0000
0100
0001
0010
,
0100
1000
1100
0000
0000
0011
0000
0000
,
1100
0000
0000
0110
0000
0000
0000
0000
,
0000
0000
0001
0010
0100
0000
0100
0000
,
1000
0010
0110
0000
0101
0000
0110
0000
,
1010
0000
0101
0000
0000
1010
0000
0000
,
0101
0000
0000
0011
0000
0000
0000
0000
,
0000
0001
0000
0001
0100
0010
1000
0000
,
1000
0100
0010
0001
0100
1000
0000
0100
,
0001
2000
0000
0000
,
3002
0000
2003
0000
,
0000
0010
0000
0010
,
0000
3010
0000
0020
,
0000
0000
0000
0130
0001
0100
0001
0100
0001
0100
0001
0100
,
0001
0100
0001
0100
0001
0100
0001
0100
0010
1000
0000
1000
,
0100
0000
0100
0010
0000
0100
1000
0100
1000
0100
1000
0100
,
1000
0100
1000
0100
1000
0100
1000
0100
0010
0001
0000
0001
,
0100
0000
0000
0000
0100
0000
0010
0000
0000
0000
0000
0000
0010
0000
0000
0000
0000
0000
1000
0000
0000
0001
0000
0000
,
1000
0100
0010
0001
0010
0100
0000
0100
,
1000
0000
0000
1000
0010
1000
0010
1000
0010
0100
0001
0100
,
0001
0100
0001
0010
0100
0010
0100
0010
0100
1000
0001
1000
,
0001
1000
0001
1000
0000
0000
0100
0000
0000
1100
0000
0000
,
0100
0010
0001
0010
0000
0100
0000
0000
,
0100
1000
0001
0000
0001
0000
0001
0100
,
0001
0100
0010
1000
0100
0010
0000
0000
,
0001
0100
0010
0100
0001
0100
1000
0000
,
0100
0000
0101
0000
0001
0010
0000
0010
,
1000
0000
1010
0000
0011
0000
0011
0100
,
1000
0000
1000
0010
0001
2020
0000
3030
,
1000
0000
0100
0010
0100
0000
1000
0001
,
1000
0000
0010
0100
0001
1000
0000
0000
,
1000
0100
0010
0000
0100
0010
0001
0000
,
1000
0100
0010
0000
0100
0010
0001
0000
,
0000
0000
1000
0100
0001
0000
0000
0000
0100
0000
0010
0000
0100
0000
1000
0000
,
0000
0000
1000
0100
0001
0000
0100
0000
0000
0000
1000
0000
0000
0000
0000
0000
,
0001
0100
0010
0100
1000
0000
1100
0000
,
0000
0100
0010
1000
1100
0000
1100
0000
,
2002
0000
3003
0000
0100
0000
0100
0010
,
0000
1000
0000
1000
0100
0010
0100
1000
,
0000
1000
1010
0000
1100
0000
1001
0010
,
0100
0001
0011
0000
0110
0000
0011
0100
,
0000
0000
1000
0000
0010
0000
0100
0001
,
0000
1010
0000
0000
0100
0000
0001
0010
,
0000
0100
1000
0001
0000
0100
1000
0000
,
0100
0001
0000
0100
1000
0000
0100
0002
,
0000
0003
0000
0000
0000
0000
1000
0100
,
0010
0100
1000
0001
0000
0001
0000
0000
,
0000
0000
0100
0000
0100
0001
0000
0001
,
1000
0100
0110
0000
0011
0000
0011
0000
,
0000
0001
1000
0100
0000
0100
0000
0100
,
1000
0010
0100
0001
0100
0001
0000
0001
,
1000
0100
0010
0001
0100
0010
0000
0010
,
0000
0010
1000
0100
0010
0001
0000
0001
,
0000
1001
0000
1000
0010
1000
0000
0001
,
0000
1001
0000
0001
0010
0001
0000
1000
,
0001
0100
0001
0000
1000
0100
0000
1000
,
0001
0100
0000
0000
0000
0010
1000
0010
,
0100
0000
0100
0000
0010
1000
0100
0010
,
0000
0001
0000
0001
0000
1000
0100
0000
,
0100
0000
1000
0010
0100
0001
0100
0010
,
1000
0010
0000
0010
0000
0000
2020
0000
,
0000
3232
0000
0000
0000
0000
0000
0000
,
0000
0000
0000
0000
1303
0100
0110
0000
,
0011
0000
0110
0000
1000
0100
0110
0000
,
0011
0110
1100
0022
,
0000
2233
0000
0000
0000
0000
0000
0000
,
0000
0000
0000
0000
3301
0100
0000
0100
,
0000
0100
0000
0010
1000
0100
1000
0010
,
0000
0100
0000
0100
0001
0000
2020
0000
,
0000
3232
0000
0000
0000
0000
0000
0000
,
0000
0000
0000
0000
0000
0000
1303
0100
,
0010
0000
0010
0000
0001
0100
0110
0000
,
1010
0110
0101
0022
,
0000
2233
0000
0000
0000
0000
0000
0000
,
0000
0000
0000
0000
0000
3301
0000
1000
,
0100
0010
0001
0000
0100
0010
1000
0001
,
0100
0001
0000
0001
0000
0000
2020
0000
,
0000
3232
0000
0000
0000
0000
0000
0000
,
0000
0000
0000
0000
1303
0100
0110
0000
,
0011
0000
0110
0000
1000
0100
0110
0000
,
0011
0110
1100
0022
,
0000
2233
0000
0000
0000
0000
0000
0000
,
0000
0000
0000
0000
3301
0010
0110
0000
,
1100
0000
0110
0000
0001
0010
0110
0000
,
1100
0110
0011
2000
,
0000
0020
0000
0000
0000
0000
0000
0000
,
0000
0000
0000
0000
,
0000
0000
0000
0000
0000
0000
0000
3230
0000
0000
0000
0000
0000
0000
0000
0000
,
0000
0000
0000
0000
0000
0300
0000
0000
;
