#TITLE:Tenshi Ranman Love Power;
#SUBTITLE:Seto no Hanayome OVA OP theme;
#ARTIST:Seto Hana Angels;
#TITLETRANSLIT:;
#SUBTITLETRANSLIT:;
#ARTISTTRANSLIT:;
#CREDIT:ALICE_;
#BANNER:Tenshi Ranman Love Power.png;
#BACKGROUND:Tenshi Ranman Love Power.jpg;
#LYRICSPATH:;
#CDTITLE:cdtitle.png;
#MUSIC:Tenshi Ranman Love Power.mp3;
#OFFSET:0.543;
#SAMPLESTART:60.780;
#SAMPLELENGTH:12.000;
#SELECTABLE:YES;
#BPMS:0.000=160.000;
#STOPS:;
#BGCHANGES:1.625=Tenshi Ranman Love Power.avi=1.000=0=0=1,
237.000=Tenshi Ranman Love Power.jpg=1.000=1=0=1,
99999=-nosongbg-=1.000=0=0=0 // don't automatically add -songbackground-
;
// cache tags:
#FIRSTBEAT:2.000;
#LASTBEAT:238.000;
#SONGFILENAME:Songs/alice 4th complete step/Tenshi Ranman Love Power/Tenshi Ranman Love Power.sm;
#HASMUSIC:1;
#HASBANNER:1;
#MUSICLENGTH:89.634;
// end cache tags

//---------------dance-single - ----------------
#NOTES:
     dance-single:
     :
     Hard:
     7:
     0.650,0.662,0.502,0.212,0.022,344.000,45.000,19.000,0.000,0.000:
0000
0000
0000
0000
0000
0000
0000
0000
1001
0000
0000
0000
1000
0100
0001
0100
,
1000
0000
1100
0000
0001
0100
0001
1000
,
0010
0000
0000
0000
0000
0000
0000
0000
0100
0000
0000
0000
0000
0000
0000
0000
0010
0000
0000
0000
0000
0000
0000
0000
1000
0000
0000
0000
0000
0000
0000
0000
0001
0000
0000
0000
0000
0000
0000
0000
0020
0030
0000
0000
0000
0000
0000
0000
0020
0030
0000
0000
0000
0000
0000
0000
0000
0000
0000
0000
0000
0000
0000
0000
,
0001
0000
0101
0000
1000
0100
1000
0001
,
0100
0010
0100
0001
1000
0001
0010
0000
,
1000
0000
1100
0000
0001
0100
0001
1000
,
0010
0000
0000
0000
0000
0000
0000
0000
0100
0000
0000
0000
0000
0000
0000
0000
0010
0000
0000
0000
0000
0000
0000
0000
1000
0000
0000
0000
0000
0000
0000
0000
0001
0000
0000
0000
0000
0000
0000
0000
0020
0030
0000
0000
0000
0000
0000
0000
0020
0030
0000
0000
0000
0000
0000
0000
0000
0000
0000
0000
0000
0000
0000
0000
,
0001
0000
0101
0000
0001
1000
0001
0010
,
0000
0000
0100
0000
0100
0000
1000
0000
0001
0100
0001
0100
0001
0000
1000
0000
,
0001
0001
1000
1000
,
0001
1100
1000
0101
,
0001
1000
0100
1000
0001
1000
0100
1000
,
0001
0100
1000
0100
0001
0100
1000
0100
,
0001
0001
1000
1000
,
0001
1100
1000
0101
,
1000
0001
0100
0001
1000
0010
0100
0001
,
1000
0100
0010
0001
0010
0100
1000
0010
,
0100
0100
0001
0001
,
1000
1010
0001
0011
,
1000
0001
0100
0001
1000
0001
0100
0001
,
1000
0100
0001
0100
1000
0010
0001
0010
,
1000
1000
0001
0001
,
1000
1010
0001
0011
,
0001
1000
0100
1000
0001
0010
0100
1000
,
0001
0100
0010
1000
0010
0100
0001
0010
,
0100
0000
0000
0100
1000
0000
0001
0000
,
0101
0000
0000
0100
0001
0000
1000
0000
,
1100
0000
0000
1000
0010
0000
0100
0000
,
1001
0000
0000
0001
0010
0000
0100
1000
,
0100
0000
0000
1000
0010
0000
1001
0000
,
0100
0000
0000
0001
0010
0000
0101
0000
,
1000
0000
0000
0010
0100
0000
1010
0000
,
0001
0000
1000
0010
0100
0001
1000
0001
,
1000
0000
0100
0010
0100
0000
1000
0000
,
0001
0000
0100
0010
0100
0000
0001
0000
,
1000
0000
0010
0100
0001
0000
1100
0000
,
0001
0010
0001
1000
0010
0100
0100
0001
,
1000
0100
0010
0001
0000
0100
1000
0010
,
0000
0001
0100
0010
1000
0000
1000
0000
,
0001
0100
0001
0100
0010
1000
0001
0100
,
0002
0000
0000
0003
,
1100
0101
1100
0101
,
1000
0000
0000
0000
0000
0000
0000
0000
0100
0000
0000
0000
0000
0000
0000
0000
1000
0000
0000
0000
0000
0000
0000
0000
0001
0000
0000
0000
0000
0000
0000
0000
0010
0000
0000
0000
0000
0000
0000
0000
0200
0300
0000
0000
0000
0000
0000
0000
2000
3000
0000
0000
0000
0000
0000
0000
0000
0000
0000
0000
0000
0000
0000
0000
,
0101
1100
0101
1100
,
0001
0000
0000
0000
0000
0000
0000
0000
0100
0000
0000
0000
0000
0000
0000
0000
0001
0000
0000
0000
0000
0000
0000
0000
1000
0000
0000
0000
0000
0000
0000
0000
0010
0000
0000
0000
0000
0000
0000
0000
0200
0300
0000
0000
0000
0000
0000
0000
0002
0003
0000
0000
0000
0000
0000
0000
0000
0000
0000
0000
0000
0000
0000
0000
,
1000
0010
0001
0010
0000
2000
3100
0000
,
0001
0010
1000
0020
0000
0000
0031
0000
,
1100
0000
0001
0010
0001
1000
0100
0010
,
0001
0100
0010
1000
1000
0010
0100
0001
,
0101
0000
1100
0000
0011
0000
1000
0010
,
0000
0000
0000
0000
0000
0000
0000
0000
0110
0000
0000
0000
0000
0000
0000
0000
0000
0000
0000
0000
0000
0000
0000
0000
1000
0000
0000
0000
0000
0000
0000
0000
0001
0000
0000
0000
0000
0000
0000
0000
0020
0030
0000
0000
0000
0000
0000
0000
0020
0030
0000
0000
0000
0000
0000
0000
0000
0000
0000
0000
0000
0000
0000
0000
,
1100
0000
0101
0000
1010
0000
0001
0010
,
0000
0000
0000
0000
0000
0000
0000
0000
0110
0000
0000
0000
0000
0000
0000
0000
0001
0000
0000
0000
0000
0000
0000
0000
1000
0000
0000
0000
0000
0000
0000
0000
0001
0000
0000
0000
0000
0000
0000
0000
0200
0300
0000
0000
0000
0000
0000
0000
0200
0300
0000
0000
0000
0000
0000
0000
0000
0000
0000
0000
0000
0000
0000
0000
,
1000
0100
0010
0001
0000
0200
1300
0000
,
0001
0010
0100
2000
0000
3010
0001
0010
,
1000
0100
1100
1100
0000
0001
0100
0101
,
0101
0000
1000
0001
0100
0010
1000
0000
,
0001
0010
0011
0011
0000
1000
0010
1010
,
1010
0000
0001
0100
0010
1000
0200
0000
,
0320
0000
0000
0030
0000
0000
0000
0000
;

//---------------dance-single - ----------------
#NOTES:
     dance-single:
     :
     Medium:
     6:
     0.548,0.498,0.212,0.078,0.006,318.000,19.000,7.000,0.000,0.000:
0000
0000
1001
0010
,
1001
0000
0001
0000
0010
0100
0000
1000
,
0000
0001
0100
0001
0010
0100
0000
0000
,
1000
0000
1001
0000
0100
0010
0000
1000
,
0000
0001
0100
0010
0000
1000
0100
0000
,
1001
0000
1001
0000
0100
0010
0000
1000
,
0000
0001
0100
0001
0010
1000
0000
0000
,
0010
0000
1001
0000
0010
0100
0000
0001
,
0000
1000
0100
1000
0010
0100
0010
0000
,
1000
0000
1000
0100
0000
0100
0010
0000
,
0010
0001
0000
0001
0100
0010
0100
0000
,
0001
1000
0010
0100
0001
1000
0010
0100
,
0001
0000
1000
0100
0010
0001
0010
0100
,
1000
0000
0001
0100
0000
0100
0010
0000
,
0010
1000
0000
1000
0100
0010
0100
0000
,
1000
0001
0100
0010
1000
0001
0100
0010
,
2000
0000
0000
3000
0002
0000
0000
0003
,
1001
0000
0010
0100
0000
0100
1000
0000
,
1000
0010
0000
0010
0100
0001
0100
0000
,
0010
1000
0100
0010
0001
0010
0100
1000
,
0010
0000
0100
0001
0100
1000
0001
0010
,
0100
0000
0100
0010
0000
0010
0001
0000
,
0001
0100
0000
0100
0010
1000
0010
0000
,
0100
0001
1000
0010
0100
0001
1000
0010
,
0100
0000
0101
0000
1000
0010
0100
0010
,
1000
0000
0000
0100
0100
0000
1000
0000
,
0001
0000
0000
0100
0100
0000
0001
0000
,
0010
0000
0000
0100
0100
0000
0010
0000
,
0001
0000
0000
1000
1000
0000
0001
0100
,
0010
0000
0000
1000
1000
0000
0001
0000
,
0100
0000
0000
0001
0001
0000
1000
0000
,
0100
0000
0000
0010
0010
0000
0100
0000
,
0010
0000
0000
0001
0001
1000
0001
1000
,
0001
0000
0010
0100
0010
0000
0001
0000
,
1000
0000
0010
0100
0010
0000
1000
0000
,
0001
0000
0100
0010
1000
0000
0001
0000
,
1000
0000
0100
1000
0001
0010
0010
0000
,
0100
1000
0010
0100
0000
0001
0010
0100
,
0000
0000
1000
0000
0010
0000
0000
0000
0100
0000
0000
0100
0000
0000
0001
0000
,
2000
0000
0000
0000
,
3000
0000
0000
0000
0100
0010
0100
0000
,
1000
0101
0001
1100
,
1000
0010
0100
0002
0000
1000
1003
0000
,
0001
1100
1000
0101
,
0001
0010
0100
2000
0000
0001
3001
0000
,
0100
0010
1000
0001
0000
1000
0100
0000
,
0010
0100
0001
1000
0000
0001
0010
0000
,
1000
0100
1000
0100
0010
0100
0010
0100
,
1000
0100
0001
0100
1000
0010
0100
0001
,
1000
0110
0001
1100
,
1000
0010
0100
0001
0010
0100
1000
0000
,
0001
1010
1000
0101
,
0001
0010
0100
1000
0010
0100
0001
0000
,
1000
0100
1000
0010
0000
0000
0110
0000
,
0001
0100
0001
0010
0000
0000
0110
0000
,
1000
0100
0001
0001
0000
0001
0100
1000
,
1000
1000
0010
0100
,
0001
0010
1000
1000
0000
1000
0010
0001
,
0001
0000
0100
0010
1000
0001
0100
0000
,
2002
0000
3003
0000
;

//---------------dance-single - ----------------
#NOTES:
     dance-single:
     :
     Easy:
     3:
     0.351,0.331,0.033,0.134,0.000,205.000,3.000,12.000,0.000,0.000:
0000
0000
0000
0000
,
1000
1000
0001
0001
,
0100
0100
0010
0100
,
0001
0001
1000
1000
,
0010
0010
0100
0010
,
0100
0100
0001
0001
,
1000
0010
1000
0100
,
0010
0010
0100
0100
,
1000
0001
0100
0010
,
1000
1000
1000
1000
,
0100
0001
0100
1000
,
0001
0001
0001
0001
,
0010
1000
0010
0001
,
0100
0100
0100
0100
,
0010
1000
0010
0001
,
0010
0010
0010
0010
,
0100
1000
0001
0100
,
0010
1000
1000
1000
,
0100
0010
0100
1000
,
0001
0100
0100
0100
,
0010
1000
0001
0100
,
0001
0010
0010
0010
,
0100
1000
0001
0100
,
0010
1000
1000
1000
,
0100
0001
0100
1000
,
0020
0000
0000
0130
,
2000
0000
0000
3100
,
0002
0000
0000
0013
,
0100
0010
0100
0010
,
2000
0000
0000
3001
,
0002
0000
0000
0103
,
2000
0000
0000
3010
,
0100
0001
0100
0001
,
2000
0000
0000
3100
,
0020
0000
0000
0031
,
0200
0000
0000
0301
,
1000
0010
1000
0010
,
0100
0001
1000
0100
,
0010
0001
0100
0010
,
2000
0000
0000
0000
,
3000
0000
0000
0000
,
0001
0001
1000
1000
,
0001
0010
1000
0010
,
1000
1000
0001
0001
,
0100
1000
0100
0001
,
0010
1000
0100
0001
,
0010
0001
0100
1000
,
0010
0100
0010
0100
,
0001
1000
0001
1000
,
0001
0010
0001
0010
,
0100
1000
0010
0110
,
0100
1000
0100
1000
,
0010
0100
0001
0011
,
1000
1000
1000
0100
,
0001
0001
0001
0100
,
1000
0010
0100
0001
,
0010
0000
0000
0000
,
0001
0010
0100
1000
,
0010
0100
0001
1000
,
2002
3003
0000
0000
;
