#TITLE:Re：Routes：Remix：Reloaded;
#SUBTITLE:;
#ARTIST:Spelunker;
#TITLETRANSLIT:Re Routes Remix Reloaded;
#SUBTITLETRANSLIT:;
#ARTISTTRANSLIT:;
#CREDIT:;
#BANNER:rrrr.png;
#BACKGROUND:rrrr-bg.png;
#LYRICSPATH:;
#CDTITLE:cdtitle.png;
#MUSIC:rrrr.ogg;
#OFFSET:-0.006;
#SAMPLESTART:70.480;
#SAMPLELENGTH:12.260;
#SELECTABLE:YES;
#DISPLAYBPM:78.000:315.000;
#BPMS:0.000=157.500,48.000=315.000,168.000=157.500,172.000=78.750,188.000=157.500,220.000=629.999,252.000=315.000,404.000=629.999;
#STOPS:251.875=0.380
;
#BGCHANGES:;
// cache tags:
#FIRSTBEAT:16.000;
#LASTBEAT:408.000;
#SONGFILENAME:Songs/Japanese Collaboration Mix/ReRoutesRemixReloaded/rrrr.sm;
#HASMUSIC:1;
#HASBANNER:1;
#MUSICLENGTH:99.883;
// end cache tags

//---------------dance-single - ----------------
#NOTES:
     dance-single:
     :
     Hard:
     12:
     1.000,1.000,0.340,0.661,0.491,632.000,34.000,66.000,0.000,0.000:
0000
0000
0000
0000
,
0000
0000
0000
0000
,
0000
0000
0000
0000
,
0000
0000
0000
0000
,
1001
0000
0010
0000
1000
0000
0010
1000
0001
0000
0010
0000
0000
0000
1010
0000
,
0001
0000
1010
0000
1000
0000
0010
1000
0001
0000
0010
0000
0000
0000
0010
0000
,
0001
0000
0010
0000
1000
0000
0010
1000
0001
0000
0010
0000
0000
0000
1010
0000
,
0001
0000
1010
0000
1000
0000
0010
1000
0001
0000
0010
0000
2000
0000
0010
0000
,
3001
0000
0010
0000
1000
0000
0010
1000
0001
0000
0010
0000
0000
0000
1010
0000
,
0001
0000
1010
0000
1000
0000
0010
1000
0001
0000
0010
0000
0000
0000
0010
0000
,
0001
0000
0010
0000
1000
0000
0010
1000
0001
0000
0010
0000
0000
0000
1010
0000
,
0001
0000
1000
0000
0000
1000
0000
0000
1000
0000
0000
1000
0000
0000
1000
0000
,
0001
0000
0001
0000
0001
0010
0001
0000
,
1000
0000
1000
0000
0100
1000
0100
1000
,
0010
0000
0010
0000
1000
0001
1000
0001
,
0100
0010
1000
0001
0100
0010
1000
0001
,
0200
0010
0010
0310
,
1000
0001
0100
0020
1000
0030
1000
0001
,
0200
0310
0000
0010
0200
0310
0000
0010
,
2000
0001
3002
1003
,
0100
2000
0010
3000
0010
1000
0100
0000
,
0010
0002
0100
0003
0100
0001
0010
0000
,
0001
0010
0100
1000
0100
0010
0002
0000
,
0103
0000
0100
0020
0200
0030
0301
0000
,
0100
0000
0001
0000
0100
0002
0020
0003
,
0130
2000
0002
3000
0100
0000
0023
0000
,
0130
2000
0100
0000
3001
0010
0200
0001
,
0000
0302
0103
1000
0100
0020
0230
0000
,
0010
0300
0010
1000
0010
0000
0010
0000
,
0100
0000
0100
0001
0100
0000
0100
0000
,
0010
1000
0010
0001
0010
1000
0010
0000
,
0100
0001
0100
1000
0100
0001
0100
0000
,
0001
0000
0001
1000
0001
0000
0010
0000
,
0100
0000
0100
0010
0001
0000
0100
0000
,
0001
0100
1000
0100
0010
0000
1000
0000
,
0001
0000
1000
0100
0010
0001
0020
0030
,
0001
2000
3010
0100
0020
0000
1000
0000
,
0100
0000
1000
0030
2000
0001
0000
3002
,
0010
0000
0010
0003
0010
0100
0000
0200
,
0010
0000
0310
0000
0000
0110
0000
0000
,
1001
0101
1001
1100
,
1001
0010
1001
0010
,
0200
0020
0000
0000
0000
0000
0300
0030
,
1000
0001
1000
0001
1000
0000
0010
0100
0010
0100
0010
0000
1000
0001
1000
0001
1000
0000
0010
0100
0010
0100
0010
0000
1000
0100
1000
0100
0010
0001
0010
0001
,
1000
0010
1000
0010
1000
0000
0001
0100
0001
0100
0001
0000
1000
0010
1000
0010
1000
0000
0001
0100
0001
0100
0001
0000
1000
0010
1000
0010
0100
0001
0100
0001
,
1000
0100
1000
0100
1000
0000
0100
1000
0001
1000
0100
0000
1000
0001
1000
0010
1000
0000
0001
1000
0100
1000
0100
0000
0010
0100
1000
0001
1000
0100
1000
0100
,
0010
0001
1000
0001
0010
0000
0001
0010
0001
1000
0001
0000
0100
0001
1000
0001
0010
0000
0001
1000
0001
0010
0001
0000
0010
0001
0100
0001
0010
0001
0010
0100
,
1000
0000
1000
0000
0010
0100
0001
0000
,
0001
0000
0001
1000
0100
0010
1001
0000
,
0210
0000
0010
0300
1000
0010
0100
0001
,
0010
0100
1000
0001
0100
0010
1001
0000
,
0001
0100
0001
0010
0001
1000
0100
0010
,
0001
0000
1000
0000
0100
0000
1000
0000
0010
1000
0010
0000
0100
0000
0002
0000
,
1000
0000
1000
1000
1000
1000
1000
1003
,
1000
0001
1000
0001
0100
0010
0100
0010
1000
0001
1000
0001
0100
0010
0100
0020
,
0200
0000
0000
0000
,
0000
0000
0000
0000
,
0000
0000
0000
0000
,
0000
0000
0000
0000
,
0000
0000
0000
0000
,
0000
0000
0000
0000
,
0000
0000
0000
0000
,
0000
0000
0000
0000
0000
0000
0000
0000
0000
0000
0000
0000
0000
0000
0000
0000
0000
0000
0000
0000
0000
0000
0000
0000
0000
0000
0000
0000
0000
0000
0000
0000
0000
0000
0000
0000
0000
0000
0000
0000
0000
0000
0000
0000
0000
0000
0000
0000
0000
0000
0000
0000
0000
0000
0000
0000
0000
0000
0000
0000
0000
0000
0000
0330
,
1001
0000
1000
0010
0100
0001
0010
0100
,
1000
0100
0010
0001
0100
0010
0100
0000
,
0100
0010
1000
0100
0010
0001
0100
0010
,
0100
0010
1000
0100
0010
0100
1000
0000
,
0110
0000
1000
0100
1000
0001
0010
0001
,
1000
0100
1000
0001
0010
0001
0100
0000
,
0100
0001
1000
0010
1000
0001
0010
0001
,
1000
0010
1000
0001
0010
0001
0100
0000
,
1001
0000
1000
0020
0100
0030
0100
0001
,
2000
0010
3000
0010
0100
0002
1000
0003
,
1000
0100
0020
0001
0030
0001
1000
0200
,
0020
0300
0001
0000
0100
0000
0032
0000
,
0103
0010
1000
0020
0100
0000
0230
0000
,
0302
1003
0020
0100
0000
0230
0300
0002
,
1000
0100
0010
1003
,
1001
1100
0011
1001
,
0110
0000
2000
0010
0000
0010
0000
3020
,
0230
0001
0000
0001
0000
0001
0300
0002
,
2000
0003
0010
0000
3002
0000
1000
0003
,
0001
2000
3200
0000
0320
0000
0032
0000
,
1003
0100
0010
0100
1000
0001
0100
0010
,
0100
0001
1000
0100
0010
0100
2000
3020
,
0100
0000
0030
0000
0100
0000
0002
0003
2000
3000
0020
0000
0100
0000
0030
0000
,
0100
0001
0100
0010
2000
0010
3000
0001
,
0100
0001
0100
0001
0100
0010
0100
0010
,
0100
1000
0100
1000
0100
0010
0100
0010
,
1000
0100
1000
0010
1000
0100
1000
0010
,
1000
0001
0010
0001
1000
0000
0110
0000
,
1000
0001
0010
0100
1000
0001
1000
0100
,
0010
0100
1000
0001
0010
0100
0010
0001
,
0100
0010
0100
0001
0010
0100
1000
0020
,
1000
1030
0011
0011
,
1000
0000
0000
1000
0000
0000
1000
0000
,
0000
1000
0000
0000
1000
0000
0000
1000
,
0000
0000
1000
0000
0000
1000
0000
0000
,
1000
0000
0000
1000
0000
0000
1000
0000
,
0000
1000
0000
0000
1100
0000
0000
1100
,
0000
0000
1010
0000
0000
1010
0000
0000
,
2002
0000
0000
0000
,
3003
0000
0000
0000
;
