#TITLE:Destination Helios;
#SUBTITLE:;
#ARTIST:ZETA vs. Renard;
#TITLETRANSLIT:;
#SUBTITLETRANSLIT:;
#ARTISTTRANSLIT:;
#CREDIT:;
#BANNER:../bn.png;
#BACKGROUND:../veyron.png;
#LYRICSPATH:;
#CDTITLE:;
#MUSIC:helios.ogg;
#OFFSET:0.000;
#SAMPLESTART:4.593;
#SAMPLELENGTH:18.570;
#SELECTABLE:YES;
#BPMS:0.000=209.000;
#STOPS:;
#BGCHANGES:;
// cache tags:
#FIRSTBEAT:16.000;
#LASTBEAT:376.000;
#SONGFILENAME:Songs/Cirque du Veyron/Zaia - Destination Helios/helios.sm;
#HASMUSIC:1;
#HASBANNER:1;
#MUSICLENGTH:112.198;
// end cache tags

//---------------dance-single - Zaia----------------
#NOTES:
     dance-single:
     Zaia:
     Challenge:
     15:
     1.000,1.000,0.241,0.321,1.000,864.000,27.000,36.000,0.000,0.000:
0000
0000
0000
0000
,
0000
0000
0000
0000
,
0000
0000
0000
0000
,
0000
0000
0000
0000
,
1000
0000
0100
0000
0010
0000
0100
0000
1000
0000
0001
0000
0100
0010
0100
0010
,
1000
0001
0020
0230
1000
2300
0010
3010
,
0100
0000
0001
0000
0010
0000
0001
0000
1000
0000
0001
0010
0100
0000
1000
0000
,
0010
0000
0100
0001
0100
0010
1000
0001
0010
0100
0020
0000
0001
0000
0031
0000
,
1000
0000
0001
0000
0010
0000
0001
0000
0100
0000
0010
0000
1000
0100
1000
0010
,
0100
0000
0010
0000
0100
0000
0001
0010
0001
0000
1000
0100
1000
0000
0000
0000
,
1001
0000
1001
0000
0001
0001
1000
1000
,
1010
0000
0001
0000
0101
0000
0100
0000
0010
1000
0010
0000
2000
0000
3000
0000
,
1001
0000
0001
1000
0100
0000
1000
0000
0010
0100
0010
1000
0001
0000
1000
0000
,
0011
0002
2003
3020
0100
0230
0010
0310
,
1000
0000
0100
0000
1000
0000
0010
0000
0100
0001
0010
0100
1000
0000
0001
0100
,
0001
0000
1000
0010
1000
0000
0001
0000
0011
0000
0010
0000
0001
1000
0001
1000
,
0100
0000
1000
0000
0010
0000
1000
0000
0100
0000
1000
0000
0001
0010
0001
1000
,
0001
0000
0100
0010
0100
0000
0001
1000
0001
0010
0001
0010
0001
1000
0001
1000
,
0100
0000
0010
0001
1000
0000
0010
1000
0001
0000
0100
0000
0001
0000
1000
0000
,
0001
0000
0010
0000
0100
0000
1000
0000
0200
0000
0320
0000
0031
1000
0001
1000
,
0010
0000
0100
0000
0001
0000
0010
0001
0000
1000
0001
0000
0200
0000
0320
0000
,
1030
0000
0100
0000
1000
0000
0001
1000
0001
0000
0100
0000
0010
0100
0010
0100
,
0001
0000
1000
0000
0100
0000
1000
0010
0000
1000
0001
0000
0010
0000
0100
0000
,
1000
0001
0010
0001
1000
0010
0100
0010
1000
0001
0100
0010
1000
0001
1000
0100
,
0010
0000
0001
0000
1000
0000
0010
0100
0000
0001
1000
0000
0100
0000
1000
0000
,
0000
0000
1000
0000
0001
0000
0100
0010
0100
0000
0010
1000
0001
0000
1000
0000
,
0100
0000
0010
0000
0001
0000
0000
1001
0000
0000
1000
0000
0010
0100
0001
0000
,
1000
0100
1000
0001
1000
0000
0001
0100
0010
0000
1000
0000
0001
0100
0001
0100
,
0010
1000
0100
0010
0001
1000
0010
0100
0010
1000
0100
0010
0001
0010
0001
1000
,
0010
0100
0010
1000
0001
0010
0001
1000
0010
1000
0100
0010
0001
1000
0010
0100
,
0010
1000
0100
1000
0010
0100
0001
1000
0100
0010
0001
1000
0010
1000
0001
1000
,
0001
0100
0010
1000
0001
0010
0100
1000
0100
0010
0001
1000
0010
0100
0001
1000
,
0001
0010
0001
0100
0001
1000
0100
0010
0001
1000
0010
0100
0001
1000
0100
1000
,
0001
0100
0001
1000
0100
0010
0001
0010
0100
1000
0001
0100
0010
0100
0010
1000
,
0001
0010
0100
0010
0001
1000
0010
1000
0001
0100
0001
1000
0100
0010
0001
0100
,
0010
1000
0001
0010
0100
1000
0010
0100
0001
1000
0010
0100
0010
1000
0100
0010
,
0001
0000
0000
0000
,
0000
0000
0000
0000
,
2002
0000
0000
0000
,
3003
0000
0000
0000
0000
0000
0000
0000
0000
0000
0000
0000
0000
0000
1000
0100
,
0010
0000
0000
0000
0000
0000
0000
0000
0001
0000
0000
0000
0010
0000
0000
0000
0000
0000
0000
0000
0000
0000
0000
0000
0011
0000
0000
0000
0000
0000
0000
0000
0000
0000
0000
0000
1000
0000
0000
0000
0000
0000
0001
0000
0000
0100
0000
0000
,
0010
0000
0000
0000
0000
0000
0000
0000
1000
0000
0000
0000
0010
0000
0000
0000
0000
0000
0000
0000
0000
0000
0000
0000
1010
0000
0000
0000
0000
0000
0000
0000
0000
0000
0000
0000
1000
0000
0000
0000
0000
0000
0100
0000
0000
0010
0000
0000
,
0002
0000
0023
0230
0000
2300
0000
3200
,
0000
0000
0000
0000
1300
0000
0001
0000
0000
0000
0000
0000
1001
0000
0000
0000
0000
0000
0001
0000
0000
0100
0000
0000
,
0010
0000
0000
0000
0000
0000
0000
0000
0100
0000
0000
0000
0010
0000
0000
0000
0000
0000
0000
0000
0000
0000
0000
0000
1010
0000
0000
0000
0000
0000
0000
0000
0000
0000
0000
0000
0001
0000
0000
0000
0000
0000
0010
0000
0000
0100
0000
0000
,
2000
3020
0230
0302
,
2003
0000
0000
0000
,
3001
0000
1001
0000
,
0001
1000
0001
0000
0010
0000
0100
1000
0001
1000
0100
1000
0010
0100
0010
0100
,
0002
0000
1003
1000
0100
0010
0001
1000
,
0010
0100
0010
0000
1000
0010
1000
0010
0100
0000
0001
0000
0011
0000
0010
0000
,
0110
0000
0100
0000
1000
0100
1000
0100
1000
0001
1000
0001
1000
0000
0001
0000
,
0100
0000
0010
1000
0001
0000
0010
0000
0001
0000
1000
0100
0010
0000
0001
0000
,
0010
0100
0010
0100
0010
0000
0100
0000
1000
0001
0010
0000
0100
0010
0100
0000
,
1000
0000
1000
0000
0001
0100
0001
0000
1010
0000
1000
0000
1001
0000
0001
0000
,
0011
0000
0001
0000
1000
0001
1000
0001
1000
0000
0001
0000
0100
0010
0100
0010
,
1000
0100
1000
0001
0010
0001
0010
0001
,
1000
0000
0001
0000
1000
0000
0001
0000
1000
0000
0001
0000
1000
0100
0010
0001
,
1000
0010
0100
0010
1000
0001
0010
0100
,
0010
0001
1000
0010
0100
0001
0010
0100
,
1100
0000
1000
0000
0001
0000
0100
0000
0010
0000
0100
0001
0010
0000
0100
0000
,
1000
1000
0001
0001
0100
0001
1000
0100
,
0010
0000
2001
0000
3010
0010
0100
0100
,
0001
1000
0001
0000
1000
0100
1000
0100
0010
0000
0001
0000
1000
0000
1000
0000
,
0010
0000
0000
0000
,
1000
0010
0100
0001
1000
0100
1000
0010
1000
0001
0010
0001
1000
0100
0010
0001
,
1000
0010
0100
0001
0100
0010
1000
0001
0010
0100
0010
0001
1000
0010
0100
0001
,
1000
0100
1000
0001
1000
0001
0100
0010
1000
0001
0010
0100
1000
0001
0010
0001
,
1000
0010
1000
0001
0100
0010
1000
0100
0010
0001
1000
0010
0100
0010
1000
0001
,
0010
0100
0010
0001
1000
0010
1000
0001
0010
0100
0010
0001
1000
0010
0100
0001
,
1000
0100
0010
0001
0010
0100
1000
0001
0100
0010
1000
0100
1000
0010
0100
0001
,
1000
0100
0010
0001
1000
0010
1000
0010
0100
0001
1000
0100
0010
0001
0010
0100
,
0010
0001
1000
0010
0100
0001
1000
0100
1000
0001
0100
0001
1000
0010
0100
0001
,
1000
0100
1000
0001
0010
0100
1000
0010
0100
0001
1000
0010
1000
0010
0100
0001
,
0010
0001
0100
0010
1000
0100
0010
0001
0100
0010
1000
0010
0100
0001
0010
0100
,
1000
0010
0100
0001
1000
0100
1000
0010
0100
0001
0010
0001
0100
0010
1000
0100
,
0010
0100
0010
0001
1000
0010
0100
0001
0100
0010
1000
0100
0010
0001
1000
0010
,
0100
0010
1000
0100
1000
0010
0100
0001
0010
0100
1000
0010
0100
0010
1000
0001
,
0010
0100
1000
0001
0100
0010
1000
0100
0010
0001
0100
0010
1000
0001
0010
0001
,
1000
0001
0100
0001
0010
0100
1000
0010
0100
0001
1000
0001
1000
0010
0100
0010
,
1000
0001
0010
0100
1000
0001
0010
0001
0100
0010
1000
0100
1000
0001
0010
0001
,
1000
0000
0000
0000
,
2002
0000
0000
0000
,
0000
0000
0000
3003
,
2000
3000
0000
0000
0000
0000
0000
0000
2000
0000
3000
0000
0000
0000
0000
0000
,
2000
0000
0000
3000
0000
0000
0000
0000
2000
0000
0000
0000
3000
0000
0000
0000
,
1001
0000
0001
0000
0010
0000
0001
0100
,
0000
0010
1000
0000
1020
0000
0130
0000
,
0001
0000
0000
0000
1000
0000
0001
0000
0000
0000
0000
0000
0010
0000
0000
0000
0000
0000
0100
0000
0000
1000
0000
0000
,
0000
0001
0100
0000
0110
0000
1000
0000
,
0100
0000
0000
0000
0010
0000
0100
0000
0000
0000
0000
0000
0110
0000
0000
0000
0000
0000
0010
0000
0000
0001
0000
0000
,
0000
1000
0100
0000
2010
0000
3001
0000
,
0100
0010
1000
0001
0010
0000
0000
0000
0000
0000
0000
0000
,
0000
0002
0000
0000
,
0003
0000
0000
0000
;
