#TITLE:Plaza Music - Mii Channel;
#SUBTITLE:Nintendo Wii;
#ARTIST:Kazumi Totaka;
#TITLETRANSLIT:;
#SUBTITLETRANSLIT:;
#ARTISTTRANSLIT:;
#CREDIT:Owem;
#BANNER:../banner.png;
#BACKGROUND:../bg.png;
#LYRICSPATH:;
#CDTITLE:../cdtitleowem.png;
#MUSIC:Mii Channel - Plaza Music.ogg;
#OFFSET:-0.631;
#SAMPLESTART:155.777;
#SAMPLELENGTH:29.999;
#SELECTABLE:YES;
#DISPLAYBPM:114.000;
#BPMS:0.000=180.000;
#STOPS:;
#BGCHANGES:;
// cache tags:
#FIRSTBEAT:0.000;
#LASTBEAT:355.000;
#SONGFILENAME:Songs/Owem's Simfiles 08 1.1/Plaza Music - [Owem]/Plaza Music - Mii Channel.sm;
#HASMUSIC:1;
#HASBANNER:1;
#MUSICLENGTH:186.484;
// end cache tags

//---------------dance-single - 3-2/6/8/18/14----------------
#NOTES:
     dance-single:
     3-2/6/8/18/14:
     Challenge:
     14:
     0.880,0.785,0.134,0.520,1.000,1027.000,25.000,97.000,2.000,0.000:
1000
0100
0020
0000
0001
0000
0000
0031
,
0000
0000
0001
0000
0100
0000
0020
0000
0000
0000
0000
0000
0000
0030
0000
0000
,
0000
1000
0100
0020
0031
0000
1000
0000
,
0020
0000
0030
0000
0200
0000
0000
0300
0001
0000
2000
0000
3000
0000
0200
0000
,
0000
0300
0000
0000
0000
0000
0010
0000
0001
0000
0000
0000
1000
0000
0000
0000
,
1020
0000
0130
0000
0001
1000
0000
2200
,
3300
0000
0000
0000
1000
0000
0000
0000
0020
0000
0000
0030
0200
0000
0000
0000
,
0302
0000
0000
0003
2000
0000
3000
0000
1020
0000
0000
0000
0000
0000
0030
0000
,
0100
0001
1000
0010
1000
0100
0010
0000
0001
1000
0010
1000
0100
0010
0001
1000
,
0100
1000
0001
0100
0010
1000
0001
0100
0001
1000
0100
0010
0100
1000
0001
0100
,
0001
1000
0010
0100
0001
1000
0100
1000
0010
0100
0001
1000
0100
1000
0001
0100
,
0010
1000
0001
0100
0001
1000
0100
0010
0001
0000
0101
0000
0210
0000
0310
0000
,
1010
0000
0110
0000
0201
0000
0301
0000
1000
0100
0010
0001
1000
0100
1000
0001
,
0100
0010
1000
0001
0100
0001
1000
0100
0010
0100
1000
0001
0100
0001
1000
0010
,
0100
0001
1000
0100
1000
0001
0100
0010
0100
0000
0001
0000
1000
0000
1100
0000
,
0100
0000
0000
0000
0010
0000
0000
0000
0012
0000
0000
0000
0000
0000
0000
0000
1003
0000
0000
0000
0000
0000
0000
0000
0010
0000
0000
0000
0000
0000
0000
0100
,
0000
0000
0000
0000
0000
0000
0000
0102
0000
0000
0000
0000
0003
0000
0000
0000
1000
0000
0000
0000
2000
0000
0000
0000
3010
0000
0000
0000
0000
0000
0000
0000
,
0200
0300
0000
0000
0001
0000
0000
0000
2000
0000
3000
0000
0200
0000
0000
0000
0310
0000
0000
0000
0010
0000
0000
0000
0002
0000
0003
0000
0000
0000
0000
0000
,
2000
3000
0010
0000
0100
0000
0002
0003
1000
0000
1000
0000
0010
0000
0100
0000
,
0002
0000
0000
0000
0000
0000
1003
0000
0000
0000
0000
0000
0200
0000
0000
0300
0000
0000
0020
0000
0000
0030
0000
0000
0002
0000
0000
0003
0000
0000
0002
0000
0000
0003
0000
0000
0100
0000
0010
0000
0100
0000
0010
0000
0000
0000
0000
0000
,
2000
3000
1000
0000
0002
0000
0003
0000
0100
0000
0200
0000
0310
0000
2000
3000
,
0002
0003
0010
0000
0200
0300
2000
3000
0010
0000
0020
0030
0200
0300
0002
0003
,
2000
0000
3010
0000
0100
0000
0002
0003
2000
3000
2000
3000
0200
0300
0000
0020
,
0000
0030
0002
0003
1000
0000
0020
0030
0100
0000
0001
0000
0001
0000
1000
0000
,
2000
0000
0000
0000
0000
0000
0000
0000
0000
0000
0000
0000
3000
0000
0000
0000
0000
0000
0000
0000
0000
0000
0000
0000
0000
0000
0000
0000
0000
0000
0000
0000
0000
0000
0000
0000
0000
0000
0000
0000
0000
0000
0000
0000
0000
0000
0010
0000
M00M
0100
0000
0000
0000
0000
0000
0000
0000
0000
0000
0000
0000
0000
0000
0000
0000
0000
0000
0000
0000
0000
0000
0000
0000
0000
0000
0000
0000
0000
0000
0000
0000
0000
0000
0000
0000
0000
0000
0000
0000
0000
0000
0000
0000
0000
0000
0000
0001
0000
0000
0000
0000
0000
0000
0000
0000
0000
0000
0000
1000
0000
0000
0000
0000
0000
0000
0000
0000
0000
0000
0000
0001
0000
0000
0000
0000
0000
0000
0000
0000
0000
0000
0000
0100
0000
0000
0000
0000
0000
0000
0000
0000
0000
0000
0000
0010
0000
0000
0000
0000
0000
0000
0000
0000
0000
0000
0000
1000
0000
0000
0000
0000
0000
0000
0000
0000
0000
0000
0000
0001
0000
0000
0000
0000
0000
0000
0000
0000
0000
0000
0000
1000
0000
0000
0000
0000
0000
0000
0000
0000
0000
0000
0000
,
0100
0010
0001
1000
0100
1000
0001
0010
0001
0100
0010
1000
0001
0100
0001
1000
,
0100
0010
0001
1000
0100
1000
0010
0100
0001
1000
0100
1000
0001
0010
0001
0100
,
0010
1000
0001
0100
0001
1000
0100
0010
0001
1000
0100
1000
0001
0010
0001
1000
,
0100
0010
0001
1000
0100
1000
0001
0100
0010
1000
0010
0100
0001
1000
0100
1000
,
0001
0010
0001
1000
0100
0010
0001
1000
0100
1000
0001
0100
0010
1000
0001
0100
,
0001
1000
0100
1000
0010
0100
0001
1000
0100
0000
0010
0000
0012
0003
0000
0000
,
1020
0030
1000
0000
0020
0030
0000
0000
0002
0003
0200
0300
0200
0300
0010
0000
,
0020
0030
0000
0000
1001
0000
0000
0000
2000
0000
0000
0000
3200
0000
0000
0300
,
0020
0000
0000
0000
0000
0000
0000
0000
0000
0030
0000
0000
0001
0000
0000
0000
0000
0000
2000
0000
0000
0000
0000
0000
3000
0000
0000
0000
0010
0000
0000
0000
0000
0000
0200
0000
0000
0000
0000
0000
0000
0000
0000
0300
0000
0000
0000
0000
,
0001
0000
0000
1000
0000
0000
0000
0000
0200
0000
0000
0300
0000
0000
0000
0010
,
0000
0000
0000
0000
0001
0000
2000
0000
3000
0000
0020
0000
0000
0000
0100
0030
,
0000
0000
0000
0000
0000
0000
0100
0000
0000
0000
0001
0000
0000
0000
0000
0000
0000
0000
0000
0000
1000
0000
0000
0000
0200
0000
0000
0000
0000
0000
0000
0000
0000
0000
0000
0000
0320
0000
0000
0000
0000
0000
0000
0000
0000
0030
0000
0000
,
0001
0000
0000
1000
0000
0010
0000
0000
0000
0000
0000
0000
0100
0001
0000
0000
,
2000
3000
0000
0000
0020
0000
0030
0000
0200
0300
0000
0000
0001
0000
1000
0000
,
0200
0300
0020
0030
0002
0003
2000
0000
0010
0000
3000
0000
0000
0000
0020
0000
,
0130
0001
1000
0001
0010
0000
0100
0000
1000
0010
0100
0001
1000
0100
1000
0001
,
0010
0001
0100
0010
1000
0010
0100
0001
1000
0100
1000
0001
0010
0001
1000
0100
,
0010
0001
1000
0100
1000
0001
0100
0010
1000
0001
0100
0001
1000
0100
0010
0001
,
0100
0010
1000
0001
0100
0010
0100
0001
1000
0100
1000
0001
0010
0001
1000
0100
,
0010
0001
1000
0100
1000
0010
0100
0001
1000
0010
1000
0001
0100
0010
0100
0001
,
1000
0100
1000
0001
0010
0001
1000
0100
0010
0001
1000
0100
1000
0010
0100
0010
,
1000
0001
0100
0001
1000
0100
0010
0001
0100
0010
1000
0001
0100
0010
0100
0001
,
1000
0100
0010
0001
1000
0100
1000
0001
0100
0010
0100
0001
1000
0100
0010
0100
,
1000
0001
1000
0010
1000
0001
0100
0010
0100
0001
1000
0010
2000
0000
0000
0000
,
0000
0000
0000
0000
3002
0003
0201
0300
0000
0000
0110
0000
1010
0000
1001
0000
,
0001
0010
0100
0000
1000
0010
0200
0000
0302
0000
0000
0000
1003
0100
0010
0001
,
1000
0100
1000
0001
0100
0010
1000
0001
0100
0001
1000
0100
0010
0001
1000
0100
,
1000
0001
0010
0001
0100
0010
1000
0001
0100
0010
0100
0001
1000
0100
1000
0001
,
0010
0100
0010
0001
1000
0100
1000
0001
1000
0010
0100
0001
1000
0010
1000
0001
,
1000
0100
0010
0001
1000
0100
1000
0001
0100
0010
1000
0001
0100
0001
1000
0010
,
0100
0001
1000
0100
1000
0001
0010
0001
1000
0100
1000
0010
0100
0001
1000
0100
,
1000
0001
0100
0001
1000
0010
0100
0001
1000
0001
0100
0010
1000
0001
0010
0001
,
0100
0010
1000
0001
0100
0001
1000
0100
0010
0001
1000
0100
1000
0001
0100
0010
,
1000
0001
0100
0001
1000
0100
0010
0001
0100
0010
0100
0001
1000
0100
1000
0001
,
0010
0001
0100
0010
1000
0001
0100
0001
1000
0010
1000
0001
0100
0010
1000
0001
,
0100
0001
1000
0100
0010
0100
1000
0001
0010
0001
1000
0001
0100
0010
0100
0001
,
1000
0100
1000
0010
0100
0001
1000
0100
1000
0001
0010
0100
1000
0001
0010
0001
,
1000
0100
1000
0001
1000
0010
0100
0001
1000
0010
1000
0001
0100
0001
1000
0100
,
1000
0001
0010
0100
1000
0100
0010
0001
1000
0100
1000
0010
0100
0001
1000
0100
,
0010
0001
1000
0001
0100
0010
1000
0001
0100
0001
1000
0100
0010
0001
1000
0100
,
1000
0001
0100
0010
1000
0001
0100
0001
1000
0100
0010
0001
0100
0010
0100
0001
,
1000
0010
0100
0001
1000
0100
1000
0001
0010
0001
1000
0100
0010
0100
1000
0001
,
1000
0010
0100
0001
1000
0100
1000
0001
0010
0001
0100
0010
1000
0001
0100
0001
,
1000
0100
0010
0001
1000
0100
1000
0010
0100
0000
0201
0300
0000
0000
0020
0030
,
2000
3000
0000
0002
0000
0003
0200
0000
0300
0000
1010
0000
1010
0000
0110
0000
,
0101
0000
0002
0000
2003
0000
3200
0000
0310
0001
1000
0001
0100
0010
1000
0001
,
0100
0001
1000
0100
0010
0001
1000
0100
1000
0001
0100
0010
1000
0100
1000
0001
,
0100
0001
0010
0100
1000
0001
0010
0001
1000
0100
0010
0100
1000
0001
0100
0001
,
1000
0100
1000
0010
0100
0001
1000
0100
0010
0100
1000
0001
0010
0001
0100
0010
,
1000
0001
0100
0010
0100
0001
1000
0010
1000
0100
0010
0001
1000
0100
1000
0001
,
0100
0010
1000
0001
0100
0001
1000
0100
1000
0001
0010
0100
1000
0001
0010
0001
,
1000
0100
1000
0001
1000
0010
0100
0001
1000
0100
1000
0001
0010
0100
1000
0001
,
0010
0001
1000
0010
1000
0001
0100
0010
1000
0001
0100
0010
0100
0001
1000
0100
,
0010
0001
1000
0100
1000
0001
0100
0010
1000
0001
0010
0001
1000
0100
0010
0001
,
1000
0100
1000
0001
0100
0010
1000
0001
0010
0001
1000
0100
0010
0001
1000
0100
,
1000
0001
0100
0010
1000
0001
0010
0001
1000
0100
1000
0010
1000
0001
0100
0010
,
1000
0010
0100
0001
1000
0100
0010
0001
1000
0100
1000
0001
0100
0010
0100
0001
,
1000
0100
1000
0001
0010
0100
1000
0001
0010
0001
1000
0010
1000
0001
0100
0010
,
1000
0001
0100
0001
1000
0100
0010
0001
1000
0100
1000
0010
0100
0001
1000
0100
,
1000
0001
0100
0010
2000
3000
0001
0100
0020
0000
0030
0000
2000
0000
3000
0000
,
0002
0000
0203
0000
0320
0000
0000
0030
,
2010
0000
0000
3000
1002
0000
0000
0000
,
0000
0000
0000
0000
0000
0000
0000
1000
,
0000
1000
0000
0000
0000
1003
0010
0100
0020
0000
0000
0000
0030
0000
0000
0000
;
