#TITLE:V^3;
#SUBTITLE:Hello World;
#ARTIST:ZiGZaG HACKER;
#TITLETRANSLIT:;
#SUBTITLETRANSLIT:;
#ARTISTTRANSLIT:;
#CREDIT:;
#BANNER:v^3-banner.png;
#BACKGROUND:V^3-bg.PNG;
#LYRICSPATH:;
#CDTITLE:!cleaner88hpi.png;
#MUSIC:V^3.ogg;
#OFFSET:-4.260;
#SAMPLESTART:46.400;
#SAMPLELENGTH:25.000;
#SELECTABLE:YES;
#DISPLAYBPM:1337.000:6666666.000;
#BPMS:0.000=115.000,7.000=240.001,7.500=258.001,8.000=230.001,72.000=349.999,88.000=359.999,104.000=369.999,120.000=379.999,136.000=389.999,144.000=399.998,152.000=409.998,160.000=419.998,168.000=429.998,172.000=439.998,176.000=449.998,180.000=459.998,184.000=469.998,188.000=479.998,192.000=489.999,196.000=499.998,200.000=509.999,204.000=519.999,208.000=539.999,272.000=270.003,300.000=150.003,316.000=160.003,318.000=165.003,320.000=170.002,322.000=175.002,324.000=180.002,326.000=185.002,328.000=190.002,330.000=200.002,332.000=210.002,334.000=220.002,336.000=230.002,338.000=240.002,340.000=250.002,342.000=260.002,344.000=270.002,346.000=280.002,348.000=290.002,350.000=300.003,352.000=310.003,354.000=320.003,356.000=330.003,358.000=340.003,360.000=350.003,362.000=360.003,364.000=370.003,365.000=380.003,366.000=390.002,367.000=400.002,368.000=410.002,369.000=420.002,370.000=430.003,371.000=440.003,372.000=450.002,373.000=460.002,374.000=470.002,375.000=480.002,376.000=490.003,377.000=500.002,378.000=510.002,379.000=520.002,380.000=530.002,381.000=540.002,382.000=550.002,383.000=560.002,384.000=570.002,385.000=580.002,386.000=590.002,387.000=600.002,388.000=610.002,389.000=620.002,390.000=630.002,391.000=640.002,392.000=650.002,393.000=660.002,394.000=670.002,395.000=680.002,396.000=290.008,416.000=580.003,546.000=598.403,546.500=610.403,547.000=626.003,547.500=724.403,548.500=627.603,549.000=584.003,549.500=585.603,550.500=585.603,551.000=584.803,551.500=584.803,552.000=623.643,552.500=628.223,553.000=623.823,553.500=625.423,554.000=629.823,554.500=631.423,555.000=658.022,555.500=676.022,556.000=700.822,556.500=663.402,557.000=717.001,557.500=783.400,558.000=640.023,558.500=671.002,559.000=661.002,559.500=695.402,560.000=641.802,560.500=589.403,561.000=596.603,561.500=581.803,562.000=597.423,562.500=580.623,563.000=582.223,563.500=583.023,564.000=582.423,564.500=581.823,565.000=606.063,565.500=582.223,566.000=712.601,566.500=731.801,567.000=668.602,567.500=673.622,568.000=661.802,568.500=670.402,569.000=648.602,569.500=709.201,570.000=631.403,570.500=704.001,571.000=626.203,571.500=581.203,572.000=585.803,572.500=579.403,573.000=585.803,573.500=577.803,574.000=626.603,574.500=577.823,575.000=603.423,575.500=588.223,576.000=606.823,576.500=576.623,577.000=579.223,577.500=577.023,578.000=582.823,578.500=591.023,579.000=580.023,579.500=577.823,580.000=614.023,580.500=593.423,581.000=587.023,581.500=599.023,582.000=607.023,582.500=618.223,583.000=670.222,583.500=604.623,584.000=743.021,584.500=755.821,585.000=825.420,585.500=932.618,586.000=972.617,586.500=753.421,587.000=766.221,587.500=743.821,588.000=664.622,588.500=651.022,589.000=638.223,589.500=628.623,590.000=659.822,590.500=715.021,591.000=706.221,591.500=703.022,592.000=691.822,592.500=671.822,593.000=698.282,593.500=639.023,594.000=674.222,594.500=642.222,595.000=665.422,595.500=644.622,596.000=656.622,596.500=646.222,597.000=653.422,597.500=647.822,598.000=671.022,598.500=649.422,599.000=724.621,599.500=667.822,600.000=679.822,600.500=669.422,601.000=681.422,601.500=671.022,602.000=680.622,602.500=672.622,603.000=695.822,603.500=674.222,604.000=680.622,604.500=675.822,605.000=683.822,605.500=677.422,606.000=687.022,606.500=679.022,607.000=689.422,607.500=680.622,608.000=688.622,608.500=694.222,609.000=704.622,609.500=697.422,610.000=704.622,610.500=699.022,611.000=707.821,611.500=700.622,612.000=708.621,612.500=702.222,613.000=709.421,613.500=703.822,614.000=709.421,614.500=705.422,615.000=712.621,615.500=707.021,616.000=711.821,616.500=708.621,617.000=713.421,617.500=710.221,618.000=714.221,618.500=711.821,619.000=714.221,619.500=713.421,620.000=722.221,620.500=723.021,621.000=725.421,621.500=728.621,622.000=732.621,622.500=736.621,623.000=740.621,623.500=739.821,624.000=745.421,624.500=746.221,625.000=754.221,625.500=755.021,626.000=758.221,626.500=760.621,627.000=764.621,627.500=763.821,628.000=766.221,628.500=765.421,629.000=783.020,630.000=784.620,631.000=785.420;
#STOPS:7.500=0.280
,549.000=0.260
,550.000=0.280
,551.000=0.480
;
#BGCHANGES:;
// cache tags:
#FIRSTBEAT:0.000;
#LASTBEAT:584.000;
#SONGFILENAME:Songs/Hard Songs Megapack Volume 9/V^3/V^3.sm;
#HASMUSIC:1;
#HASBANNER:1;
#MUSICLENGTH:108.277;
// end cache tags

//---------------dance-single - Not recommended with----------------
#NOTES:
     dance-single:
     Not recommended with:
     Beginner:
     401:
     1.000,1.000,1.000,0.887,1.000,920.000,492.000,96.000,0.000,31.000:
0011
0000
0000
0000
0000
0000
0011
0000
0000
0000
0000
0000
0011
0000
0000
0000
0000
0000
0101
0000
0000
0000
0000
0000
1001
0000
0000
0000
0000
0000
0000
0000
0000
0000
0000
0000
0101
0000
0000
0000
0000
0000
1010
0000
0000
0000
0000
0000
0000
0000
0000
0000
0000
0000
1001
0000
0000
0000
0000
0000
0110
0000
0000
0000
0000
0000
1001
0000
0000
0000
0000
0000
0000
0000
0000
0000
0000
0000
0011
0000
0000
0000
0000
0000
1100
0000
0000
0000
0000
0000
1100
0000
0000
0000
0000
0000
0022
0000
0000
0000
0000
0000
0000
0000
0000
0033
0000
0000
2200
0000
0000
0000
0000
0000
0000
0000
0000
3300
0000
0000
0022
0000
0000
0000
0000
0000
0000
0000
0000
0000
0000
0000
0000
0000
0000
0000
0000
0000
0000
0000
0033
0000
0000
0000
1100
0000
0000
0101
0000
0000
1100
0000
0000
0101
0000
0000
1100
0000
0000
0101
0000
0000
1100
0000
0000
0000
0000
0000
0101
0000
0000
0000
0000
0000
1001
0000
0000
0000
0000
0000
1001
0000
0000
0000
0000
0000
1010
0000
0000
0000
0000
0000
,
1001
0000
0000
0000
0000
0000
1001
0000
0000
0000
0000
0000
1001
0000
0000
0000
0000
0000
1001
0000
0000
0000
0000
0000
0101
0000
0000
0000
0000
0000
1001
0000
0000
0000
0000
0000
0101
0000
0000
0000
0000
0000
0011
0000
0000
0000
0000
0000
1001
0000
0000
0000
0000
0000
0000
0000
1001
0000
0000
0000
0000
0000
0000
0000
1001
0000
0000
0000
0000
0000
0000
0000
1001
0000
0000
0000
0000
0000
0000
0000
1001
0000
0000
0000
0000
0000
0000
0000
1001
0000
0000
0000
0000
0000
0000
0000
1001
0000
0000
0000
0000
0000
0000
0000
1001
0000
0000
0000
0000
0000
0000
0000
1001
0000
0000
0000
0000
0000
0000
0000
1001
0000
0000
0000
0000
0000
0000
0000
1001
0000
0000
0000
0000
0000
0000
0000
1001
0000
0000
0000
0000
0000
0000
0000
0220
0000
0000
0000
0000
0000
0000
0000
0330
0000
0000
0000
0000
0000
0000
0000
0000
0000
0000
0000
0000
0000
0000
0000
0000
0000
0000
0000
0000
0000
0000
0000
0000
0000
0000
0000
0000
0000
0000
0000
0000
0000
0000
0000
0000
0000
0000
0000
,
1100
0010
0101
0110
1100
0100
1100
0022
,
1133
0000
0010
0000
0101
0000
0220
0000
1330
0000
0001
0000
1010
1010
0011
0011
,
1100
0001
0110
0022
1133
1000
1001
0020
,
0000
1130
1100
1100
1100
1100
0011
0011
,
1010
0000
0001
0000
0110
0000
0101
0000
1000
0000
0010
0000
1100
0000
0101
0101
,
0110
0000
1100
1100
1001
0000
0110
0110
1002
0003
2001
3000
1002
0003
2001
3000
,
0012
0000
0000
0000
0000
0000
0000
0000
0103
0000
0000
0000
0000
0000
0000
0000
1000
0000
0000
0000
0000
0000
0000
0000
0110
0000
0000
0000
0000
0000
0000
0000
0012
0000
0000
0000
0003
0000
0000
0000
0021
0000
0000
0000
0030
0000
0000
0000
0012
0000
0000
0000
0003
0000
0000
0000
0000
0000
0000
2002
0000
0000
0000
0000
,
0000
0000
0000
0000
0000
0000
0000
0100
0000
0000
0000
0000
0000
0000
0000
0010
0000
0000
0000
0000
0000
0000
0000
0100
0000
0000
0000
0000
0000
0000
0000
3103
0000
0000
0000
0000
0000
0000
0000
0000
0000
0000
0000
0000
0000
0000
0000
1100
0000
0000
0000
0000
0000
0000
0000
0000
0000
0000
0000
0000
0000
0000
0000
0000
,
1001
0000
0010
0000
0100
0000
0011
1000
0101
0000
0011
1000
0110
0000
1001
0000
,
0110
0000
0011
0000
1001
0000
0110
0000
0011
0000
1100
0000
1100
0011
0000
0110
,
1001
0000
0000
0100
0000
0000
0010
0000
0000
1001
0000
0000
0100
0000
0000
0010
0000
0000
1100
0000
0000
0011
0000
0000
0011
0000
0000
0000
0011
0000
0000
0000
0011
0000
0000
0000
0011
0000
0000
0000
0011
0000
0000
0000
0011
0000
0000
0000
,
2200
0001
3311
0022
0100
1000
1133
0100
,
1001
0000
0101
0000
0110
0000
1010
0100
1001
0000
0101
0000
0011
1000
0110
0000
,
1100
0000
1010
0000
1001
0000
0101
0000
0011
0000
0110
0000
1100
1100
0011
0011
,
1100
0000
0000
0000
0000
0000
0101
0000
0000
0110
0000
0000
1010
0000
0000
0000
0000
0000
1010
0000
0000
0000
0000
0000
0101
0000
0000
0000
0000
0000
0010
0000
0000
0000
0000
0000
0101
0000
0000
0000
0101
0000
0000
0000
0101
0000
0000
0000
,
2002
0000
0000
0000
0000
0000
3223
0000
0000
0000
0000
0330
,
1001
0000
0100
0010
0001
0000
0110
0000
,
1000
0110
0000
1000
0101
0000
1000
0110
,
1001
0000
0010
0100
1000
0000
0011
0000
,
1000
0101
0000
0010
1100
0000
0001
0110
,
1001
0000
1000
0100
0011
0000
1010
0000
,
0100
1010
0000
0010
0101
0000
0011
0011
,
0011
0000
0100
0010
1000
0000
0101
0000
,
0010
1100
0000
0010
0101
0101
0101
0101
,
1001
0000
0010
0100
1000
0000
0011
0000
,
0010
0101
0000
0010
1100
0000
0100
1000
,
0011
0000
0100
0010
0001
0000
0011
0000
,
0010
0101
0000
1000
0011
0000
0100
0011
,
1010
0000
0001
0010
0100
0000
0011
0000
,
0100
0011
0000
0100
0011
0000
1000
0101
,
1010
0000
0100
1000
0100
0000
0110
0000
,
0010
0101
0000
1000
0110
0110
0110
0110
,
1001
0000
0001
0010
0001
0000
0011
0000
,
0010
0101
0000
0001
0110
0000
0100
0011
,
1100
0000
0001
0010
0001
0000
1100
0000
,
1000
0110
0000
0001
1010
0000
0100
0011
,
1100
0000
0100
1000
0100
0000
1100
0000
,
0100
1010
0000
0010
0101
0000
1000
0101
,
1010
0000
0100
0010
1000
0000
0101
0000
,
0010
1001
0000
0100
1001
1001
1001
1001
,
1001
0000
0100
0010
0001
0000
0101
0000
,
1001
0000
0100
0010
0001
0000
0101
0000
,
1001
0000
0100
0010
0001
0000
0101
0000
,
1001
0000
0100
0010
0001
0000
0101
0000
,
1100
0010
0101
1000
0110
0001
1100
0010
,
0101
1000
0110
0001
1100
0010
0101
1000
,
0110
0001
1100
0010
0101
1000
0110
0001
,
1100
0010
0101
1000
0110
0001
1100
0010
,
0101
1000
0110
0001
1100
0010
0101
1000
,
0110
0001
1100
0010
0101
1000
0110
0001
,
1100
0010
0101
1000
0110
0001
1100
0010
,
0101
1000
0110
0001
1100
0010
0101
1000
,
0011
0000
1000
1000
1001
0000
0110
0000
,
1000
0110
0000
1000
0110
0000
0001
0001
,
0101
0000
0010
0010
0011
0000
0011
0000
,
0100
0000
0000
0000
0011
0000
0000
0000
0000
0000
0000
0000
0100
0000
0000
0000
0011
0000
0000
0000
0000
0000
0000
0000
1000
0001
1000
0001
1000
0001
1000
0001
,
0110
0000
1000
1000
1010
0000
0101
0000
,
0010
0101
0000
0010
0101
0000
0001
0001
,
0011
0000
1000
1000
1100
0000
0101
0000
,
0110
1001
0000
0010
1001
0110
1001
0110
,
1001
0000
0100
0100
0110
0000
0101
0000
,
1010
0000
0000
0101
0000
0000
0000
0000
0000
0010
0000
0000
0101
0000
0000
0000
0101
0000
0000
0000
0101
0000
0000
0000
,
1001
0000
0010
0010
0110
0000
0101
0000
,
1001
0000
0100
0100
1100
0000
0110
0000
,
1001
0000
0100
0100
0110
0000
0110
0000
,
1100
0011
1100
0011
1100
0011
1100
0011
,
2200
0000
0000
0000
0000
0000
0000
0000
0000
0000
0000
0000
0000
0000
0000
0000
3322
0000
0000
0000
0000
0000
0000
0000
0000
0000
0000
0000
0000
0000
0000
0000
0033
0000
0000
0000
0000
0000
0000
0000
0000
0000
0000
0000
0000
0000
0000
0000
0000
0000
0000
0000
0000
0000
0000
0000
0000
0000
0000
0000
0000
0000
0000
0000
0000
0000
0000
0000
0000
0000
0000
0000
0010
0000
0000
0000
0001
0000
0000
0000
0000
0000
0000
0000
0010
0000
0000
0000
0001
0000
0000
0000
0000
0000
0000
0000
0010
0000
0000
0000
0001
0000
0000
0000
0000
0000
0000
0000
0010
0000
0000
0000
0001
0000
0000
0000
0000
0000
0000
0000
0000
0000
0000
0000
0000
0000
0000
0000
0000
0000
0000
0000
0000
0000
0000
0000
0000
0000
0000
0000
0000
0000
0000
0000
0202
0000
0000
0000
0000
0000
0000
0000
0000
0000
0000
0000
0000
0000
0000
0000
0000
0000
0020
0000
0000
0000
0000
0000
0000
0000
0000
0000
0000
0000
0000
0000
0000
0000
0000
0000
0000
0000
0000
0000
0000
0000
0000
0000
0000
0000
0000
0000
,
0000
0000
0000
0000
0000
0000
0000
0000
0000
0000
0000
0000
0000
0000
0000
0000
0000
0000
0000
0000
0000
0000
0000
0000
0000
0000
0000
0000
0000
0000
0300
0000
0000
0000
0000
0000
0003
0000
0000
0000
0000
0000
0030
0000
0000
0000
0000
0000
0002
0000
0000
0000
0000
0000
0000
0000
0000
0000
0000
0000
0000
0000
0000
0000
0000
0000
0000
0000
0000
0000
0000
0000
0000
0000
0000
0000
0000
0000
0000
0000
0000
0000
0000
0000
0000
0000
0000
0000
0003
0000
0000
0000
0000
0000
0000
0000
2000
0000
0000
0000
0000
0000
0000
0000
0000
0000
0000
0000
0000
0000
0000
0000
0000
0000
0000
0000
0000
0000
0000
0000
0200
0000
0000
0000
0000
0000
0000
0000
0000
0000
0000
0000
0000
0000
0000
0000
0000
0000
0000
0000
0000
0000
0000
0000
0010
0000
0000
0000
0000
0000
0000
0000
0001
0000
0000
0000
0000
0000
0000
0000
0010
0000
0000
0000
0000
0000
0000
0000
0000
0000
0000
0000
0000
0000
0000
0000
0000
0000
0000
0000
0000
0000
0000
0000
0000
0000
0000
0000
0000
0000
0000
0000
,
0001
0000
0000
0000
0000
0000
0000
0000
0010
0000
0000
0000
0000
0000
0000
0000
0001
0000
0000
0000
0000
0000
0000
0000
0000
0000
0000
0000
0000
0000
0000
0000
0000
0000
0000
0000
0000
0000
0000
0000
0000
0000
0000
0000
0000
0000
0000
0000
0010
0000
0000
0000
0000
0000
0000
0000
0001
0000
0000
0000
0000
0000
0000
0000
0010
0000
0000
0000
0000
0000
0000
0000
0000
0000
0000
0000
0000
0000
0000
0000
0000
0000
0000
0000
0000
0000
0000
0000
0000
0000
0000
0000
0000
0000
0000
0000
3301
0000
0000
0000
0000
0000
0010
0000
0000
0000
0000
0000
0001
0000
0000
0000
0000
0000
0010
0000
0000
0000
0000
0000
0001
0000
0000
0000
0000
0000
1000
0000
0000
0000
0000
0000
0001
0000
0000
0000
0000
0000
1000
0000
0000
0000
0000
0000
0221
0000
0000
0000
0000
0000
0000
0000
0000
0000
0000
0000
0000
0000
0000
0000
0000
0000
0000
0000
0000
0000
0000
0000
0000
0000
0000
0000
0000
0000
0000
0000
0000
0000
0000
0000
0000
0000
0000
0000
0000
0000
0000
0000
0000
0000
0000
0000
,
2332
0000
0000
0000
0000
0000
0000
0000
0000
0000
0000
0000
0000
0000
0000
0000
0000
0000
0000
0000
0000
0000
0000
0000
3003
0000
0000
0000
0000
0000
0000
0000
0000
0000
0000
0000
0000
0000
0000
0000
0000
0000
0000
0000
0000
0000
0000
0000
0100
0000
0000
0000
0010
0000
0000
0000
0001
0000
0000
0000
0000
0000
0000
0000
0000
0000
0000
0000
0000
0000
0000
0000
2020
0000
0000
0000
0000
0000
0000
0000
0000
0000
0000
0000
0000
0000
0000
0000
0000
0000
0000
0000
0000
0000
0000
0000
3130
0000
0000
0000
0000
0000
0001
0000
0000
0000
0000
0000
0100
0000
0000
0000
0000
0000
0001
0000
0000
0000
0000
0000
2020
0000
0000
0000
0000
0000
3030
0000
0000
0000
0000
0000
0000
0000
0000
0000
0000
0000
0000
0000
0000
0000
0000
0000
2002
0000
0000
0000
0000
0000
0000
0000
0000
0000
0000
0000
0000
0000
0000
0000
0000
0000
0000
0000
0000
0000
0000
0000
3223
0000
0000
0000
0000
0000
0000
0000
0000
0000
0000
0000
0000
0000
0000
0000
0000
0000
0330
0000
0000
0000
0000
0000
,
2200
0000
0000
0000
0000
0000
0000
0000
0000
0000
0000
0000
0000
0000
0000
0000
0000
0000
0000
0000
0000
0000
0000
0000
0000
0000
0000
0000
0000
0000
0000
0000
0000
0000
0000
0000
0000
0000
0000
0000
0000
0000
3300
0000
0000
0000
0000
0000
0011
0000
0000
0000
0000
0000
1100
0000
0000
0000
0000
0000
0011
0000
0000
0000
0000
0000
1100
0000
0000
0000
0000
0000
0011
0000
0000
0000
0000
0000
0000
0000
0000
0000
0000
0000
0000
0000
0000
0000
0000
0000
0000
0000
0000
0000
0000
0000
1010
0000
0000
0000
0000
0000
0000
0000
0000
0000
0000
0000
0000
0000
0000
0000
0000
0000
0000
0000
0000
0000
0000
0000
0002
0000
0000
0000
0000
0000
0000
0000
0000
0000
0000
0000
0000
0000
0000
0000
0000
0000
0000
0000
0000
0000
0000
0000
1103
0000
0000
0000
0000
0000
0000
0000
0000
0000
0000
0000
0000
0000
0000
0000
1001
0000
0000
0000
0000
0000
0000
0000
0000
0000
0000
0000
0000
0000
0000
0000
0101
0000
0000
0000
0000
0000
0000
0000
0000
0000
0000
0000
0000
0000
0000
0000
,
0101
0000
0000
0000
0011
0000
0000
0000
1001
0000
0000
0000
0010
0000
0000
0100
0000
0000
0010
0000
0000
0100
0000
0000
0011
0000
0000
0000
1100
0000
0000
0000
0011
0000
0000
0000
1100
0000
0000
0000
0000
0000
0011
0000
0000
0000
0000
0000
,
1100
0011
0110
2002
0000
0000
0000
0000
3003
0000
0000
0000
,
1001
0000
0000
0010
0000
1000
0100
0000
0011
0000
0000
0000
1100
0000
0000
0000
,
0101
0000
0000
0001
0000
0100
0010
0000
1001
0000
0010
0000
1001
0000
0000
0000
,
1010
0000
0000
0100
0000
0010
0001
0000
1010
0000
0000
0000
1001
0000
0000
0000
,
0101
0000
0000
0001
0000
0010
0100
0000
1001
0000
0010
0000
0101
0000
1000
0000
,
0101
0000
0000
1000
0000
0100
0010
0000
1001
0000
0000
0000
0101
0000
0000
0000
,
1010
0000
0000
0001
0000
0100
0010
0000
1100
0000
0010
0000
0101
0000
0000
0000
,
1001
0000
0000
0010
0000
0001
0010
0000
0101
0000
0000
0000
0011
0000
0000
0000
,
1100
0000
0000
0010
0000
1000
0100
0000
1001
0000
0010
0000
1100
0000
0001
0000
,
0110
0000
0000
0001
0000
1000
0001
0000
0110
0000
0000
0000
0101
0000
0000
0000
,
0110
0000
0000
0001
0000
1000
0100
0000
1010
0000
0001
0000
0110
0000
0000
0000
,
0101
0000
0000
0001
0000
0100
0010
0000
0101
0000
0000
0000
1010
0000
0000
0000
,
1001
0000
0000
0010
0000
0100
0010
0000
0101
0000
0010
0000
1100
0000
0001
0000
,
1100
0000
0000
0010
0000
0001
0010
0000
0101
0000
0000
0000
1010
0000
0000
0000
,
1001
0000
0000
0010
0000
0100
1000
0000
0101
0000
0010
0000
1100
0000
0010
0000
,
1001
0000
0000
0100
0000
1000
0010
0000
0101
0000
0000
0000
1010
0000
0000
0000
,
1001
0000
0000
0100
0000
0010
0100
0000
1001
0000
0100
0000
0011
0000
0100
0000
,
1010
0000
0000
0001
0000
0100
0010
0000
0101
0000
0000
0000
1010
0000
0000
0000
,
1001
0000
0000
0001
0000
1000
0001
0000
1001
0000
0000
0000
1001
0000
0000
0000
,
1001
0000
0000
1000
0000
1000
0001
0000
1001
0000
1001
0000
1001
0000
1001
0000
,
1001
0000
0000
0001
0000
1000
0001
0000
1001
0000
0000
0000
1001
0000
0000
0000
,
1001
0000
0000
1000
0000
1000
0001
0000
1001
0000
1001
0000
1001
0000
1001
0000
,
1001
0000
0000
0001
0000
1000
0001
0000
1001
0000
0000
0000
1001
0000
0000
0000
,
1001
0000
0000
1000
0000
1000
0001
0000
1001
0000
1001
0000
1001
0000
1001
0000
,
1001
0000
0000
1000
0000
1000
0001
0000
1001
0000
1001
0000
1001
0000
1001
0000
,
2002
0000
0000
0000
,
0000
0000
0000
0000
,
3003
0000
0000
0000
0000
0000
1000
0100
0010
0001
1000
0100
0010
0001
1000
0100
0010
0001
1000
0100
0010
0001
1000
0100
0010
0001
1000
0100
0010
0001
1000
0100
,
0010
0000
0000
0000
0000
0000
0001
0000
0000
0000
0000
0000
1000
0000
0000
0000
0000
0000
0100
0000
0000
0000
0000
0000
0010
0000
0000
0000
0000
0000
0001
0000
0000
0000
0000
0000
1000
0000
0000
0000
0000
0000
0100
0000
0000
0000
0000
0000
0010
0000
0000
0000
0000
0000
0001
0000
0000
0000
0000
0000
1000
0000
0000
0000
0000
0000
0100
0000
0000
0000
0000
0000
0010
0000
0000
0000
0000
0000
0000
0000
1001
0000
0000
0000
0000
0000
0000
0000
0000
0000
0000
0000
0000
0000
0000
0000
1001
0000
0000
0000
0000
0000
0000
0000
0000
0000
0000
0000
0000
0000
0000
0000
1001
0000
0000
0000
0000
0000
0000
0000
0000
0000
0000
0000
0000
0000
0000
0000
1001
0000
0000
0000
0000
0000
0000
0000
0000
0000
0000
0000
0000
0000
0000
0000
1001
0000
0000
0000
0000
0000
0000
0000
0000
0000
0000
0000
0000
0000
0000
0000
1001
0000
0000
0000
0000
0000
0000
0000
0000
0000
0000
0000
0000
0000
0000
0000
1001
0000
0000
0000
0000
0000
0000
0000
0000
0000
0000
0000
0000
0000
0000
0000
,
2002
3003
0000
0000
0000
0000
0000
0000
0000
0000
0000
0000
0000
0000
0000
0000
0000
0000
0000
0000
0000
0000
0000
0000
,
0001
0000
0100
0100
0100
0000
0010
0000
,
1000
0100
0010
0001
,
0100
0000
0010
0010
0010
0000
0001
0000
,
0010
0001
0100
0010
,
1000
0000
0100
0100
0100
0000
1000
0000
,
0001
0100
0010
0001
,
0100
0000
1000
1000
1000
0000
0100
0000
,
1000
0010
0100
0001
,
0010
0000
0100
0100
0100
0000
1000
0000
,
0001
1000
0100
0010
,
0001
0000
0100
0100
0100
0000
0010
0000
,
1000
0100
0010
0001
,
0010
0000
0100
0100
0100
0000
0010
0000
,
1000
0001
0100
0010
,
1000
0000
0100
0100
0100
0000
0010
0000
,
2002
3003
0000
0000
0000
0000
0000
0000
0000
0000
0000
0000
0000
0000
0000
0000
2002
3003
0000
0000
0000
0000
0000
0000
0000
0000
0000
0000
0000
0000
0000
0000
2002
3003
0000
0000
0000
0000
0000
0000
0000
0000
0000
0000
0000
0000
0000
0000
2002
3003
0000
0000
0000
0000
0000
0000
0000
0000
0000
0000
0000
0000
0000
0000
,
1000
1000
0001
0001
,
1000
1000
0022
0033
,
1000
0000
0000
0000
0000
0000
1001
0000
0000
0110
0000
0000
1001
0000
0000
0000
1001
0000
0000
0000
1001
0000
0000
0000
,
1001
0000
1001
0000
1001
0000
0022
0000
0033
0000
0000
0000
,
1100
0000
0011
0000
0202
0000
0000
0303
,
1001
0000
0110
0000
2002
3003
1100
0110
,
0022
0033
0022
0033
,
0220
0330
2200
3300
,
1100
0000
0000
0000
0100
0000
0011
0000
0000
0000
0100
0000
,
1001
0000
0000
0000
0010
0000
1100
0000
0000
0000
0001
0000
,
1010
0000
0000
0000
0100
0000
0011
0000
0000
0000
1000
0000
,
0101
0000
0000
0000
0010
0000
1100
0000
0000
0000
0001
0000
,
0110
0000
0011
0000
1010
0000
0011
0000
0110
0000
1010
0000
,
0011
0000
1010
0000
0110
0000
0011
0000
1010
0000
0011
0000
,
1010
0000
0110
0000
0011
0000
1010
0000
0110
0000
1010
0000
,
0011
0000
0110
0000
1010
0000
0011
0000
1010
0000
0110
0000
,
0000
0000
0000
0000
,
0000
0000
0000
0000
0022
0000
0000
0000
0000
0033
0000
0000
2200
0000
0000
3300
0000
0000
0220
0000
0000
0330
0000
0000
,
2002
0000
0000
0000
,
0000
0000
0000
0000
,
0000
0000
0000
0000
,
0000
0000
0000
0000
,
0000
0000
0000
0000
,
0000
0000
0000
0000
,
0000
0000
0000
0000
,
0000
0000
0000
0000
,
3003
0000
0000
0000
;
